  0
SECTION
  2
HEADER
  9
$ACADVER
  1
AC1015
  9
$ACADMAINTVER
 70
     6
  9
$DWGCODEPAGE
  3
ANSI_1252
  9
$INSBASE
 10
0.0
 20
0.0
 30
0.0
  9
$EXTMIN
 10
-271.75
 20
-87.335738
 30
0.0
  9
$EXTMAX
 10
568.25
 20
506.664262
 30
0.0
  9
$LIMMIN
 10
-271.75
 20
-87.335738
  9
$LIMMAX
 10
568.25
 20
506.664262
  9
$ORTHOMODE
 70
     0
  9
$REGENMODE
 70
     1
  9
$FILLMODE
 70
     1
  9
$QTEXTMODE
 70
     0
  9
$MIRRTEXT
 70
     1
  9
$LTSCALE
 40
2.0
  9
$ATTMODE
 70
     1
  9
$TEXTSIZE
 40
2.5
  9
$TRACEWID
 40
1.0
  9
$TEXTSTYLE
  7
Standard
  9
$CLAYER
  8
0
  9
$CELTYPE
  6
ByLayer
  9
$CECOLOR
 62
     7
  9
$CELTSCALE
 40
1.0
  9
$DISPSILH
 70
     0
  9
$DIMSCALE
 40
2.0
  9
$DIMASZ
 40
3.5
  9
$DIMEXO
 40
0.625
  9
$DIMDLI
 40
3.75
  9
$DIMRND
 40
0.0
  9
$DIMDLE
 40
0.0
  9
$DIMEXE
 40
1.25
  9
$DIMTP
 40
0.0
  9
$DIMTM
 40
0.0
  9
$DIMTXT
 40
3.5
  9
$DIMCEN
 40
2.5
  9
$DIMTSZ
 40
0.0
  9
$DIMTOL
 70
     0
  9
$DIMLIM
 70
     0
  9
$DIMTIH
 70
     0
  9
$DIMTOH
 70
     0
  9
$DIMSE1
 70
     0
  9
$DIMSE2
 70
     0
  9
$DIMTAD
 70
     1
  9
$DIMZIN
 70
     8
  9
$DIMBLK
  1

  9
$DIMASO
 70
     1
  9
$DIMSHO
 70
     1
  9
$DIMPOST
  1

  9
$DIMAPOST
  1

  9
$DIMALT
 70
     0
  9
$DIMALTD
 70
     3
  9
$DIMALTF
 40
0.03937
  9
$DIMLFAC
 40
1.0
  9
$DIMTOFL
 70
     1
  9
$DIMTVP
 40
0.0
  9
$DIMTIX
 70
     0
  9
$DIMSOXD
 70
     0
  9
$DIMSAH
 70
     0
  9
$DIMBLK1
  1

  9
$DIMBLK2
  1

  9
$DIMSTYLE
  2
ISO-25
  9
$DIMCLRD
 70
     0
  9
$DIMCLRE
 70
     0
  9
$DIMCLRT
 70
     0
  9
$DIMTFAC
 40
1.0
  9
$DIMGAP
 40
0.625
  9
$DIMJUST
 70
     0
  9
$DIMSD1
 70
     0
  9
$DIMSD2
 70
     0
  9
$DIMTOLJ
 70
     0
  9
$DIMTZIN
 70
     8
  9
$DIMALTZ
 70
     0
  9
$DIMALTTZ
 70
     0
  9
$DIMUPT
 70
     0
  9
$DIMDEC
 70
     2
  9
$DIMTDEC
 70
     2
  9
$DIMALTU
 70
     2
  9
$DIMALTTD
 70
     3
  9
$DIMTXSTY
  7
Standard
  9
$DIMAUNIT
 70
     0
  9
$DIMADEC
 70
     0
  9
$DIMALTRND
 40
0.0
  9
$DIMAZIN
 70
     0
  9
$DIMDSEP
 70
    44
  9
$DIMATFIT
 70
     3
  9
$DIMFRAC
 70
     0
  9
$DIMLDRBLK
  1

  9
$DIMLUNIT
 70
     2
  9
$DIMLWD
 70
    -2
  9
$DIMLWE
 70
    -2
  9
$DIMTMOVE
 70
     0
  9
$LUNITS
 70
     2
  9
$LUPREC
 70
     4
  9
$SKETCHINC
 40
1.0
  9
$FILLETRAD
 40
10.0
  9
$AUNITS
 70
     0
  9
$AUPREC
 70
     0
  9
$MENU
  1
.
  9
$ELEVATION
 40
0.0
  9
$PELEVATION
 40
0.0
  9
$THICKNESS
 40
0.0
  9
$LIMCHECK
 70
     0
  9
$CHAMFERA
 40
10.0
  9
$CHAMFERB
 40
10.0
  9
$CHAMFERC
 40
20.0
  9
$CHAMFERD
 40
0.0
  9
$SKPOLY
 70
     0
  9
$TDCREATE
 40
2456878.253495393
  9
$TDUCREATE
 40
2456878.17016206
  9
$TDUPDATE
 40
2456878.253495405
  9
$TDUUPDATE
 40
2456878.170162072
  9
$TDINDWG
 40
0.0000000116
  9
$TDUSRTIMER
 40
0.0000000116
  9
$USRTIMER
 70
     1
  9
$ANGBASE
 50
0.0
  9
$ANGDIR
 70
     0
  9
$PDMODE
 70
     0
  9
$PDSIZE
 40
0.0
  9
$PLINEWID
 40
0.0
  9
$SPLFRAME
 70
     0
  9
$SPLINETYPE
 70
     6
  9
$SPLINESEGS
 70
     8
  9
$HANDSEED
  5
260
  9
$SURFTAB1
 70
     6
  9
$SURFTAB2
 70
     6
  9
$SURFTYPE
 70
     6
  9
$SURFU
 70
     6
  9
$SURFV
 70
     6
  9
$UCSBASE
  2

  9
$UCSNAME
  2

  9
$UCSORG
 10
0.0
 20
0.0
 30
0.0
  9
$UCSXDIR
 10
1.0
 20
0.0
 30
0.0
  9
$UCSYDIR
 10
0.0
 20
1.0
 30
0.0
  9
$UCSORTHOREF
  2

  9
$UCSORTHOVIEW
 70
     0
  9
$UCSORGTOP
 10
0.0
 20
0.0
 30
0.0
  9
$UCSORGBOTTOM
 10
0.0
 20
0.0
 30
0.0
  9
$UCSORGLEFT
 10
0.0
 20
0.0
 30
0.0
  9
$UCSORGRIGHT
 10
0.0
 20
0.0
 30
0.0
  9
$UCSORGFRONT
 10
0.0
 20
0.0
 30
0.0
  9
$UCSORGBACK
 10
0.0
 20
0.0
 30
0.0
  9
$PUCSBASE
  2

  9
$PUCSNAME
  2

  9
$PUCSORG
 10
0.0
 20
0.0
 30
0.0
  9
$PUCSXDIR
 10
1.0
 20
0.0
 30
0.0
  9
$PUCSYDIR
 10
0.0
 20
1.0
 30
0.0
  9
$PUCSORTHOREF
  2

  9
$PUCSORTHOVIEW
 70
     0
  9
$PUCSORGTOP
 10
0.0
 20
0.0
 30
0.0
  9
$PUCSORGBOTTOM
 10
0.0
 20
0.0
 30
0.0
  9
$PUCSORGLEFT
 10
0.0
 20
0.0
 30
0.0
  9
$PUCSORGRIGHT
 10
0.0
 20
0.0
 30
0.0
  9
$PUCSORGFRONT
 10
0.0
 20
0.0
 30
0.0
  9
$PUCSORGBACK
 10
0.0
 20
0.0
 30
0.0
  9
$USERI1
 70
     0
  9
$USERI2
 70
     0
  9
$USERI3
 70
     0
  9
$USERI4
 70
     0
  9
$USERI5
 70
     0
  9
$USERR1
 40
0.0
  9
$USERR2
 40
0.0
  9
$USERR3
 40
0.0
  9
$USERR4
 40
0.0
  9
$USERR5
 40
0.0
  9
$WORLDVIEW
 70
     1
  9
$SHADEDGE
 70
     3
  9
$SHADEDIF
 70
    70
  9
$TILEMODE
 70
     1
  9
$MAXACTVP
 70
    64
  9
$PINSBASE
 10
0.0
 20
0.0
 30
0.0
  9
$PLIMCHECK
 70
     0
  9
$PEXTMIN
 10
-271.75
 20
-87.335738
 30
0.0
  9
$PEXTMAX
 10
568.25
 20
506.664262
 30
0.0
  9
$PLIMMIN
 10
-271.75
 20
-87.335738
  9
$PLIMMAX
 10
568.25
 20
506.664262
  9
$UNITMODE
 70
     0
  9
$VISRETAIN
 70
     1
  9
$PLINEGEN
 70
     0
  9
$PSLTSCALE
 70
     1
  9
$TREEDEPTH
 70
  3020
  9
$CMLSTYLE
  2
Standard
  9
$CMLJUST
 70
     0
  9
$CMLSCALE
 40
20.0
  9
$PROXYGRAPHICS
 70
     1
  9
$MEASUREMENT
 70
     1
  9
$CELWEIGHT
370
    -1
  9
$ENDCAPS
280
     0
  9
$JOINSTYLE
280
     0
  9
$LWDISPLAY
290
     0
  9
$INSUNITS
 70
     4
  9
$HYPERLINKBASE
  1

  9
$STYLESHEET
  1

  9
$XEDIT
290
     1
  9
$CEPSNTYPE
380
     0
  9
$PSTYLEMODE
290
     1
  9
$FINGERPRINTGUID
  2
{FAEB1C30-E019-11D5-929B-00C0DF256EC4}
  9
$VERSIONGUID
  2
{FAEB1C32-E019-11D5-929B-00C0DF256EC4}
  9
$EXTNAMES
290
     1
  9
$PSVPSCALE
 40
0.0
  9
$OLESTARTUP
290
     0
  0
ENDSEC
  0
SECTION
  2
CLASSES
  0
CLASS
  1
ACDBDICTIONARYWDFLT
  2
AcDbDictionaryWithDefault
  3
ObjectDBX Classes
 90
        0
280
     0
281
     0
  0
CLASS
  1
ACDBPLACEHOLDER
  2
AcDbPlaceHolder
  3
ObjectDBX Classes
 90
        0
280
     0
281
     0
  0
CLASS
  1
LAYOUT
  2
AcDbLayout
  3
ObjectDBX Classes
 90
        0
280
     0
281
     0
  0
ENDSEC
  0
SECTION
  2
TABLES
  0
TABLE
  2
VPORT
  5
8
330
0
100
AcDbSymbolTable
 70
     2
  0
VPORT
  5
29
330
8
100
AcDbSymbolTableRecord
100
AcDbViewportTableRecord
  2
*ACTIVE
 70
     0
 10
0.0
 20
0.0
 11
1.0
 21
1.0
 12
148.25
 22
209.664262
 13
0.0
 23
0.0
 14
1.0
 24
1.0
 15
0.0
 25
0.0
 16
0.0
 26
0.0
 36
1.0
 17
0.0
 27
0.0
 37
0.0
 40
594.0
 41
1.414141
 42
50.0
 43
0.0
 44
0.0
 50
0.0
 51
0.0
 71
    16
 72
   100
 73
     1
 74
     0
 75
     0
 76
     0
 77
     0
 78
     0
281
     0
 65
     0
110
0.0
120
0.0
130
0.0
111
1.0
121
0.0
131
0.0
112
0.0
122
1.0
132
0.0
 79
     0
146
0.0
  0
ENDTAB
  0
TABLE
  2
LTYPE
  5
5
330
0
100
AcDbSymbolTable
 70
     3
  0
LTYPE
  5
14
330
5
100
AcDbSymbolTableRecord
100
AcDbLinetypeTableRecord
  2
ByBlock
 70
     0
  3

 72
    65
 73
     0
 40
0.0
  0
LTYPE
  5
15
330
5
100
AcDbSymbolTableRecord
100
AcDbLinetypeTableRecord
  2
ByLayer
 70
     0
  3

 72
    65
 73
     0
 40
0.0
  0
LTYPE
  5
16
330
5
100
AcDbSymbolTableRecord
100
AcDbLinetypeTableRecord
  2
Continuous
 70
     0
  3
Solid line
 72
    65
 73
     0
 40
0.0
  0
LTYPE
  5
2A
330
5
100
AcDbSymbolTableRecord
100
AcDbLinetypeTableRecord
  2
DASHED
 70
     0
  3
__ __ __ __ __
 72
    65
 73
     2
 40
6.25
 49
5.0
 74
     4
 75
     0
340
0
 46
1.0
 50
0.0
 44
0.0
 45
0.0
 49
-1.25
 74
     4
 75
     0
340
0
 46
1.0
 50
0.0
 44
0.0
 45
0.0
  0
LTYPE
  5
250
330
5
100
AcDbSymbolTableRecord
100
AcDbLinetypeTableRecord
  2
DASHDOT
 70
     0
  3
__ . __ . __ . __ . __
 72
    65
 73
     4
 40
7.5
 49
5.0
 74
     4
 75
     0
340
0
 46
1.0
 50
0.0
 44
0.0
 45
0.0
 49
-1.25
 74
     4
 75
     0
340
0
 46
1.0
 50
0.0
 44
0.0
 45
0.0
 49
0.0
 74
     4
 75
     0
340
0
 46
1.0
 50
0.0
 44
0.0
 45
0.0
 49
-1.25
 74
     4
 75
     0
340
0
 46
1.0
 50
0.0
 44
0.0
 45
0.0
  0
ENDTAB
  0
TABLE
  2
LAYER
  5
2
330
0
100
AcDbSymbolTable
 70
     9
  0
LAYER
  5
10
330
2
100
AcDbSymbolTableRecord
100
AcDbLayerTableRecord
  2
0
 70
     0
 62
     7
  6
Continuous
370
    -3
390
F
  0
LAYER
  5
2B
330
2
100
AcDbSymbolTableRecord
100
AcDbLayerTableRecord
  2
LC-INFO-1-2-mm-A3-0
 70
     1
 62
     7
  6
ByBlock
370
    -3
390
F
  0
LAYER
  5
2C
330
2
100
AcDbSymbolTableRecord
100
AcDbLayerTableRecord
  2
LC-CUT-HIDDEN
 70
     0
 62
     7
  6
DASHED
370
    -3
390
F
  0
LAYER
  5
2D
330
2
100
AcDbSymbolTableRecord
100
AcDbLayerTableRecord
  2
LC-VIEWPORT
 70
     0
 62
     7
  6
ByBlock
370
    -3
390
F
  0
LAYER
  5
2E
330
2
100
AcDbSymbolTableRecord
100
AcDbLayerTableRecord
  2
LC-3D-HIDDEN
 70
     0
 62
     9
  6
DASHED
370
    -3
390
F
  0
LAYER
  5
31
330
2
100
AcDbSymbolTableRecord
100
AcDbLayerTableRecord
  2
LC-001-100-D00-0
 70
     0
 62
     1
  6
ByBlock
370
    -3
390
F
  0
LAYER
  5
207
330
2
100
AcDbSymbolTableRecord
100
AcDbLayerTableRecord
  2
LC-002-102-D00-0
 70
     0
 62
     2
  6
ByBlock
370
    -3
390
F
  0
LAYER
  5
209
330
2
100
AcDbSymbolTableRecord
100
AcDbLayerTableRecord
  2
Defpoints
 70
     0
 62
     7
  6
Continuous
290
     0
370
    -3
390
F
  0
LAYER
  5
252
330
2
100
AcDbSymbolTableRecord
100
AcDbLayerTableRecord
  2
LC-003-003-----0
 70
     0
 62
     2
  6
ByBlock
370
    -3
390
F
  0
ENDTAB
  0
TABLE
  2
STYLE
  5
3
330
0
100
AcDbSymbolTable
 70
     4
  0
STYLE
  5
11
330
3
100
AcDbSymbolTableRecord
100
AcDbTextStyleTableRecord
  2
Standard
 70
     0
 40
0.0
 41
1.0
 50
0.0
 71
     0
 42
2.5
  3
txt
  4

  0
STYLE
  5
2F
330
3
100
AcDbSymbolTableRecord
100
AcDbTextStyleTableRecord
  2
LCTX0-400-0-0pDIN-Schrift
 70
     0
 40
0.0
 41
0.75
 50
0.0
 71
     0
 42
3.5
  3
TXT
  4

  0
STYLE
  5
30
330
3
100
AcDbSymbolTableRecord
100
AcDbTextStyleTableRecord
  2
LCTX15-400-0-0-Arial
 70
     0
 40
0.0
 41
0.8
 50
0.0
 71
     0
 42
3.5
  3

  4

1001
ACAD
1000
Arial
1071
 16777218
  0
STYLE
  5
205
330
3
100
AcDbSymbolTableRecord
100
AcDbTextStyleTableRecord
  2
LCTX15-400-0-0pDIN-Schrift
 70
     0
 40
2.5
 41
0.8
 50
15.0
 71
     0
 42
3.5
  3
STANDARD
  4

  0
ENDTAB
  0
TABLE
  2
VIEW
  5
6
330
0
100
AcDbSymbolTable
 70
     0
  0
ENDTAB
  0
TABLE
  2
UCS
  5
7
330
0
100
AcDbSymbolTable
 70
     0
  0
ENDTAB
  0
TABLE
  2
APPID
  5
9
330
0
100
AcDbSymbolTable
 70
     1
  0
APPID
  5
12
330
9
100
AcDbSymbolTableRecord
100
AcDbRegAppTableRecord
  2
ACAD
 70
     0
  0
ENDTAB
  0
TABLE
  2
DIMSTYLE
  5
A
330
0
100
AcDbSymbolTable
 70
     2
100
AcDbDimStyleTable
  0
DIMSTYLE
105
27
330
A
100
AcDbSymbolTableRecord
100
AcDbDimStyleTableRecord
  2
ISO-25
 70
     0
 41
2.5
 42
0.625
 43
3.75
 44
1.25
 73
     0
 74
     0
 77
     1
 78
     8
140
2.5
141
2.5
143
0.03937
147
0.625
171
     3
172
     1
271
     2
272
     2
274
     3
278
    44
283
     0
284
     8
340
11
  0
DIMSTYLE
105
206
102
{ACAD_REACTORS
330
208
330
217
330
226
330
233
330
242
330
253
102
}
330
A
100
AcDbSymbolTableRecord
100
AcDbDimStyleTableRecord
  2
LC-DIM-L-0140-02-02
 70
     0
 40
2.0
 41
14.0
 42
0.0
 43
7.5
 44
1.8
 73
     0
 74
     0
 77
     1
 78
     8
 79
     2
140
14.0
141
0.0
146
0.71
147
1.5
176
     2
177
     2
178
     2
179
     2
271
     2
278
    44
289
     1
340
205
  0
ENDTAB
  0
TABLE
  2
BLOCK_RECORD
  5
1
330
0
100
AcDbSymbolTable
 70
    21
  0
BLOCK_RECORD
  5
1F
330
1
100
AcDbSymbolTableRecord
100
AcDbBlockTableRecord
  2
*Model_Space
340
22
  0
BLOCK_RECORD
  5
1B
330
1
100
AcDbSymbolTableRecord
100
AcDbBlockTableRecord
  2
*Paper_Space
340
1E
  0
BLOCK_RECORD
  5
23
330
1
100
AcDbSymbolTableRecord
100
AcDbBlockTableRecord
  2
*Paper_Space0
340
26
  0
BLOCK_RECORD
  5
62
330
1
100
AcDbSymbolTableRecord
100
AcDbBlockTableRecord
  2
POLY1
340
0
102
{BLKREFS
331
6F
102
}
  0
BLOCK_RECORD
  5
DE
330
1
100
AcDbSymbolTableRecord
100
AcDbBlockTableRecord
  2
POLY2
340
0
102
{BLKREFS
331
E9
102
}
  0
BLOCK_RECORD
  5
EA
330
1
100
AcDbSymbolTableRecord
100
AcDbBlockTableRecord
  2
POLY3
340
0
102
{BLKREFS
331
F5
102
}
  0
BLOCK_RECORD
  5
124
330
1
100
AcDbSymbolTableRecord
100
AcDbBlockTableRecord
  2
KLON1
340
0
102
{BLKREFS
331
147
102
}
  0
BLOCK_RECORD
  5
148
330
1
100
AcDbSymbolTableRecord
100
AcDbBlockTableRecord
  2
KLON2
340
0
102
{BLKREFS
331
174
102
}
  0
BLOCK_RECORD
  5
175
330
1
100
AcDbSymbolTableRecord
100
AcDbBlockTableRecord
  2
KLON3
340
0
102
{BLKREFS
331
1A7
102
}
  0
BLOCK_RECORD
  5
1A8
330
1
100
AcDbSymbolTableRecord
100
AcDbBlockTableRecord
  2
KLON4
340
0
102
{BLKREFS
331
1B3
102
}
  0
BLOCK_RECORD
  5
1B4
330
1
100
AcDbSymbolTableRecord
100
AcDbBlockTableRecord
  2
KLON5
340
0
102
{BLKREFS
331
1C6
102
}
  0
BLOCK_RECORD
  5
1C8
330
1
100
AcDbSymbolTableRecord
100
AcDbBlockTableRecord
  2
KLON6
340
0
102
{BLKREFS
331
1CD
102
}
  0
BLOCK_RECORD
  5
1CE
330
1
100
AcDbSymbolTableRecord
100
AcDbBlockTableRecord
  2
KLON7
340
0
102
{BLKREFS
331
1D3
102
}
  0
BLOCK_RECORD
  5
1D4
330
1
100
AcDbSymbolTableRecord
100
AcDbBlockTableRecord
  2
KLON8
340
0
102
{BLKREFS
331
1E5
102
}
  0
BLOCK_RECORD
  5
1E6
330
1
100
AcDbSymbolTableRecord
100
AcDbBlockTableRecord
  2
KLON9
340
0
102
{BLKREFS
331
1F6
102
}
  0
BLOCK_RECORD
  5
1F7
330
1
100
AcDbSymbolTableRecord
100
AcDbBlockTableRecord
  2
KLON10
340
0
102
{BLKREFS
331
1FC
102
}
  0
BLOCK_RECORD
  5
1FD
330
1
100
AcDbSymbolTableRecord
100
AcDbBlockTableRecord
  2
KLON11
340
0
102
{BLKREFS
331
204
102
}
  0
BLOCK_RECORD
  5
20A
330
1
100
AcDbSymbolTableRecord
100
AcDbBlockTableRecord
  2
*D15
340
0
  0
BLOCK_RECORD
  5
218
330
1
100
AcDbSymbolTableRecord
100
AcDbBlockTableRecord
  2
*D16
340
0
  0
BLOCK_RECORD
  5
227
330
1
100
AcDbSymbolTableRecord
100
AcDbBlockTableRecord
  2
*D17
340
0
  0
BLOCK_RECORD
  5
234
330
1
100
AcDbSymbolTableRecord
100
AcDbBlockTableRecord
  2
*D18
340
0
  0
BLOCK_RECORD
  5
243
330
1
100
AcDbSymbolTableRecord
100
AcDbBlockTableRecord
  2
*D19
340
0
  0
BLOCK_RECORD
  5
254
330
1
100
AcDbSymbolTableRecord
100
AcDbBlockTableRecord
  2
*D20
340
0
  0
ENDTAB
  0
ENDSEC
  0
SECTION
  2
BLOCKS
  0
BLOCK
  5
20
330
1F
100
AcDbEntity
  8
0
100
AcDbBlockBegin
  2
*Model_Space
 70
     0
 71
     0
 10
0.0
 20
0.0
 30
0.0
  3
*Model_Space
  1

  0
ENDBLK
  5
21
330
1F
100
AcDbEntity
  8
0
100
AcDbBlockEnd
  0
BLOCK
  5
1C
330
1B
100
AcDbEntity
 67
     1
  8
0
100
AcDbBlockBegin
  2
*Paper_Space
 70
     0
 71
     0
 10
0.0
 20
0.0
 30
0.0
  3
*Paper_Space
  1

  0
ENDBLK
  5
1D
330
1B
100
AcDbEntity
 67
     1
  8
0
100
AcDbBlockEnd
  0
BLOCK
  5
24
330
23
100
AcDbEntity
  8
0
100
AcDbBlockBegin
  2
*Paper_Space0
 70
     0
 71
     0
 10
0.0
 20
0.0
 30
0.0
  3
*Paper_Space0
  1

  0
ENDBLK
  5
25
330
23
100
AcDbEntity
  8
0
100
AcDbBlockEnd
  0
BLOCK
  5
63
330
62
100
AcDbEntity
  8
0
100
AcDbBlockBegin
  2
POLY1
 70
     0
 71
     0
 10
0.0
 20
0.0
 30
0.0
  3
POLY1
  1

  4
POLY1
  0
LINE
  5
65
330
62
100
AcDbEntity
  8
LC-001-100-D00-0
 62
     7
370
    50
100
AcDbLine
 10
109.549466
 20
387.620568
 30
0.0
 11
109.549466
 21
387.620568
 31
0.0
  0
LINE
  5
66
330
62
100
AcDbEntity
  8
LC-001-100-D00-0
 62
     7
370
    50
100
AcDbLine
 10
109.549466
 20
387.620568
 30
0.0
 11
109.677493
 21
387.620568
 31
0.0
  0
LINE
  5
67
330
62
100
AcDbEntity
  8
LC-001-100-D00-0
 62
     7
370
    50
100
AcDbLine
 10
109.677493
 20
387.620568
 30
0.0
 11
109.677493
 21
387.620568
 31
0.0
  0
LINE
  5
68
330
62
100
AcDbEntity
  8
LC-001-100-D00-0
 62
     7
370
    50
100
AcDbLine
 10
109.677493
 20
387.620568
 30
0.0
 11
109.91133
 21
387.620568
 31
0.0
  0
LINE
  5
69
330
62
100
AcDbEntity
  8
LC-001-100-D00-0
 62
     7
370
    50
100
AcDbLine
 10
109.91133
 20
387.620568
 30
0.0
 11
109.91133
 21
387.620568
 31
0.0
  0
LINE
  5
6A
330
62
100
AcDbEntity
  8
LC-001-100-D00-0
 62
     7
370
    50
100
AcDbLine
 10
109.91133
 20
387.620568
 30
0.0
 11
110.104426
 21
387.620568
 31
0.0
  0
LINE
  5
6B
330
62
100
AcDbEntity
  8
LC-001-100-D00-0
 62
     7
370
    50
100
AcDbLine
 10
110.104426
 20
387.620568
 30
0.0
 11
110.104426
 21
387.620568
 31
0.0
  0
LINE
  5
6C
330
62
100
AcDbEntity
  8
LC-001-100-D00-0
 62
     7
370
    50
100
AcDbLine
 10
110.104426
 20
387.620568
 30
0.0
 11
110.128613
 21
387.620568
 31
0.0
  0
LINE
  5
6D
330
62
100
AcDbEntity
  8
LC-001-100-D00-0
 62
     7
370
    50
100
AcDbLine
 10
110.128613
 20
387.620568
 30
0.0
 11
110.128613
 21
387.620568
 31
0.0
  0
LINE
  5
6E
330
62
100
AcDbEntity
  8
LC-001-100-D00-0
 62
     7
370
    50
100
AcDbLine
 10
110.128613
 20
387.620568
 30
0.0
 11
110.140707
 21
387.620568
 31
0.0
  0
ENDBLK
  5
64
330
62
100
AcDbEntity
  8
0
100
AcDbBlockEnd
  0
BLOCK
  5
DF
330
DE
100
AcDbEntity
  8
0
100
AcDbBlockBegin
  2
POLY2
 70
     0
 71
     0
 10
0.0
 20
0.0
 30
0.0
  3
POLY2
  1

  4
POLY2
  0
LINE
  5
E1
330
DE
100
AcDbEntity
  8
LC-001-100-D00-0
 62
     7
370
    50
100
AcDbLine
 10
190.925748
 20
380.020574
 30
0.0
 11
190.925748
 21
380.020574
 31
0.0
  0
LINE
  5
E2
330
DE
100
AcDbEntity
  8
LC-001-100-D00-0
 62
     7
370
    50
100
AcDbLine
 10
190.925748
 20
380.020574
 30
0.0
 11
189.248937
 21
376.521776
 31
0.0
  0
LINE
  5
E3
330
DE
100
AcDbEntity
  8
LC-001-100-D00-0
 62
     7
370
    50
100
AcDbLine
 10
189.248937
 20
376.521776
 30
0.0
 11
189.248937
 21
376.521776
 31
0.0
  0
LINE
  5
E4
330
DE
100
AcDbEntity
  8
LC-001-100-D00-0
 62
     7
370
    50
100
AcDbLine
 10
189.248937
 20
376.521776
 30
0.0
 11
187.054719
 21
371.943368
 31
0.0
  0
LINE
  5
E5
330
DE
100
AcDbEntity
  8
LC-001-100-D00-0
 62
     7
370
    50
100
AcDbLine
 10
187.054719
 20
371.943368
 30
0.0
 11
187.054719
 21
371.943368
 31
0.0
  0
LINE
  5
E6
330
DE
100
AcDbEntity
  8
LC-001-100-D00-0
 62
     7
370
    50
100
AcDbLine
 10
187.054719
 20
371.943368
 30
0.0
 11
184.858079
 21
367.366121
 31
0.0
  0
LINE
  5
E7
330
DE
100
AcDbEntity
  8
LC-001-100-D00-0
 62
     7
370
    50
100
AcDbLine
 10
184.858079
 20
367.366121
 30
0.0
 11
184.858079
 21
367.366121
 31
0.0
  0
LINE
  5
E8
330
DE
100
AcDbEntity
  8
LC-001-100-D00-0
 62
     7
370
    50
100
AcDbLine
 10
184.858079
 20
367.366121
 30
0.0
 11
184.3401
 21
366.286785
 31
0.0
  0
ENDBLK
  5
E0
330
DE
100
AcDbEntity
  8
0
100
AcDbBlockEnd
  0
BLOCK
  5
EB
330
EA
100
AcDbEntity
  8
0
100
AcDbBlockBegin
  2
POLY3
 70
     0
 71
     0
 10
0.0
 20
0.0
 30
0.0
  3
POLY3
  1

  4
POLY3
  0
LINE
  5
ED
330
EA
100
AcDbEntity
  8
LC-001-100-D00-0
 62
     7
370
    50
100
AcDbLine
 10
125.761833
 20
366.286785
 30
0.0
 11
125.761833
 21
366.286785
 31
0.0
  0
LINE
  5
EE
330
EA
100
AcDbEntity
  8
LC-001-100-D00-0
 62
     7
370
    50
100
AcDbLine
 10
125.761833
 20
366.286785
 30
0.0
 11
125.243854
 21
367.366121
 31
0.0
  0
LINE
  5
EF
330
EA
100
AcDbEntity
  8
LC-001-100-D00-0
 62
     7
370
    50
100
AcDbLine
 10
125.243854
 20
367.366121
 30
0.0
 11
125.243854
 21
367.366121
 31
0.0
  0
LINE
  5
F0
330
EA
100
AcDbEntity
  8
LC-001-100-D00-0
 62
     7
370
    50
100
AcDbLine
 10
125.243854
 20
367.366121
 30
0.0
 11
123.047214
 21
371.943368
 31
0.0
  0
LINE
  5
F1
330
EA
100
AcDbEntity
  8
LC-001-100-D00-0
 62
     7
370
    50
100
AcDbLine
 10
123.047214
 20
371.943368
 30
0.0
 11
123.047214
 21
371.943368
 31
0.0
  0
LINE
  5
F2
330
EA
100
AcDbEntity
  8
LC-001-100-D00-0
 62
     7
370
    50
100
AcDbLine
 10
123.047214
 20
371.943368
 30
0.0
 11
120.852995
 21
376.521776
 31
0.0
  0
LINE
  5
F3
330
EA
100
AcDbEntity
  8
LC-001-100-D00-0
 62
     7
370
    50
100
AcDbLine
 10
120.852995
 20
376.521776
 30
0.0
 11
120.852995
 21
376.521776
 31
0.0
  0
LINE
  5
F4
330
EA
100
AcDbEntity
  8
LC-001-100-D00-0
 62
     7
370
    50
100
AcDbLine
 10
120.852995
 20
376.521776
 30
0.0
 11
119.176182
 21
380.020574
 31
0.0
  0
ENDBLK
  5
EC
330
EA
100
AcDbEntity
  8
0
100
AcDbBlockEnd
  0
BLOCK
  5
125
330
124
100
AcDbEntity
  8
0
100
AcDbBlockBegin
  2
KLON1
 70
     0
 71
     0
 10
0.0
 20
0.0
 30
0.0
  3
KLON1
  1

  4
KLON1
  0
LINE
  5
127
330
124
100
AcDbEntity
  8
LC-001-100-D00-0
 62
     7
370
    25
100
AcDbLine
 10
178.329165
 20
227.720573
 30
0.0
 11
179.583112
 21
228.974521
 31
0.0
  0
LINE
  5
128
330
124
100
AcDbEntity
  8
LC-001-100-D00-0
 62
     7
370
    25
100
AcDbLine
 10
177.050966
 20
230.932502
 30
0.0
 11
180.050966
 21
233.932502
 31
0.0
  0
LINE
  5
129
330
124
100
AcDbEntity
  8
LC-001-100-D00-0
 62
     7
370
    25
100
AcDbLine
 10
177.050966
 20
235.42263
 30
0.0
 11
180.050966
 21
238.42263
 31
0.0
  0
LINE
  5
12A
330
124
100
AcDbEntity
  8
LC-001-100-D00-0
 62
     7
370
    25
100
AcDbLine
 10
177.050966
 20
239.912759
 30
0.0
 11
180.050966
 21
242.912759
 31
0.0
  0
LINE
  5
12B
330
124
100
AcDbEntity
  8
LC-001-100-D00-0
 62
     7
370
    25
100
AcDbLine
 10
177.050966
 20
244.402887
 30
0.0
 11
180.050966
 21
247.402887
 31
0.0
  0
LINE
  5
12C
330
124
100
AcDbEntity
  8
LC-001-100-D00-0
 62
     7
370
    25
100
AcDbLine
 10
177.050966
 20
248.893015
 30
0.0
 11
180.050966
 21
251.893015
 31
0.0
  0
LINE
  5
12D
330
124
100
AcDbEntity
  8
LC-001-100-D00-0
 62
     7
370
    25
100
AcDbLine
 10
177.050966
 20
253.383143
 30
0.0
 11
180.050966
 21
256.383143
 31
0.0
  0
LINE
  5
12E
330
124
100
AcDbEntity
  8
LC-001-100-D00-0
 62
     7
370
    25
100
AcDbLine
 10
177.050966
 20
257.873271
 30
0.0
 11
180.050966
 21
260.873271
 31
0.0
  0
LINE
  5
12F
330
124
100
AcDbEntity
  8
LC-001-100-D00-0
 62
     7
370
    25
100
AcDbLine
 10
177.050966
 20
262.363399
 30
0.0
 11
180.050966
 21
265.363399
 31
0.0
  0
LINE
  5
130
330
124
100
AcDbEntity
  8
LC-001-100-D00-0
 62
     7
370
    25
100
AcDbLine
 10
177.050966
 20
266.853527
 30
0.0
 11
180.050966
 21
269.853527
 31
0.0
  0
LINE
  5
131
330
124
100
AcDbEntity
  8
LC-001-100-D00-0
 62
     7
370
    25
100
AcDbLine
 10
177.050966
 20
271.343655
 30
0.0
 11
180.050966
 21
274.343655
 31
0.0
  0
LINE
  5
132
330
124
100
AcDbEntity
  8
LC-001-100-D00-0
 62
     7
370
    25
100
AcDbLine
 10
177.050966
 20
275.833783
 30
0.0
 11
180.050966
 21
278.833783
 31
0.0
  0
LINE
  5
133
330
124
100
AcDbEntity
  8
LC-001-100-D00-0
 62
     7
370
    25
100
AcDbLine
 10
177.050966
 20
280.323911
 30
0.0
 11
199.59063
 21
302.863576
 31
0.0
  0
LINE
  5
134
330
124
100
AcDbEntity
  8
LC-001-100-D00-0
 62
     7
370
    25
100
AcDbLine
 10
196.857093
 20
304.620167
 30
0.0
 11
200.050966
 21
307.814039
 31
0.0
  0
LINE
  5
135
330
124
100
AcDbEntity
  8
LC-001-100-D00-0
 62
     7
370
    25
100
AcDbLine
 10
196.950966
 20
309.204167
 30
0.0
 11
200.050966
 21
312.304167
 31
0.0
  0
LINE
  5
136
330
124
100
AcDbEntity
  8
LC-001-100-D00-0
 62
     7
370
    25
100
AcDbLine
 10
196.950966
 20
313.694295
 30
0.0
 11
200.050966
 21
316.794295
 31
0.0
  0
LINE
  5
137
330
124
100
AcDbEntity
  8
LC-001-100-D00-0
 62
     7
370
    25
100
AcDbLine
 10
196.950966
 20
318.184423
 30
0.0
 11
200.050966
 21
321.284423
 31
0.0
  0
LINE
  5
138
330
124
100
AcDbEntity
  8
LC-001-100-D00-0
 62
     7
370
    25
100
AcDbLine
 10
196.950966
 20
322.674551
 30
0.0
 11
200.050966
 21
325.774551
 31
0.0
  0
LINE
  5
139
330
124
100
AcDbEntity
  8
LC-001-100-D00-0
 62
     7
370
    25
100
AcDbLine
 10
196.950966
 20
327.164679
 30
0.0
 11
200.050966
 21
330.264679
 31
0.0
  0
LINE
  5
13A
330
124
100
AcDbEntity
  8
LC-001-100-D00-0
 62
     7
370
    25
100
AcDbLine
 10
196.950966
 20
331.654807
 30
0.0
 11
200.050966
 21
334.754807
 31
0.0
  0
LINE
  5
13B
330
124
100
AcDbEntity
  8
LC-001-100-D00-0
 62
     7
370
    25
100
AcDbLine
 10
196.950966
 20
336.144936
 30
0.0
 11
200.050966
 21
339.244936
 31
0.0
  0
LINE
  5
13C
330
124
100
AcDbEntity
  8
LC-001-100-D00-0
 62
     7
370
    25
100
AcDbLine
 10
196.950966
 20
340.635064
 30
0.0
 11
200.050966
 21
343.735064
 31
0.0
  0
LINE
  5
13D
330
124
100
AcDbEntity
  8
LC-001-100-D00-0
 62
     7
370
    25
100
AcDbLine
 10
196.950966
 20
345.125192
 30
0.0
 11
200.050966
 21
348.225192
 31
0.0
  0
LINE
  5
13E
330
124
100
AcDbEntity
  8
LC-001-100-D00-0
 62
     7
370
    25
100
AcDbLine
 10
196.950966
 20
349.61532
 30
0.0
 11
200.050966
 21
352.71532
 31
0.0
  0
LINE
  5
13F
330
124
100
AcDbEntity
  8
LC-001-100-D00-0
 62
     7
370
    25
100
AcDbLine
 10
196.950966
 20
354.105448
 30
0.0
 11
200.050966
 21
357.205448
 31
0.0
  0
LINE
  5
140
330
124
100
AcDbEntity
  8
LC-001-100-D00-0
 62
     7
370
    25
100
AcDbLine
 10
196.950966
 20
358.595576
 30
0.0
 11
200.050966
 21
361.695576
 31
0.0
  0
LINE
  5
141
330
124
100
AcDbEntity
  8
LC-001-100-D00-0
 62
     7
370
    25
100
AcDbLine
 10
196.950966
 20
363.085704
 30
0.0
 11
200.050966
 21
366.185704
 31
0.0
  0
LINE
  5
142
330
124
100
AcDbEntity
  8
LC-001-100-D00-0
 62
     7
370
    25
100
AcDbLine
 10
196.950966
 20
367.575832
 30
0.0
 11
200.050966
 21
370.675832
 31
0.0
  0
LINE
  5
143
330
124
100
AcDbEntity
  8
LC-001-100-D00-0
 62
     7
370
    25
100
AcDbLine
 10
207.095707
 20
377.720573
 30
0.0
 11
208.550966
 21
379.175832
 31
0.0
  0
LINE
  5
144
330
124
100
AcDbEntity
  8
LC-001-100-D00-0
 62
     7
370
    25
100
AcDbLine
 10
196.950966
 20
372.06596
 30
0.0
 11
200.050966
 21
375.16596
 31
0.0
  0
LINE
  5
145
330
124
100
AcDbEntity
  8
LC-001-100-D00-0
 62
     7
370
    25
100
AcDbLine
 10
202.605579
 20
377.720573
 30
0.0
 11
206.605579
 21
381.720573
 31
0.0
  0
LINE
  5
146
330
124
100
AcDbEntity
  8
LC-001-100-D00-0
 62
     7
370
    25
100
AcDbLine
 10
196.950966
 20
376.556088
 30
0.0
 11
200.615451
 21
380.220573
 31
0.0
  0
ENDBLK
  5
126
330
124
100
AcDbEntity
  8
0
100
AcDbBlockEnd
  0
BLOCK
  5
149
330
148
100
AcDbEntity
  8
0
100
AcDbBlockBegin
  2
KLON2
 70
     0
 71
     0
 10
0.0
 20
0.0
 30
0.0
  3
KLON2
  1

  4
KLON2
  0
LINE
  5
14B
330
148
100
AcDbEntity
  8
LC-001-100-D00-0
 62
     7
370
    25
100
AcDbLine
 10
130.449691
 20
229.232509
 30
0.0
 11
133.050966
 21
231.833783
 31
0.0
  0
LINE
  5
14C
330
148
100
AcDbEntity
  8
LC-001-100-D00-0
 62
     7
370
    25
100
AcDbLine
 10
130.050966
 20
233.323911
 30
0.0
 11
133.050966
 21
236.323911
 31
0.0
  0
LINE
  5
14D
330
148
100
AcDbEntity
  8
LC-001-100-D00-0
 62
     7
370
    25
100
AcDbLine
 10
130.050966
 20
237.814039
 30
0.0
 11
133.050966
 21
240.814039
 31
0.0
  0
LINE
  5
14E
330
148
100
AcDbEntity
  8
LC-001-100-D00-0
 62
     7
370
    25
100
AcDbLine
 10
130.050966
 20
242.304167
 30
0.0
 11
133.050966
 21
245.304167
 31
0.0
  0
LINE
  5
14F
330
148
100
AcDbEntity
  8
LC-001-100-D00-0
 62
     7
370
    25
100
AcDbLine
 10
130.050966
 20
246.794295
 30
0.0
 11
133.050966
 21
249.794295
 31
0.0
  0
LINE
  5
150
330
148
100
AcDbEntity
  8
LC-001-100-D00-0
 62
     7
370
    25
100
AcDbLine
 10
130.050966
 20
251.284423
 30
0.0
 11
133.050966
 21
254.284423
 31
0.0
  0
LINE
  5
151
330
148
100
AcDbEntity
  8
LC-001-100-D00-0
 62
     7
370
    25
100
AcDbLine
 10
130.050966
 20
255.774551
 30
0.0
 11
133.050966
 21
258.774551
 31
0.0
  0
LINE
  5
152
330
148
100
AcDbEntity
  8
LC-001-100-D00-0
 62
     7
370
    25
100
AcDbLine
 10
130.050966
 20
260.264679
 30
0.0
 11
133.050966
 21
263.264679
 31
0.0
  0
LINE
  5
153
330
148
100
AcDbEntity
  8
LC-001-100-D00-0
 62
     7
370
    25
100
AcDbLine
 10
130.050966
 20
264.754807
 30
0.0
 11
133.050966
 21
267.754807
 31
0.0
  0
LINE
  5
154
330
148
100
AcDbEntity
  8
LC-001-100-D00-0
 62
     7
370
    25
100
AcDbLine
 10
130.050966
 20
269.244936
 30
0.0
 11
133.050966
 21
272.244936
 31
0.0
  0
LINE
  5
155
330
148
100
AcDbEntity
  8
LC-001-100-D00-0
 62
     7
370
    25
100
AcDbLine
 10
130.050966
 20
273.735064
 30
0.0
 11
133.050966
 21
276.735064
 31
0.0
  0
LINE
  5
156
330
148
100
AcDbEntity
  8
LC-001-100-D00-0
 62
     7
370
    25
100
AcDbLine
 10
130.050966
 20
278.225192
 30
0.0
 11
133.050966
 21
281.225192
 31
0.0
  0
LINE
  5
157
330
148
100
AcDbEntity
  8
LC-001-100-D00-0
 62
     7
370
    25
100
AcDbLine
 10
129.553593
 20
282.217947
 30
0.0
 11
131.674913
 21
284.339267
 31
0.0
  0
LINE
  5
158
330
148
100
AcDbEntity
  8
LC-001-100-D00-0
 62
     7
370
    25
100
AcDbLine
 10
127.308528
 20
284.463011
 30
0.0
 11
129.429849
 21
286.584331
 31
0.0
  0
LINE
  5
159
330
148
100
AcDbEntity
  8
LC-001-100-D00-0
 62
     7
370
    25
100
AcDbLine
 10
125.063464
 20
286.708075
 30
0.0
 11
127.184785
 21
288.829395
 31
0.0
  0
LINE
  5
15A
330
148
100
AcDbEntity
  8
LC-001-100-D00-0
 62
     7
370
    25
100
AcDbLine
 10
122.8184
 20
288.953139
 30
0.0
 11
124.939721
 21
291.074459
 31
0.0
  0
LINE
  5
15B
330
148
100
AcDbEntity
  8
LC-001-100-D00-0
 62
     7
370
    25
100
AcDbLine
 10
120.573336
 20
291.198203
 30
0.0
 11
122.694657
 21
293.319523
 31
0.0
  0
LINE
  5
15C
330
148
100
AcDbEntity
  8
LC-001-100-D00-0
 62
     7
370
    25
100
AcDbLine
 10
118.328272
 20
293.443267
 30
0.0
 11
120.449593
 21
295.564587
 31
0.0
  0
LINE
  5
15D
330
148
100
AcDbEntity
  8
LC-001-100-D00-0
 62
     7
370
    25
100
AcDbLine
 10
116.083208
 20
295.688331
 30
0.0
 11
118.204529
 21
297.809651
 31
0.0
  0
LINE
  5
15E
330
148
100
AcDbEntity
  8
LC-001-100-D00-0
 62
     7
370
    25
100
AcDbLine
 10
113.838144
 20
297.933395
 30
0.0
 11
115.959465
 21
300.054715
 31
0.0
  0
LINE
  5
15F
330
148
100
AcDbEntity
  8
LC-001-100-D00-0
 62
     7
370
    25
100
AcDbLine
 10
111.730409
 20
300.315788
 30
0.0
 11
113.942986
 21
302.528364
 31
0.0
  0
LINE
  5
160
330
148
100
AcDbEntity
  8
LC-001-100-D00-0
 62
     7
370
    25
100
AcDbLine
 10
110.352006
 20
303.427513
 30
0.0
 11
113.150966
 21
306.226472
 31
0.0
  0
LINE
  5
161
330
148
100
AcDbEntity
  8
LC-001-100-D00-0
 62
     7
370
    25
100
AcDbLine
 10
110.050966
 20
307.6166
 30
0.0
 11
113.150966
 21
310.7166
 31
0.0
  0
LINE
  5
162
330
148
100
AcDbEntity
  8
LC-001-100-D00-0
 62
     7
370
    25
100
AcDbLine
 10
110.050966
 20
312.106728
 30
0.0
 11
113.150966
 21
315.206728
 31
0.0
  0
LINE
  5
163
330
148
100
AcDbEntity
  8
LC-001-100-D00-0
 62
     7
370
    25
100
AcDbLine
 10
110.050966
 20
316.596856
 30
0.0
 11
113.150966
 21
319.696856
 31
0.0
  0
LINE
  5
164
330
148
100
AcDbEntity
  8
LC-001-100-D00-0
 62
     7
370
    25
100
AcDbLine
 10
110.050966
 20
321.086985
 30
0.0
 11
113.150966
 21
324.186985
 31
0.0
  0
LINE
  5
165
330
148
100
AcDbEntity
  8
LC-001-100-D00-0
 62
     7
370
    25
100
AcDbLine
 10
110.050966
 20
325.577113
 30
0.0
 11
113.150966
 21
328.677113
 31
0.0
  0
LINE
  5
166
330
148
100
AcDbEntity
  8
LC-001-100-D00-0
 62
     7
370
    25
100
AcDbLine
 10
110.050966
 20
330.067241
 30
0.0
 11
113.150966
 21
333.167241
 31
0.0
  0
LINE
  5
167
330
148
100
AcDbEntity
  8
LC-001-100-D00-0
 62
     7
370
    25
100
AcDbLine
 10
110.050966
 20
334.557369
 30
0.0
 11
113.150966
 21
337.657369
 31
0.0
  0
LINE
  5
168
330
148
100
AcDbEntity
  8
LC-001-100-D00-0
 62
     7
370
    25
100
AcDbLine
 10
110.050966
 20
339.047497
 30
0.0
 11
113.150966
 21
342.147497
 31
0.0
  0
LINE
  5
169
330
148
100
AcDbEntity
  8
LC-001-100-D00-0
 62
     7
370
    25
100
AcDbLine
 10
110.050966
 20
343.537625
 30
0.0
 11
113.150966
 21
346.637625
 31
0.0
  0
LINE
  5
16A
330
148
100
AcDbEntity
  8
LC-001-100-D00-0
 62
     7
370
    25
100
AcDbLine
 10
110.050966
 20
348.027753
 30
0.0
 11
113.150966
 21
351.127753
 31
0.0
  0
LINE
  5
16B
330
148
100
AcDbEntity
  8
LC-001-100-D00-0
 62
     7
370
    25
100
AcDbLine
 10
110.050966
 20
352.517881
 30
0.0
 11
113.150966
 21
355.617881
 31
0.0
  0
LINE
  5
16C
330
148
100
AcDbEntity
  8
LC-001-100-D00-0
 62
     7
370
    25
100
AcDbLine
 10
110.050966
 20
357.008009
 30
0.0
 11
113.150966
 21
360.108009
 31
0.0
  0
LINE
  5
16D
330
148
100
AcDbEntity
  8
LC-001-100-D00-0
 62
     7
370
    25
100
AcDbLine
 10
110.050966
 20
361.498137
 30
0.0
 11
113.150966
 21
364.598137
 31
0.0
  0
LINE
  5
16E
330
148
100
AcDbEntity
  8
LC-001-100-D00-0
 62
     7
370
    25
100
AcDbLine
 10
110.050966
 20
365.988265
 30
0.0
 11
113.150966
 21
369.088265
 31
0.0
  0
LINE
  5
16F
330
148
100
AcDbEntity
  8
LC-001-100-D00-0
 62
     7
370
    25
100
AcDbLine
 10
110.050966
 20
370.478393
 30
0.0
 11
113.150966
 21
373.578393
 31
0.0
  0
LINE
  5
170
330
148
100
AcDbEntity
  8
LC-001-100-D00-0
 62
     7
370
    25
100
AcDbLine
 10
110.050966
 20
374.968521
 30
0.0
 11
113.150966
 21
378.068521
 31
0.0
  0
LINE
  5
171
330
148
100
AcDbEntity
  8
LC-001-100-D00-0
 62
     7
370
    25
100
AcDbLine
 10
108.181928
 20
377.589611
 30
0.0
 11
110.81289
 21
380.220573
 31
0.0
  0
LINE
  5
172
330
148
100
AcDbEntity
  8
LC-001-100-D00-0
 62
     7
370
    25
100
AcDbLine
 10
103.822762
 20
377.720573
 30
0.0
 11
106.322762
 21
380.220573
 31
0.0
  0
LINE
  5
173
330
148
100
AcDbEntity
  8
LC-001-100-D00-0
 62
     7
370
    25
100
AcDbLine
 10
101.550966
 20
379.938905
 30
0.0
 11
103.332634
 21
381.720573
 31
0.0
  0
ENDBLK
  5
14A
330
148
100
AcDbEntity
  8
0
100
AcDbBlockEnd
  0
BLOCK
  5
176
330
175
100
AcDbEntity
  8
0
100
AcDbBlockBegin
  2
KLON3
 70
     0
 71
     0
 10
0.0
 20
0.0
 30
0.0
  3
KLON3
  1

  4
KLON3
  0
LINE
  5
178
330
175
100
AcDbEntity
  8
LC-001-100-D00-0
 62
     7
370
    25
100
AcDbLine
 10
179.696937
 20
305.420523
 30
0.0
 11
184.651016
 21
310.374602
 31
0.0
  0
LINE
  5
179
330
175
100
AcDbEntity
  8
LC-001-100-D00-0
 62
     7
370
    25
100
AcDbLine
 10
174.30686
 20
304.520573
 30
0.0
 11
175.810833
 21
306.024547
 31
0.0
  0
LINE
  5
17A
330
175
100
AcDbEntity
  8
LC-001-100-D00-0
 62
     7
370
    25
100
AcDbLine
 10
184.046992
 20
314.260706
 30
0.0
 11
185.550966
 21
315.764679
 31
0.0
  0
LINE
  5
17B
330
175
100
AcDbEntity
  8
LC-001-100-D00-0
 62
     7
370
    25
100
AcDbLine
 10
169.816732
 20
304.520573
 30
0.0
 11
171.316732
 21
306.020573
 31
0.0
  0
LINE
  5
17C
330
175
100
AcDbEntity
  8
LC-001-100-D00-0
 62
     7
370
    25
100
AcDbLine
 10
184.050966
 20
318.754807
 30
0.0
 11
185.550966
 21
320.254807
 31
0.0
  0
LINE
  5
17D
330
175
100
AcDbEntity
  8
LC-001-100-D00-0
 62
     7
370
    25
100
AcDbLine
 10
165.326604
 20
304.520573
 30
0.0
 11
166.826604
 21
306.020573
 31
0.0
  0
LINE
  5
17E
330
175
100
AcDbEntity
  8
LC-001-100-D00-0
 62
     7
370
    25
100
AcDbLine
 10
184.050966
 20
323.244936
 30
0.0
 11
185.550966
 21
324.744936
 31
0.0
  0
LINE
  5
17F
330
175
100
AcDbEntity
  8
LC-001-100-D00-0
 62
     7
370
    25
100
AcDbLine
 10
160.836475
 20
304.520573
 30
0.0
 11
162.336475
 21
306.020573
 31
0.0
  0
LINE
  5
180
330
175
100
AcDbEntity
  8
LC-001-100-D00-0
 62
     7
370
    25
100
AcDbLine
 10
184.050966
 20
327.735064
 30
0.0
 11
185.550966
 21
329.235064
 31
0.0
  0
LINE
  5
181
330
175
100
AcDbEntity
  8
LC-001-100-D00-0
 62
     7
370
    25
100
AcDbLine
 10
156.346347
 20
304.520573
 30
0.0
 11
157.846347
 21
306.020573
 31
0.0
  0
LINE
  5
182
330
175
100
AcDbEntity
  8
LC-001-100-D00-0
 62
     7
370
    25
100
AcDbLine
 10
184.050966
 20
332.225192
 30
0.0
 11
185.550966
 21
333.725192
 31
0.0
  0
LINE
  5
183
330
175
100
AcDbEntity
  8
LC-001-100-D00-0
 62
     7
370
    25
100
AcDbLine
 10
151.856219
 20
304.520573
 30
0.0
 11
153.356219
 21
306.020573
 31
0.0
  0
LINE
  5
184
330
175
100
AcDbEntity
  8
LC-001-100-D00-0
 62
     7
370
    25
100
AcDbLine
 10
184.050966
 20
336.71532
 30
0.0
 11
185.550966
 21
338.21532
 31
0.0
  0
LINE
  5
185
330
175
100
AcDbEntity
  8
LC-001-100-D00-0
 62
     7
370
    25
100
AcDbLine
 10
147.366091
 20
304.520573
 30
0.0
 11
148.866091
 21
306.020573
 31
0.0
  0
LINE
  5
186
330
175
100
AcDbEntity
  8
LC-001-100-D00-0
 62
     7
370
    25
100
AcDbLine
 10
184.050966
 20
341.205448
 30
0.0
 11
185.550966
 21
342.705448
 31
0.0
  0
LINE
  5
187
330
175
100
AcDbEntity
  8
LC-001-100-D00-0
 62
     7
370
    25
100
AcDbLine
 10
142.875963
 20
304.520573
 30
0.0
 11
144.375963
 21
306.020573
 31
0.0
  0
LINE
  5
188
330
175
100
AcDbEntity
  8
LC-001-100-D00-0
 62
     7
370
    25
100
AcDbLine
 10
184.050966
 20
345.695576
 30
0.0
 11
185.550966
 21
347.195576
 31
0.0
  0
LINE
  5
189
330
175
100
AcDbEntity
  8
LC-001-100-D00-0
 62
     7
370
    25
100
AcDbLine
 10
138.385835
 20
304.520573
 30
0.0
 11
139.885835
 21
306.020573
 31
0.0
  0
LINE
  5
18A
330
175
100
AcDbEntity
  8
LC-001-100-D00-0
 62
     7
370
    25
100
AcDbLine
 10
184.050966
 20
350.185704
 30
0.0
 11
185.550966
 21
351.685704
 31
0.0
  0
LINE
  5
18B
330
175
100
AcDbEntity
  8
LC-001-100-D00-0
 62
     7
370
    25
100
AcDbLine
 10
133.915893
 20
304.54076
 30
0.0
 11
135.395707
 21
306.020573
 31
0.0
  0
LINE
  5
18C
330
175
100
AcDbEntity
  8
LC-001-100-D00-0
 62
     7
370
    25
100
AcDbLine
 10
184.050966
 20
354.675832
 30
0.0
 11
185.550966
 21
356.175832
 31
0.0
  0
LINE
  5
18D
330
175
100
AcDbEntity
  8
LC-001-100-D00-0
 62
     7
370
    25
100
AcDbLine
 10
130.336873
 20
305.451868
 30
0.0
 11
131.479801
 21
306.594796
 31
0.0
  0
LINE
  5
18E
330
175
100
AcDbEntity
  8
LC-001-100-D00-0
 62
     7
370
    25
100
AcDbLine
 10
184.050966
 20
359.16596
 30
0.0
 11
185.550966
 21
360.66596
 31
0.0
  0
LINE
  5
18F
330
175
100
AcDbEntity
  8
LC-001-100-D00-0
 62
     7
370
    25
100
AcDbLine
 10
127.664489
 20
307.269612
 30
0.0
 11
128.725564
 21
308.330687
 31
0.0
  0
LINE
  5
190
330
175
100
AcDbEntity
  8
LC-001-100-D00-0
 62
     7
370
    25
100
AcDbLine
 10
184.050966
 20
363.656088
 30
0.0
 11
185.6748
 21
365.279922
 31
0.0
  0
LINE
  5
191
330
175
100
AcDbEntity
  8
LC-001-100-D00-0
 62
     7
370
    25
100
AcDbLine
 10
125.724656
 20
309.819907
 30
0.0
 11
126.842813
 21
310.938063
 31
0.0
  0
LINE
  5
192
330
175
100
AcDbEntity
  8
LC-001-100-D00-0
 62
     7
370
    25
100
AcDbLine
 10
186.596743
 20
370.691994
 30
0.0
 11
189.777911
 21
373.873161
 31
0.0
  0
LINE
  5
193
330
175
100
AcDbEntity
  8
LC-001-100-D00-0
 62
     7
370
    25
100
AcDbLine
 10
124.635753
 20
313.221131
 30
0.0
 11
126.050966
 21
314.636344
 31
0.0
  0
LINE
  5
194
330
175
100
AcDbEntity
  8
LC-001-100-D00-0
 62
     7
370
    25
100
AcDbLine
 10
190.699854
 20
379.285233
 30
0.0
 11
192.550966
 21
381.136344
 31
0.0
  0
LINE
  5
195
330
175
100
AcDbEntity
  8
LC-001-100-D00-0
 62
     7
370
    25
100
AcDbLine
 10
193.435195
 20
382.020573
 30
0.0
 11
194.900966
 21
383.486344
 31
0.0
  0
LINE
  5
196
330
175
100
AcDbEntity
  8
LC-001-100-D00-0
 62
     7
370
    25
100
AcDbLine
 10
124.550966
 20
317.626472
 30
0.0
 11
126.050966
 21
319.126472
 31
0.0
  0
LINE
  5
197
330
175
100
AcDbEntity
  8
LC-001-100-D00-0
 62
     7
370
    25
100
AcDbLine
 10
124.550966
 20
322.1166
 30
0.0
 11
126.050966
 21
323.6166
 31
0.0
  0
LINE
  5
198
330
175
100
AcDbEntity
  8
LC-001-100-D00-0
 62
     7
370
    25
100
AcDbLine
 10
124.550966
 20
326.606728
 30
0.0
 11
126.050966
 21
328.106728
 31
0.0
  0
LINE
  5
199
330
175
100
AcDbEntity
  8
LC-001-100-D00-0
 62
     7
370
    25
100
AcDbLine
 10
124.550966
 20
331.096856
 30
0.0
 11
126.050966
 21
332.596856
 31
0.0
  0
LINE
  5
19A
330
175
100
AcDbEntity
  8
LC-001-100-D00-0
 62
     7
370
    25
100
AcDbLine
 10
124.550966
 20
335.586985
 30
0.0
 11
126.050966
 21
337.086985
 31
0.0
  0
LINE
  5
19B
330
175
100
AcDbEntity
  8
LC-001-100-D00-0
 62
     7
370
    25
100
AcDbLine
 10
124.550966
 20
340.077113
 30
0.0
 11
126.050966
 21
341.577113
 31
0.0
  0
LINE
  5
19C
330
175
100
AcDbEntity
  8
LC-001-100-D00-0
 62
     7
370
    25
100
AcDbLine
 10
124.550966
 20
344.567241
 30
0.0
 11
126.050966
 21
346.067241
 31
0.0
  0
LINE
  5
19D
330
175
100
AcDbEntity
  8
LC-001-100-D00-0
 62
     7
370
    25
100
AcDbLine
 10
124.550966
 20
349.057369
 30
0.0
 11
126.050966
 21
350.557369
 31
0.0
  0
LINE
  5
19E
330
175
100
AcDbEntity
  8
LC-001-100-D00-0
 62
     7
370
    25
100
AcDbLine
 10
124.550966
 20
353.547497
 30
0.0
 11
126.050966
 21
355.047497
 31
0.0
  0
LINE
  5
19F
330
175
100
AcDbEntity
  8
LC-001-100-D00-0
 62
     7
370
    25
100
AcDbLine
 10
124.550966
 20
358.037625
 30
0.0
 11
126.050966
 21
359.537625
 31
0.0
  0
LINE
  5
1A0
330
175
100
AcDbEntity
  8
LC-001-100-D00-0
 62
     7
370
    25
100
AcDbLine
 10
124.550966
 20
362.527753
 30
0.0
 11
126.050966
 21
364.027753
 31
0.0
  0
LINE
  5
1A1
330
175
100
AcDbEntity
  8
LC-001-100-D00-0
 62
     7
370
    25
100
AcDbLine
 10
123.905491
 20
366.372406
 30
0.0
 11
125.030527
 21
367.497442
 31
0.0
  0
LINE
  5
1A2
330
175
100
AcDbEntity
  8
LC-001-100-D00-0
 62
     7
370
    25
100
AcDbLine
 10
122.454405
 20
369.411448
 30
0.0
 11
123.579441
 21
370.536484
 31
0.0
  0
LINE
  5
1A3
330
175
100
AcDbEntity
  8
LC-001-100-D00-0
 62
     7
370
    25
100
AcDbLine
 10
121.003319
 20
372.450491
 30
0.0
 11
122.128355
 21
373.575526
 31
0.0
  0
LINE
  5
1A4
330
175
100
AcDbEntity
  8
LC-001-100-D00-0
 62
     7
370
    25
100
AcDbLine
 10
119.552233
 20
375.489533
 30
0.0
 11
120.677269
 21
376.614569
 31
0.0
  0
LINE
  5
1A5
330
175
100
AcDbEntity
  8
LC-001-100-D00-0
 62
     7
370
    25
100
AcDbLine
 10
118.101147
 20
378.528575
 30
0.0
 11
119.226183
 21
379.653611
 31
0.0
  0
LINE
  5
1A6
330
175
100
AcDbEntity
  8
LC-001-100-D00-0
 62
     7
370
    25
100
AcDbLine
 10
117.103018
 20
382.020573
 30
0.0
 11
118.603018
 21
383.520573
 31
0.0
  0
ENDBLK
  5
177
330
175
100
AcDbEntity
  8
0
100
AcDbBlockEnd
  0
BLOCK
  5
1A9
330
1A8
100
AcDbEntity
  8
0
100
AcDbBlockBegin
  2
KLON4
 70
     0
 71
     0
 10
0.0
 20
0.0
 30
0.0
  3
KLON4
  1

  4
KLON4
  0
LINE
  5
1AB
330
1A8
100
AcDbEntity
  8
LC-001-100-D00-0
 62
     7
370
    25
100
AcDbLine
 10
137.050966
 20
347.882865
 30
0.0
 11
136.050966
 21
348.882865
 31
0.0
  0
LINE
  5
1AC
330
1A8
100
AcDbEntity
  8
LC-001-100-D00-0
 62
     7
370
    25
100
AcDbLine
 10
137.050966
 20
320.942097
 30
0.0
 11
136.050966
 21
321.942097
 31
0.0
  0
LINE
  5
1AD
330
1A8
100
AcDbEntity
  8
LC-001-100-D00-0
 62
     7
370
    25
100
AcDbLine
 10
137.050966
 20
352.372995
 30
0.0
 11
136.050966
 21
353.372995
 31
0.0
  0
LINE
  5
1AE
330
1A8
100
AcDbEntity
  8
LC-001-100-D00-0
 62
     7
370
    25
100
AcDbLine
 10
137.050966
 20
325.432227
 30
0.0
 11
136.050966
 21
326.432227
 31
0.0
  0
LINE
  5
1AF
330
1A8
100
AcDbEntity
  8
LC-001-100-D00-0
 62
     7
370
    25
100
AcDbLine
 10
137.050966
 20
356.863125
 30
0.0
 11
136.050966
 21
357.863125
 31
0.0
  0
LINE
  5
1B0
330
1A8
100
AcDbEntity
  8
LC-001-100-D00-0
 62
     7
370
    25
100
AcDbLine
 10
137.050966
 20
329.922357
 30
0.0
 11
136.050966
 21
330.922357
 31
0.0
  0
LINE
  5
1B1
330
1A8
100
AcDbEntity
  8
LC-001-100-D00-0
 62
     7
370
    25
100
AcDbLine
 10
137.050966
 20
361.353265
 30
0.0
 11
136.050966
 21
362.353265
 31
0.0
  0
LINE
  5
1B2
330
1A8
100
AcDbEntity
  8
LC-001-100-D00-0
 62
     7
370
    25
100
AcDbLine
 10
137.050966
 20
334.412497
 30
0.0
 11
136.050966
 21
335.412497
 31
0.0
  0
ENDBLK
  5
1AA
330
1A8
100
AcDbEntity
  8
0
100
AcDbBlockEnd
  0
BLOCK
  5
1B5
330
1B4
100
AcDbEntity
  8
0
100
AcDbBlockBegin
  2
KLON5
 70
     0
 71
     0
 10
0.0
 20
0.0
 30
0.0
  3
KLON5
  1

  4
KLON5
  0
LINE
  5
1B7
330
1B4
100
AcDbEntity
  8
LC-001-100-D00-0
 62
     7
370
    25
100
AcDbLine
 10
185.735562
 20
380.020573
 30
0.0
 11
184.739602
 21
381.016533
 31
0.0
  0
LINE
  5
1B8
330
1B4
100
AcDbEntity
  8
LC-001-100-D00-0
 62
     7
370
    25
100
AcDbLine
 10
174.050966
 20
364.764402
 30
0.0
 11
173.050966
 21
365.764402
 31
0.0
  0
LINE
  5
1B9
330
1B4
100
AcDbEntity
  8
LC-001-100-D00-0
 62
     7
370
    25
100
AcDbLine
 10
174.050966
 20
337.823633
 30
0.0
 11
173.050966
 21
338.823633
 31
0.0
  0
LINE
  5
1BA
330
1B4
100
AcDbEntity
  8
LC-001-100-D00-0
 62
     7
370
    25
100
AcDbLine
 10
190.225692
 20
380.020573
 30
0.0
 11
188.509768
 21
381.736498
 31
0.0
  0
LINE
  5
1BB
330
1B4
100
AcDbEntity
  8
LC-001-100-D00-0
 62
     7
370
    25
100
AcDbLine
 10
174.053402
 20
369.252095
 30
0.0
 11
173.108746
 21
370.196751
 31
0.0
  0
LINE
  5
1BC
330
1B4
100
AcDbEntity
  8
LC-001-100-D00-0
 62
     7
370
    25
100
AcDbLine
 10
174.050966
 20
342.313763
 30
0.0
 11
173.050966
 21
343.313763
 31
0.0
  0
LINE
  5
1BD
330
1B4
100
AcDbEntity
  8
LC-001-100-D00-0
 62
     7
370
    25
100
AcDbLine
 10
191.215822
 20
383.520573
 30
0.0
 11
188.550966
 21
386.18543
 31
0.0
  0
LINE
  5
1BE
330
1B4
100
AcDbEntity
  8
LC-001-100-D00-0
 62
     7
370
    25
100
AcDbLine
 10
174.795901
 20
372.999726
 30
0.0
 11
174.029278
 21
373.76635
 31
0.0
  0
LINE
  5
1BF
330
1B4
100
AcDbEntity
  8
LC-001-100-D00-0
 62
     7
370
    25
100
AcDbLine
 10
174.050966
 20
346.803893
 30
0.0
 11
173.050966
 21
347.803893
 31
0.0
  0
LINE
  5
1C0
330
1B4
100
AcDbEntity
  8
LC-001-100-D00-0
 62
     7
370
    25
100
AcDbLine
 10
174.050966
 20
319.863125
 30
0.0
 11
173.050966
 21
320.863125
 31
0.0
  0
LINE
  5
1C1
330
1B4
100
AcDbEntity
  8
LC-001-100-D00-0
 62
     7
370
    25
100
AcDbLine
 10
194.550966
 20
384.67557
 30
0.0
 11
194.005962
 21
385.220573
 31
0.0
  0
LINE
  5
1C2
330
1B4
100
AcDbEntity
  8
LC-001-100-D00-0
 62
     7
370
    25
100
AcDbLine
 10
193.050966
 20
386.17557
 30
0.0
 11
189.502693
 21
389.723842
 31
0.0
  0
LINE
  5
1C3
330
1B4
100
AcDbEntity
  8
LC-001-100-D00-0
 62
     7
370
    25
100
AcDbLine
 10
176.431324
 20
375.854443
 30
0.0
 11
175.719907
 21
376.56586
 31
0.0
  0
LINE
  5
1C4
330
1B4
100
AcDbEntity
  8
LC-001-100-D00-0
 62
     7
370
    25
100
AcDbLine
 10
174.050966
 20
351.294033
 30
0.0
 11
173.050966
 21
352.294033
 31
0.0
  0
LINE
  5
1C5
330
1B4
100
AcDbEntity
  8
LC-001-100-D00-0
 62
     7
370
    25
100
AcDbLine
 10
174.050966
 20
324.353265
 30
0.0
 11
173.050966
 21
325.353265
 31
0.0
  0
ENDBLK
  5
1B6
330
1B4
100
AcDbEntity
  8
0
100
AcDbBlockEnd
  0
BLOCK
  5
1C9
330
1C8
100
AcDbEntity
  8
0
100
AcDbBlockBegin
  2
KLON6
 70
     0
 71
     0
 10
0.0
 20
0.0
 30
0.0
  3
KLON6
  1

  4
KLON6
  0
LINE
  5
1CB
330
1C8
100
AcDbEntity
  8
LC-001-100-D00-0
 62
     7
370
    25
100
AcDbLine
 10
103.213257
 20
381.720573
 30
0.0
 11
99.050966
 21
385.882865
 31
0.0
  0
LINE
  5
1CC
330
1C8
100
AcDbEntity
  8
LC-001-100-D00-0
 62
     7
370
    25
100
AcDbLine
 10
108.050966
 20
381.372995
 30
0.0
 11
104.812527
 21
384.611434
 31
0.0
  0
ENDBLK
  5
1CA
330
1C8
100
AcDbEntity
  8
0
100
AcDbBlockEnd
  0
BLOCK
  5
1CF
330
1CE
100
AcDbEntity
  8
0
100
AcDbBlockBegin
  2
KLON7
 70
     0
 71
     0
 10
0.0
 20
0.0
 30
0.0
  3
KLON7
  1

  4
KLON7
  0
LINE
  5
1D1
330
1CE
100
AcDbEntity
  8
LC-001-100-D00-0
 62
     7
370
    25
100
AcDbLine
 10
211.050966
 20
381.645938
 30
0.0
 11
207.513648
 21
385.183256
 31
0.0
  0
LINE
  5
1D2
330
1CE
100
AcDbEntity
  8
LC-001-100-D00-0
 62
     7
370
    25
100
AcDbLine
 10
211.050966
 20
386.136068
 30
0.0
 11
209.758713
 21
387.428321
 31
0.0
  0
ENDBLK
  5
1D0
330
1CE
100
AcDbEntity
  8
0
100
AcDbBlockEnd
  0
BLOCK
  5
1D5
330
1D4
100
AcDbEntity
  8
0
100
AcDbBlockBegin
  2
KLON8
 70
     0
 71
     0
 10
0.0
 20
0.0
 30
0.0
  3
KLON8
  1

  4
KLON8
  0
LINE
  5
1D7
330
1D4
100
AcDbEntity
  8
LC-001-100-D00-0
 62
     7
370
    25
100
AcDbLine
 10
195.200966
 20
347.86532
 30
0.0
 11
198.050966
 21
350.71532
 31
0.0
  0
LINE
  5
1D8
330
1D4
100
AcDbEntity
  8
LC-001-100-D00-0
 62
     7
370
    25
100
AcDbLine
 10
195.200966
 20
352.355448
 30
0.0
 11
198.050966
 21
355.205448
 31
0.0
  0
LINE
  5
1D9
330
1D4
100
AcDbEntity
  8
LC-001-100-D00-0
 62
     7
370
    25
100
AcDbLine
 10
195.200966
 20
356.845576
 30
0.0
 11
198.050966
 21
359.695576
 31
0.0
  0
LINE
  5
1DA
330
1D4
100
AcDbEntity
  8
LC-001-100-D00-0
 62
     7
370
    25
100
AcDbLine
 10
194.085835
 20
360.220573
 30
0.0
 11
198.050966
 21
364.185704
 31
0.0
  0
LINE
  5
1DB
330
1D4
100
AcDbEntity
  8
LC-001-100-D00-0
 62
     7
370
    25
100
AcDbLine
 10
192.550966
 20
363.175832
 30
0.0
 11
198.050966
 21
368.675832
 31
0.0
  0
LINE
  5
1DC
330
1D4
100
AcDbEntity
  8
LC-001-100-D00-0
 62
     7
370
    25
100
AcDbLine
 10
192.550966
 20
367.66596
 30
0.0
 11
198.050966
 21
373.16596
 31
0.0
  0
LINE
  5
1DD
330
1D4
100
AcDbEntity
  8
LC-001-100-D00-0
 62
     7
370
    25
100
AcDbLine
 10
192.550966
 20
372.156088
 30
0.0
 11
198.050966
 21
377.656088
 31
0.0
  0
LINE
  5
1DE
330
1D4
100
AcDbEntity
  8
LC-001-100-D00-0
 62
     7
370
    25
100
AcDbLine
 10
208.115445
 20
387.720567
 30
0.0
 11
209.255313
 21
388.860435
 31
0.0
  0
LINE
  5
1DF
330
1D4
100
AcDbEntity
  8
LC-001-100-D00-0
 62
     7
370
    25
100
AcDbLine
 10
192.800966
 20
376.896216
 30
0.0
 11
198.050966
 21
382.146216
 31
0.0
  0
LINE
  5
1E0
330
1D4
100
AcDbEntity
  8
LC-001-100-D00-0
 62
     7
370
    25
100
AcDbLine
 10
203.625317
 20
387.720567
 30
0.0
 11
205.507603
 21
389.602854
 31
0.0
  0
LINE
  5
1E1
330
1D4
100
AcDbEntity
  8
LC-001-100-D00-0
 62
     7
370
    25
100
AcDbLine
 10
192.800966
 20
381.386344
 30
0.0
 11
193.435195
 21
382.020573
 31
0.0
  0
LINE
  5
1E2
330
1D4
100
AcDbEntity
  8
LC-001-100-D00-0
 62
     7
370
    25
100
AcDbLine
 10
195.200966
 20
383.786344
 30
0.0
 11
198.050966
 21
386.636344
 31
0.0
  0
LINE
  5
1E3
330
1D4
100
AcDbEntity
  8
LC-001-100-D00-0
 62
     7
370
    25
100
AcDbLine
 10
199.135189
 20
387.720567
 30
0.0
 11
201.489295
 21
390.074674
 31
0.0
  0
LINE
  5
1E4
330
1D4
100
AcDbEntity
  8
LC-001-100-D00-0
 62
     7
370
    25
100
AcDbLine
 10
195.200966
 20
388.276472
 30
0.0
 11
197.145067
 21
390.220573
 31
0.0
  0
ENDBLK
  5
1D6
330
1D4
100
AcDbEntity
  8
0
100
AcDbBlockEnd
  0
BLOCK
  5
1E7
330
1E6
100
AcDbEntity
  8
0
100
AcDbBlockBegin
  2
KLON9
 70
     0
 71
     0
 10
0.0
 20
0.0
 30
0.0
  3
KLON9
  1

  4
KLON9
  0
LINE
  5
1E9
330
1E6
100
AcDbEntity
  8
LC-001-100-D00-0
 62
     7
370
    25
100
AcDbLine
 10
112.64244
 20
346.129099
 30
0.0
 11
114.900966
 21
348.387625
 31
0.0
  0
LINE
  5
1EA
330
1E6
100
AcDbEntity
  8
LC-001-100-D00-0
 62
     7
370
    25
100
AcDbLine
 10
112.050966
 20
350.027753
 30
0.0
 11
114.900966
 21
352.877753
 31
0.0
  0
LINE
  5
1EB
330
1E6
100
AcDbEntity
  8
LC-001-100-D00-0
 62
     7
370
    25
100
AcDbLine
 10
112.050966
 20
354.517881
 30
0.0
 11
114.900966
 21
357.367881
 31
0.0
  0
LINE
  5
1EC
330
1E6
100
AcDbEntity
  8
LC-001-100-D00-0
 62
     7
370
    25
100
AcDbLine
 10
112.050966
 20
359.008009
 30
0.0
 11
117.550966
 21
364.508009
 31
0.0
  0
LINE
  5
1ED
330
1E6
100
AcDbEntity
  8
LC-001-100-D00-0
 62
     7
370
    25
100
AcDbLine
 10
112.050966
 20
363.498137
 30
0.0
 11
117.550966
 21
368.998137
 31
0.0
  0
LINE
  5
1EE
330
1E6
100
AcDbEntity
  8
LC-001-100-D00-0
 62
     7
370
    25
100
AcDbLine
 10
112.050966
 20
367.988265
 30
0.0
 11
117.550966
 21
373.488265
 31
0.0
  0
LINE
  5
1EF
330
1E6
100
AcDbEntity
  8
LC-001-100-D00-0
 62
     7
370
    25
100
AcDbLine
 10
112.050966
 20
372.478393
 30
0.0
 11
117.300966
 21
377.728393
 31
0.0
  0
LINE
  5
1F0
330
1E6
100
AcDbEntity
  8
LC-001-100-D00-0
 62
     7
370
    25
100
AcDbLine
 10
112.050966
 20
376.968521
 30
0.0
 11
117.103018
 21
382.020573
 31
0.0
  0
LINE
  5
1F1
330
1E6
100
AcDbEntity
  8
LC-001-100-D00-0
 62
     7
370
    25
100
AcDbLine
 10
112.050966
 20
381.458649
 30
0.0
 11
114.900966
 21
384.308649
 31
0.0
  0
LINE
  5
1F2
330
1E6
100
AcDbEntity
  8
LC-001-100-D00-0
 62
     7
370
    25
100
AcDbLine
 10
112.050966
 20
385.948777
 30
0.0
 11
114.900966
 21
388.798777
 31
0.0
  0
LINE
  5
1F3
330
1E6
100
AcDbEntity
  8
LC-001-100-D00-0
 62
     7
370
    25
100
AcDbLine
 10
109.332628
 20
387.720567
 30
0.0
 11
111.829028
 21
390.216967
 31
0.0
  0
LINE
  5
1F4
330
1E6
100
AcDbEntity
  8
LC-001-100-D00-0
 62
     7
370
    25
100
AcDbLine
 10
104.8425
 20
387.720567
 30
0.0
 11
107.052545
 21
389.930613
 31
0.0
  0
LINE
  5
1F5
330
1E6
100
AcDbEntity
  8
LC-001-100-D00-0
 62
     7
370
    25
100
AcDbLine
 10
100.352372
 20
387.720567
 30
0.0
 11
101.684082
 21
389.052278
 31
0.0
  0
ENDBLK
  5
1E8
330
1E6
100
AcDbEntity
  8
0
100
AcDbBlockEnd
  0
BLOCK
  5
1F8
330
1F7
100
AcDbEntity
  8
0
100
AcDbBlockBegin
  2
KLON10
 70
     0
 71
     0
 10
0.0
 20
0.0
 30
0.0
  3
KLON10
  1

  4
KLON10
  0
LINE
  5
1FA
330
1F7
100
AcDbEntity
  8
LC-001-100-D00-0
 62
     7
370
    25
100
AcDbLine
 10
205.468847
 20
385.07397
 30
0.0
 11
208.115445
 21
387.720567
 31
0.0
  0
LINE
  5
1FB
330
1F7
100
AcDbEntity
  8
LC-001-100-D00-0
 62
     7
370
    25
100
AcDbLine
 10
200.550966
 20
384.646216
 30
0.0
 11
203.625317
 21
387.720567
 31
0.0
  0
ENDBLK
  5
1F9
330
1F7
100
AcDbEntity
  8
0
100
AcDbBlockEnd
  0
BLOCK
  5
1FE
330
1FD
100
AcDbEntity
  8
0
100
AcDbBlockBegin
  2
KLON11
 70
     0
 71
     0
 10
0.0
 20
0.0
 30
0.0
  3
KLON11
  1

  4
KLON11
  0
LINE
  5
200
330
1FD
100
AcDbEntity
  8
LC-001-100-D00-0
 62
     7
370
    25
100
AcDbLine
 10
108.781227
 20
382.679038
 30
0.0
 11
109.550966
 21
383.448777
 31
0.0
  0
LINE
  5
201
330
1FD
100
AcDbEntity
  8
LC-001-100-D00-0
 62
     7
370
    25
100
AcDbLine
 10
105.9346
 20
384.322539
 30
0.0
 11
109.332628
 21
387.720567
 31
0.0
  0
LINE
  5
202
330
1FD
100
AcDbEntity
  8
LC-001-100-D00-0
 62
     7
370
    25
100
AcDbLine
 10
103.087972
 20
385.96604
 30
0.0
 11
104.8425
 21
387.720567
 31
0.0
  0
LINE
  5
203
330
1FD
100
AcDbEntity
  8
LC-001-100-D00-0
 62
     7
370
    25
100
AcDbLine
 10
100.300966
 20
387.669162
 30
0.0
 11
100.352372
 21
387.720567
 31
0.0
  0
ENDBLK
  5
1FF
330
1FD
100
AcDbEntity
  8
0
100
AcDbBlockEnd
  0
BLOCK
  5
215
330
20A
100
AcDbEntity
  8
0
100
AcDbBlockBegin
  2
*D15
 70
     1
 71
     0
 10
0.0
 20
0.0
 30
0.0
  3
*D15
  1

  0
LINE
  5
20B
330
20A
100
AcDbEntity
  8
LC-002-102-D00-0
 62
     2
370
    -2
100
AcDbLine
 10
130.050966
 20
230.720573
 30
0.0
 11
130.050966
 21
200.718262
 31
0.0
  0
LINE
  5
20C
330
20A
100
AcDbEntity
  8
LC-002-102-D00-0
 62
     2
370
    -2
100
AcDbLine
 10
180.050966
 20
230.720573
 30
0.0
 11
180.050966
 21
200.718262
 31
0.0
  0
LINE
  5
20D
330
20A
100
AcDbEntity
  8
LC-002-102-D00-0
 62
     2
370
    -2
100
AcDbLine
 10
102.050966
 20
204.318262
 30
0.0
 11
74.050966
 21
204.318262
 31
0.0
  0
LINE
  5
20E
330
20A
100
AcDbEntity
  8
LC-002-102-D00-0
 62
     2
370
    -2
100
AcDbLine
 10
208.050966
 20
204.318262
 30
0.0
 11
279.477082
 21
204.318262
 31
0.0
  0
SOLID
  5
20F
330
20A
100
AcDbEntity
  8
LC-002-102-D00-0
 62
     2
100
AcDbTrace
 10
102.050966
 20
199.651595
 30
0.0
 11
102.050966
 21
208.984929
 31
0.0
 12
130.050966
 22
204.318262
 32
0.0
 13
130.050966
 23
204.318262
 33
0.0
  0
SOLID
  5
210
330
20A
100
AcDbEntity
  8
LC-002-102-D00-0
 62
     2
100
AcDbTrace
 10
208.050966
 20
208.984929
 30
0.0
 11
208.050966
 21
199.651595
 31
0.0
 12
180.050966
 22
204.318262
 32
0.0
 13
180.050966
 23
204.318262
 33
0.0
  0
MTEXT
  5
211
330
20A
100
AcDbEntity
  8
LC-002-102-D00-0
 62
     2
100
AcDbMText
 10
233.440324
 20
235.118262
 30
0.0
 40
28.0
 41
0.0
 71
     5
 72
     1
  1
\A1;DN50
  7
LCTX15-400-0-0pDIN-Schrift
 73
     1
 44
1.0
  0
POINT
  5
212
330
20A
100
AcDbEntity
  8
Defpoints
 62
     0
100
AcDbPoint
 10
130.050966
 20
230.720573
 30
0.0
  0
POINT
  5
213
330
20A
100
AcDbEntity
  8
Defpoints
 62
     0
100
AcDbPoint
 10
180.050966
 20
230.720573
 30
0.0
  0
POINT
  5
214
330
20A
100
AcDbEntity
  8
Defpoints
 62
     0
100
AcDbPoint
 10
180.050966
 20
204.318262
 30
0.0
  0
ENDBLK
  5
216
330
20A
100
AcDbEntity
  8
0
100
AcDbBlockEnd
  0
BLOCK
  5
224
330
218
100
AcDbEntity
  8
0
100
AcDbBlockBegin
  2
*D16
 70
     1
 71
     0
 10
0.0
 20
0.0
 30
0.0
  3
*D16
  1

  0
LINE
  5
219
330
218
100
AcDbEntity
  8
LC-002-102-D00-0
 62
     2
370
    -2
100
AcDbLine
 10
130.050966
 20
281.720573
 30
0.0
 11
56.265039
 21
281.720573
 31
0.0
  0
LINE
  5
21A
330
218
100
AcDbEntity
  8
LC-002-102-D00-0
 62
     2
370
    -2
100
AcDbLine
 10
130.854813
 20
227.720573
 30
0.0
 11
56.265039
 21
227.720573
 31
0.0
  0
LINE
  5
21B
330
218
100
AcDbEntity
  8
LC-002-102-D00-0
 62
     2
370
    -2
100
AcDbLine
 10
59.865039
 20
309.720573
 30
0.0
 11
59.865039
 21
337.720573
 31
0.0
  0
LINE
  5
21C
330
218
100
AcDbEntity
  8
LC-002-102-D00-0
 62
     2
370
    -2
100
AcDbLine
 10
59.865039
 20
199.720573
 30
0.0
 11
59.865039
 21
171.720573
 31
0.0
  0
LINE
  5
21D
330
218
100
AcDbEntity
  8
LC-002-102-D00-0
 62
     2
370
    -2
100
AcDbLine
 10
59.865039
 20
281.720573
 30
0.0
 11
59.865039
 21
227.720573
 31
0.0
  0
SOLID
  5
21E
330
218
100
AcDbEntity
  8
LC-002-102-D00-0
 62
     2
100
AcDbTrace
 10
55.198372
 20
309.720573
 30
0.0
 11
64.531705
 21
309.720573
 31
0.0
 12
59.865039
 22
281.720573
 32
0.0
 13
59.865039
 23
281.720573
 33
0.0
  0
SOLID
  5
21F
330
218
100
AcDbEntity
  8
LC-002-102-D00-0
 62
     2
100
AcDbTrace
 10
64.531705
 20
199.720573
 30
0.0
 11
55.198372
 21
199.720573
 31
0.0
 12
59.865039
 22
227.720573
 32
0.0
 13
59.865039
 23
227.720573
 33
0.0
  0
MTEXT
  5
220
330
218
100
AcDbEntity
  8
LC-002-102-D00-0
 62
     2
100
AcDbMText
 10
29.065039
 20
241.146262
 30
0.0
 40
28.0
 41
0.0
 71
     5
 72
     1
  1
\A1;54
  7
LCTX15-400-0-0pDIN-Schrift
 11
6.123031769111886E-17
 21
1.0
 31
0.0
 73
     1
 44
1.0
  0
POINT
  5
221
330
218
100
AcDbEntity
  8
Defpoints
 62
     0
100
AcDbPoint
 10
130.050966
 20
281.720573
 30
0.0
  0
POINT
  5
222
330
218
100
AcDbEntity
  8
Defpoints
 62
     0
100
AcDbPoint
 10
130.854813
 20
227.720573
 30
0.0
  0
POINT
  5
223
330
218
100
AcDbEntity
  8
Defpoints
 62
     0
100
AcDbPoint
 10
59.865039
 20
227.720573
 30
0.0
  0
ENDBLK
  5
225
330
218
100
AcDbEntity
  8
0
100
AcDbBlockEnd
  0
BLOCK
  5
231
330
227
100
AcDbEntity
  8
0
100
AcDbBlockBegin
  2
*D17
 70
     1
 71
     0
 10
0.0
 20
0.0
 30
0.0
  3
*D17
  1

  0
LINE
  5
228
330
227
100
AcDbEntity
  8
LC-002-102-D00-0
 62
     2
370
    -2
100
AcDbLine
 10
110.050966
 20
305.862709
 30
0.0
 11
110.050966
 21
140.130262
 31
0.0
  0
LINE
  5
229
330
227
100
AcDbEntity
  8
LC-002-102-D00-0
 62
     2
370
    -2
100
AcDbLine
 10
200.050966
 20
305.862709
 30
0.0
 11
200.050966
 21
140.130262
 31
0.0
  0
LINE
  5
22A
330
227
100
AcDbEntity
  8
LC-002-102-D00-0
 62
     2
370
    -2
100
AcDbLine
 10
138.050966
 20
143.730262
 30
0.0
 11
172.050966
 21
143.730262
 31
0.0
  0
SOLID
  5
22B
330
227
100
AcDbEntity
  8
LC-002-102-D00-0
 62
     2
100
AcDbTrace
 10
138.050966
 20
148.396929
 30
0.0
 11
138.050966
 21
139.063595
 31
0.0
 12
110.050966
 22
143.730262
 32
0.0
 13
110.050966
 23
143.730262
 33
0.0
  0
SOLID
  5
22C
330
227
100
AcDbEntity
  8
LC-002-102-D00-0
 62
     2
100
AcDbTrace
 10
172.050966
 20
139.063595
 30
0.0
 11
172.050966
 21
148.396929
 31
0.0
 12
200.050966
 22
143.730262
 32
0.0
 13
200.050966
 23
143.730262
 33
0.0
  0
MTEXT
  5
22D
330
227
100
AcDbEntity
  8
LC-002-102-D00-0
 62
     2
100
AcDbMText
 10
148.25
 20
174.530262
 30
0.0
 40
28.0
 41
0.0
 71
     5
 72
     1
  1
%%c\A1;90
  7
LCTX15-400-0-0pDIN-Schrift
 73
     1
 44
1.0
  0
POINT
  5
22E
330
227
100
AcDbEntity
  8
Defpoints
 62
     0
100
AcDbPoint
 10
110.050966
 20
305.862709
 30
0.0
  0
POINT
  5
22F
330
227
100
AcDbEntity
  8
Defpoints
 62
     0
100
AcDbPoint
 10
200.050966
 20
305.862709
 30
0.0
  0
POINT
  5
230
330
227
100
AcDbEntity
  8
Defpoints
 62
     0
100
AcDbPoint
 10
200.050966
 20
143.730262
 30
0.0
  0
ENDBLK
  5
232
330
227
100
AcDbEntity
  8
0
100
AcDbBlockEnd
  0
BLOCK
  5
240
330
234
100
AcDbEntity
  8
0
100
AcDbBlockBegin
  2
*D18
 70
     1
 71
     0
 10
0.0
 20
0.0
 30
0.0
  3
*D18
  1

  0
LINE
  5
235
330
234
100
AcDbEntity
  8
LC-002-102-D00-0
 62
     2
370
    -2
100
AcDbLine
 10
124.698865
 20
367.520573
 30
0.0
 11
77.56262
 21
367.520573
 31
0.0
  0
LINE
  5
236
330
234
100
AcDbEntity
  8
LC-002-102-D00-0
 62
     2
370
    -2
100
AcDbLine
 10
136.050966
 20
316.520573
 30
0.0
 11
77.56262
 21
316.520573
 31
0.0
  0
LINE
  5
237
330
234
100
AcDbEntity
  8
LC-002-102-D00-0
 62
     2
370
    -2
100
AcDbLine
 10
81.16262
 20
395.520573
 30
0.0
 11
81.16262
 21
423.520573
 31
0.0
  0
LINE
  5
238
330
234
100
AcDbEntity
  8
LC-002-102-D00-0
 62
     2
370
    -2
100
AcDbLine
 10
81.16262
 20
288.520573
 30
0.0
 11
81.16262
 21
260.520573
 31
0.0
  0
LINE
  5
239
330
234
100
AcDbEntity
  8
LC-002-102-D00-0
 62
     2
370
    -2
100
AcDbLine
 10
81.16262
 20
367.520573
 30
0.0
 11
81.16262
 21
316.520573
 31
0.0
  0
SOLID
  5
23A
330
234
100
AcDbEntity
  8
LC-002-102-D00-0
 62
     2
100
AcDbTrace
 10
76.495953
 20
395.520573
 30
0.0
 11
85.829286
 21
395.520573
 31
0.0
 12
81.16262
 22
367.520573
 32
0.0
 13
81.16262
 23
367.520573
 33
0.0
  0
SOLID
  5
23B
330
234
100
AcDbEntity
  8
LC-002-102-D00-0
 62
     2
100
AcDbTrace
 10
85.829286
 20
288.520573
 30
0.0
 11
76.495953
 21
288.520573
 31
0.0
 12
81.16262
 22
316.520573
 32
0.0
 13
81.16262
 23
316.520573
 33
0.0
  0
MTEXT
  5
23C
330
234
100
AcDbEntity
  8
LC-002-102-D00-0
 62
     2
100
AcDbMText
 10
50.36262
 20
321.336262
 30
0.0
 40
28.0
 41
0.0
 71
     5
 72
     1
  1
\A1;50
  7
LCTX15-400-0-0pDIN-Schrift
 11
6.123031769111886E-17
 21
1.0
 31
0.0
 73
     1
 44
1.0
  0
POINT
  5
23D
330
234
100
AcDbEntity
  8
Defpoints
 62
     0
100
AcDbPoint
 10
124.698865
 20
367.520573
 30
0.0
  0
POINT
  5
23E
330
234
100
AcDbEntity
  8
Defpoints
 62
     0
100
AcDbPoint
 10
136.050966
 20
316.520573
 30
0.0
  0
POINT
  5
23F
330
234
100
AcDbEntity
  8
Defpoints
 62
     0
100
AcDbPoint
 10
81.16262
 20
316.520573
 30
0.0
  0
ENDBLK
  5
241
330
234
100
AcDbEntity
  8
0
100
AcDbBlockEnd
  0
BLOCK
  5
24E
330
243
100
AcDbEntity
  8
0
100
AcDbBlockBegin
  2
*D19
 70
     1
 71
     0
 10
0.0
 20
0.0
 30
0.0
  3
*D19
  1

  0
LINE
  5
244
330
243
100
AcDbEntity
  8
LC-002-102-D00-0
 62
     2
370
    -2
100
AcDbLine
 10
112.42953
 20
390.220573
 30
0.0
 11
30.707941
 21
390.220573
 31
0.0
  0
LINE
  5
245
330
243
100
AcDbEntity
  8
LC-002-102-D00-0
 62
     2
370
    -2
100
AcDbLine
 10
103.550966
 20
384.220573
 30
0.0
 11
30.707941
 21
384.220573
 31
0.0
  0
LINE
  5
246
330
243
100
AcDbEntity
  8
LC-002-102-D00-0
 62
     2
370
    -2
100
AcDbLine
 10
34.307941
 20
356.220573
 30
0.0
 11
34.307941
 21
328.220573
 31
0.0
  0
LINE
  5
247
330
243
100
AcDbEntity
  8
LC-002-102-D00-0
 62
     2
370
    -2
100
AcDbLine
 10
34.307941
 20
418.220573
 30
0.0
 11
34.307941
 21
445.304986
 31
0.0
  0
SOLID
  5
248
330
243
100
AcDbEntity
  8
LC-002-102-D00-0
 62
     2
100
AcDbTrace
 10
29.641275
 20
418.220573
 30
0.0
 11
38.974608
 21
418.220573
 31
0.0
 12
34.307941
 22
390.220573
 32
0.0
 13
34.307941
 23
390.220573
 33
0.0
  0
SOLID
  5
249
330
243
100
AcDbEntity
  8
LC-002-102-D00-0
 62
     2
100
AcDbTrace
 10
38.974608
 20
356.220573
 30
0.0
 11
29.641275
 21
356.220573
 31
0.0
 12
34.307941
 22
384.220573
 32
0.0
 13
34.307941
 23
384.220573
 33
0.0
  0
MTEXT
  5
24A
330
243
100
AcDbEntity
  8
LC-002-102-D00-0
 62
     2
100
AcDbMText
 10
3.507941
 20
398.556262
 30
0.0
 40
28.0
 41
0.0
 71
     5
 72
     1
  1
\A1;6-25
  7
LCTX15-400-0-0pDIN-Schrift
 11
6.123031769111886E-17
 21
1.0
 31
0.0
 73
     1
 44
1.0
  0
POINT
  5
24B
330
243
100
AcDbEntity
  8
Defpoints
 62
     0
100
AcDbPoint
 10
112.42953
 20
390.220573
 30
0.0
  0
POINT
  5
24C
330
243
100
AcDbEntity
  8
Defpoints
 62
     0
100
AcDbPoint
 10
103.550966
 20
384.220573
 30
0.0
  0
POINT
  5
24D
330
243
100
AcDbEntity
  8
Defpoints
 62
     0
100
AcDbPoint
 10
34.307941
 20
384.220573
 30
0.0
  0
ENDBLK
  5
24F
330
243
100
AcDbEntity
  8
0
100
AcDbBlockEnd
  0
BLOCK
  5
25E
330
254
100
AcDbEntity
  8
0
100
AcDbBlockBegin
  2
*D20
 70
     1
 71
     0
 10
0.0
 20
0.0
 30
0.0
  3
*D20
  1

  0
LINE
  5
255
330
254
100
AcDbEntity
  8
LC-003-003-----0
 62
     2
370
    -2
100
AcDbLine
 10
133.050966
 20
227.720574
 30
0.0
 11
1.956207
 21
227.720574
 31
0.0
  0
LINE
  5
256
330
254
100
AcDbEntity
  8
LC-003-003-----0
 62
     2
370
    -2
100
AcDbLine
 10
103.550966
 20
384.22057
 30
0.0
 11
1.956207
 21
384.22057
 31
0.0
  0
LINE
  5
257
330
254
100
AcDbEntity
  8
LC-003-003-----0
 62
     2
370
    -2
100
AcDbLine
 10
5.556207
 20
255.720574
 30
0.0
 11
5.556207
 21
356.22057
 31
0.0
  0
SOLID
  5
258
330
254
100
AcDbEntity
  8
LC-003-003-----0
 62
     2
100
AcDbTrace
 10
0.88954
 20
255.720574
 30
0.0
 11
10.222874
 21
255.720574
 31
0.0
 12
5.556207
 22
227.720574
 32
0.0
 13
5.556207
 23
227.720574
 33
0.0
  0
SOLID
  5
259
330
254
100
AcDbEntity
  8
LC-003-003-----0
 62
     2
100
AcDbTrace
 10
10.222874
 20
356.22057
 30
0.0
 11
0.88954
 21
356.22057
 31
0.0
 12
5.556207
 22
384.22057
 32
0.0
 13
5.556207
 23
384.22057
 33
0.0
  0
MTEXT
  5
25A
330
254
100
AcDbEntity
  8
LC-003-003-----0
 62
     2
100
AcDbMText
 10
-25.243793
 20
289.260262
 30
0.0
 40
28.0
 41
0.0
 71
     5
 72
     1
  1
\A1;157,5
  7
LCTX15-400-0-0pDIN-Schrift
 11
6.123031769111886E-17
 21
1.0
 31
0.0
 73
     1
 44
1.0
  0
POINT
  5
25B
330
254
100
AcDbEntity
  8
Defpoints
 62
     0
100
AcDbPoint
 10
133.050966
 20
227.720574
 30
0.0
  0
POINT
  5
25C
330
254
100
AcDbEntity
  8
Defpoints
 62
     0
100
AcDbPoint
 10
103.550966
 20
384.22057
 30
0.0
  0
POINT
  5
25D
330
254
100
AcDbEntity
  8
Defpoints
 62
     0
100
AcDbPoint
 10
5.556207
 20
384.22057
 30
0.0
  0
ENDBLK
  5
25F
330
254
100
AcDbEntity
  8
0
100
AcDbBlockEnd
  0
ENDSEC
  0
SECTION
  2
ENTITIES
  0
LINE
  5
32
330
1F
100
AcDbEntity
  8
LC-001-100-D00-0
 62
     7
370
    50
100
AcDbLine
 10
194.300966
 20
387.770571
 30
0.0
 11
193.050966
 21
387.770571
 31
0.0
  0
LINE
  5
33
330
1F
100
AcDbEntity
  8
LC-001-100-D00-0
 62
     7
370
    50
100
AcDbLine
 10
117.050964
 20
387.770571
 30
0.0
 11
115.800965
 21
387.770571
 31
0.0
  0
LINE
  5
34
330
1F
100
AcDbEntity
  8
LC-001-100-D00-0
 62
     7
370
    50
100
AcDbLine
 10
115.800965
 20
385.270573
 30
0.0
 11
117.050964
 21
385.270573
 31
0.0
  0
LINE
  5
35
330
1F
100
AcDbEntity
  8
LC-001-100-D00-0
 62
     7
370
    50
100
AcDbLine
 10
193.050966
 20
385.270573
 30
0.0
 11
194.300966
 21
385.270573
 31
0.0
  0
LINE
  5
36
330
1F
100
AcDbEntity
  8
LC-001-100-D00-0
 62
     7
370
    50
100
AcDbLine
 10
100.300963
 20
387.57512
 30
0.0
 11
109.550964
 21
382.234633
 31
0.0
  0
LINE
  5
37
330
1F
100
AcDbEntity
  8
LC-001-100-D00-0
 62
     7
370
    50
100
AcDbLine
 10
100.300963
 20
387.72057
 30
0.0
 11
100.300963
 21
387.57512
 31
0.0
  0
LINE
  5
38
330
1F
100
AcDbEntity
  8
LC-001-100-D00-0
 62
     7
370
    50
100
AcDbLine
 10
109.550964
 20
387.72057
 30
0.0
 11
100.300963
 21
387.72057
 31
0.0
  0
LINE
  5
39
330
1F
100
AcDbEntity
  8
LC-001-100-D00-0
 62
     7
370
    50
100
AcDbLine
 10
109.550964
 20
382.234633
 30
0.0
 11
109.550964
 21
387.72057
 31
0.0
  0
LINE
  5
3A
330
1F
100
AcDbEntity
  8
LC-001-100-D00-0
 62
     7
370
    50
100
AcDbLine
 10
200.550965
 20
382.234633
 30
0.0
 11
209.800966
 21
387.57512
 31
0.0
  0
LINE
  5
3B
330
1F
100
AcDbEntity
  8
LC-001-100-D00-0
 62
     7
370
    50
100
AcDbLine
 10
200.550965
 20
387.72057
 30
0.0
 11
200.550965
 21
382.234633
 31
0.0
  0
LINE
  5
3C
330
1F
100
AcDbEntity
  8
LC-001-100-D00-0
 62
     7
370
    50
100
AcDbLine
 10
209.800966
 20
387.72057
 30
0.0
 11
200.550965
 21
387.72057
 31
0.0
  0
LINE
  5
3D
330
1F
100
AcDbEntity
  8
LC-001-100-D00-0
 62
     7
370
    50
100
AcDbLine
 10
209.800966
 20
387.57512
 30
0.0
 11
209.800966
 21
387.72057
 31
0.0
  0
LINE
  5
3E
330
1F
100
AcDbEntity
  8
LC-001-100-D00-0
 62
     7
370
    50
100
AcDbLine
 10
109.550964
 20
382.234633
 30
0.0
 11
112.050969
 21
382.234633
 31
0.0
  0
LINE
  5
3F
330
1F
100
AcDbEntity
  8
LC-001-100-D00-0
 62
     7
370
    50
100
AcDbLine
 10
198.050966
 20
382.234633
 30
0.0
 11
200.550965
 21
382.234633
 31
0.0
  0
LINE
  5
40
330
1F
100
AcDbEntity
  8
LC-001-100-D00-0
 62
     7
370
    50
100
AcDbLine
 10
114.900965
 20
382.02057
 30
0.0
 11
114.900965
 21
389.220573
 31
0.0
  0
LINE
  5
41
330
1F
100
AcDbEntity
  8
LC-001-100-D00-0
 62
     7
370
    50
100
AcDbLine
 10
195.200965
 20
389.220573
 30
0.0
 11
195.200965
 21
382.02057
 31
0.0
  0
LINE
  5
42
330
1F
100
AcDbEntity
  8
LC-001-100-D00-0
 62
     7
370
    50
100
AcDbLine
 10
195.200965
 20
360.220574
 30
0.0
 11
195.200965
 21
345.220573
 31
0.0
  0
LINE
  5
43
330
1F
100
AcDbEntity
  8
LC-001-100-D00-0
 62
     7
370
    50
100
AcDbLine
 10
114.900965
 20
345.220573
 30
0.0
 11
124.550964
 21
345.220573
 31
0.0
  0
LINE
  5
44
330
1F
100
AcDbEntity
  8
LC-001-100-D00-0
 62
     7
370
    50
100
AcDbLine
 10
185.550966
 20
345.220573
 30
0.0
 11
195.200965
 21
345.220573
 31
0.0
  0
LINE
  5
45
330
1F
100
AcDbEntity
  8
LC-001-100-D00-0
 62
     7
370
    50
100
AcDbLine
 10
114.900965
 20
345.220573
 30
0.0
 11
114.900965
 21
360.220574
 31
0.0
  0
LINE
  5
46
330
1F
100
AcDbEntity
  8
LC-001-100-D00-0
 62
     7
370
    50
100
AcDbLine
 10
195.200965
 20
360.220574
 30
0.0
 11
192.550966
 21
360.220574
 31
0.0
  0
LINE
  5
47
330
1F
100
AcDbEntity
  8
LC-001-100-D00-0
 62
     7
370
    50
100
AcDbLine
 10
117.550965
 20
360.220574
 30
0.0
 11
114.900965
 21
360.220574
 31
0.0
  0
ARC
  5
48
330
1F
100
AcDbEntity
  8
LC-001-100-D00-0
 62
     7
370
    50
100
AcDbCircle
 10
197.672401
 20
340.220573
 30
0.0
 40
49.99999999999992
100
AcDbArc
 50
75.66616
 51
90.0
  0
ARC
  5
49
330
1F
100
AcDbEntity
  8
LC-001-100-D00-0
 62
     7
370
    50
100
AcDbCircle
 10
112.42953
 20
340.220573
 30
0.0
 40
49.99999999999994
100
AcDbArc
 50
90.0
 51
104.33384
  0
LINE
  5
4A
330
1F
100
AcDbEntity
  8
LC-001-100-D00-0
 62
     7
370
    50
100
AcDbLine
 10
113.550964
 20
345.220573
 30
0.0
 11
112.050969
 21
346.720573
 31
0.0
  0
LINE
  5
4B
330
1F
100
AcDbEntity
  8
LC-001-100-D00-0
 62
     7
370
    50
100
AcDbLine
 10
198.050966
 20
346.720573
 30
0.0
 11
196.550966
 21
345.220573
 31
0.0
  0
LINE
  5
4C
330
1F
100
AcDbEntity
  8
LC-001-100-D00-0
 62
     7
370
    50
100
AcDbLine
 10
198.050966
 20
346.720573
 30
0.0
 11
198.050966
 21
387.72057
 31
0.0
  0
LINE
  5
4D
330
1F
100
AcDbEntity
  8
LC-001-100-D00-0
 62
     7
370
    50
100
AcDbLine
 10
112.050969
 20
387.72057
 30
0.0
 11
112.050969
 21
346.720573
 31
0.0
  0
ARC
  5
4E
330
1F
100
AcDbEntity
  8
LC-001-100-D00-0
 62
     7
370
    50
100
AcDbCircle
 10
196.200966
 20
389.220573
 30
0.0
 40
1.0
100
AcDbArc
 50
90.0
 51
180.0
  0
ARC
  5
4F
330
1F
100
AcDbEntity
  8
LC-001-100-D00-0
 62
     7
370
    50
100
AcDbCircle
 10
113.900966
 20
389.220573
 30
0.0
 40
1.0
100
AcDbArc
 50
0.0
 51
90.0
  0
LINE
  5
50
330
1F
100
AcDbEntity
  8
LC-001-100-D00-0
 62
     7
370
    50
100
AcDbLine
 10
113.900963
 20
390.220575
 30
0.0
 11
196.200965
 21
390.220575
 31
0.0
  0
LINE
  5
51
330
1F
100
AcDbEntity
  8
LC-001-100-D00-0
 62
     7
370
    50
100
AcDbLine
 10
117.300968
 20
382.02057
 30
0.0
 11
114.900965
 21
382.02057
 31
0.0
  0
LINE
  5
52
330
1F
100
AcDbEntity
  8
LC-001-100-D00-0
 62
     7
370
    50
100
AcDbLine
 10
117.300968
 20
376.020573
 30
0.0
 11
117.300968
 21
382.02057
 31
0.0
  0
LINE
  5
53
330
1F
100
AcDbEntity
  8
LC-001-100-D00-0
 62
     7
370
    50
100
AcDbLine
 10
117.550965
 20
375.087559
 30
0.0
 11
117.300968
 21
376.020573
 31
0.0
  0
LINE
  5
54
330
1F
100
AcDbEntity
  8
LC-001-100-D00-0
 62
     7
370
    50
100
AcDbLine
 10
117.550965
 20
375.087559
 30
0.0
 11
117.550965
 21
360.220574
 31
0.0
  0
LINE
  5
55
330
1F
100
AcDbEntity
  8
LC-001-100-D00-0
 62
     7
370
    50
100
AcDbLine
 10
100.050967
 20
387.72057
 30
0.0
 11
112.050969
 21
387.72057
 31
0.0
  0
LINE
  5
56
330
1F
100
AcDbEntity
  8
LC-001-100-D00-0
 62
     7
370
    50
100
AcDbLine
 10
100.050967
 20
388.66406
 30
0.0
 11
100.050967
 21
387.72057
 31
0.0
  0
LINE
  5
57
330
1F
100
AcDbEntity
  8
LC-001-100-D00-0
 62
     7
370
    50
100
AcDbLine
 10
113.550964
 20
345.220573
 30
0.0
 11
114.900965
 21
345.220573
 31
0.0
  0
LINE
  5
58
330
1F
100
AcDbEntity
  8
LC-001-100-D00-0
 62
     7
370
    50
100
AcDbLine
 10
113.900963
 20
390.220575
 30
0.0
 11
112.429533
 21
390.220575
 31
0.0
  0
LINE
  5
59
330
1F
100
AcDbEntity
  8
LC-001-100-D00-0
 62
     7
370
    50
100
AcDbLine
 10
210.050966
 20
387.72057
 30
0.0
 11
210.050966
 21
388.66406
 31
0.0
  0
LINE
  5
5A
330
1F
100
AcDbEntity
  8
LC-001-100-D00-0
 62
     7
370
    50
100
AcDbLine
 10
192.550966
 20
360.220574
 30
0.0
 11
192.550966
 21
375.087559
 31
0.0
  0
LINE
  5
5B
330
1F
100
AcDbEntity
  8
LC-001-100-D00-0
 62
     7
370
    50
100
AcDbLine
 10
192.800966
 20
376.020573
 30
0.0
 11
192.550966
 21
375.087559
 31
0.0
  0
LINE
  5
5C
330
1F
100
AcDbEntity
  8
LC-001-100-D00-0
 62
     7
370
    50
100
AcDbLine
 10
192.800966
 20
382.02057
 30
0.0
 11
192.800966
 21
376.020573
 31
0.0
  0
LINE
  5
5D
330
1F
100
AcDbEntity
  8
LC-001-100-D00-0
 62
     7
370
    50
100
AcDbLine
 10
195.200965
 20
382.02057
 30
0.0
 11
192.800966
 21
382.02057
 31
0.0
  0
LINE
  5
5E
330
1F
100
AcDbEntity
  8
LC-001-100-D00-0
 62
     7
370
    50
100
AcDbLine
 10
198.050966
 20
387.72057
 30
0.0
 11
210.050966
 21
387.72057
 31
0.0
  0
LINE
  5
5F
330
1F
100
AcDbEntity
  8
LC-001-100-D00-0
 62
     7
370
    50
100
AcDbLine
 10
195.200965
 20
345.220573
 30
0.0
 11
196.550966
 21
345.220573
 31
0.0
  0
LINE
  5
60
330
1F
100
AcDbEntity
  8
LC-001-100-D00-0
 62
     7
370
    50
100
AcDbLine
 10
197.672402
 20
390.220575
 30
0.0
 11
196.200965
 21
390.220575
 31
0.0
  0
LINE
  5
61
330
1F
100
AcDbEntity
  8
LC-001-100-D00-0
 62
     7
370
    50
100
AcDbLine
 10
110.140707
 20
387.620568
 30
0.0
 11
110.140707
 21
387.72057
 31
0.0
  0
INSERT
  5
6F
330
1F
100
AcDbEntity
  8
LC-001-100-D00-0
 62
     7
370
    50
100
AcDbBlockReference
  2
POLY1
 10
0.0
 20
0.0
 30
0.0
  0
LINE
  5
70
330
1F
100
AcDbEntity
  8
LC-001-100-D00-0
 62
     7
370
    50
100
AcDbLine
 10
99.050965
 20
377.720572
 30
0.0
 11
99.050965
 21
388.720572
 31
0.0
  0
LINE
  5
71
330
1F
100
AcDbEntity
  8
LC-001-100-D00-0
 62
     7
370
    50
100
AcDbLine
 10
211.050966
 20
388.720572
 30
0.0
 11
211.050966
 21
377.720572
 31
0.0
  0
LINE
  5
72
330
1F
100
AcDbEntity
  8
LC-001-100-D00-0
 62
     7
370
    50
100
AcDbLine
 10
211.050966
 20
388.720572
 30
0.0
 11
209.827646
 21
388.720572
 31
0.0
  0
LINE
  5
73
330
1F
100
AcDbEntity
  8
LC-001-100-D00-0
 62
     7
370
    50
100
AcDbLine
 10
100.274283
 20
388.720572
 30
0.0
 11
99.050965
 21
388.720572
 31
0.0
  0
LINE
  5
74
330
1F
100
AcDbEntity
  8
LC-001-100-D00-0
 62
     7
370
    50
100
AcDbLine
 10
99.050965
 20
388.720572
 30
0.0
 11
103.550966
 21
384.22057
 31
0.0
  0
LINE
  5
75
330
1F
100
AcDbEntity
  8
LC-001-100-D00-0
 62
     7
370
    50
100
AcDbLine
 10
206.550966
 20
384.22057
 30
0.0
 11
211.050966
 21
388.720572
 31
0.0
  0
LINE
  5
76
330
1F
100
AcDbEntity
  8
LC-001-100-D00-0
 62
     7
370
    50
100
AcDbLine
 10
101.050969
 20
381.720573
 30
0.0
 11
101.050969
 21
377.720572
 31
0.0
  0
LINE
  5
77
330
1F
100
AcDbEntity
  8
LC-001-100-D00-0
 62
     7
370
    50
100
AcDbLine
 10
209.050966
 20
377.720572
 30
0.0
 11
209.050966
 21
381.720573
 31
0.0
  0
LINE
  5
78
330
1F
100
AcDbEntity
  8
LC-001-100-D00-0
 62
     7
370
    50
100
AcDbLine
 10
209.050966
 20
377.720572
 30
0.0
 11
208.050966
 21
377.720572
 31
0.0
  0
LINE
  5
79
330
1F
100
AcDbEntity
  8
LC-001-100-D00-0
 62
     7
370
    50
100
AcDbLine
 10
102.050963
 20
377.720572
 30
0.0
 11
101.050969
 21
377.720572
 31
0.0
  0
LINE
  5
7A
330
1F
100
AcDbEntity
  8
LC-001-100-D00-0
 62
     7
370
    50
100
AcDbLine
 10
204.937718
 20
385.220573
 30
0.0
 11
205.515068
 21
384.22057
 31
0.0
  0
LINE
  5
7B
330
1F
100
AcDbEntity
  8
LC-001-100-D00-0
 62
     7
370
    50
100
AcDbLine
 10
104.586865
 20
384.22057
 30
0.0
 11
105.164211
 21
385.220573
 31
0.0
  0
LINE
  5
7C
330
1F
100
AcDbEntity
  8
LC-001-100-D00-0
 62
     7
370
    50
100
AcDbLine
 10
105.164211
 20
385.220573
 30
0.0
 11
105.741564
 21
384.22057
 31
0.0
  0
LINE
  5
7D
330
1F
100
AcDbEntity
  8
LC-001-100-D00-0
 62
     7
370
    50
100
AcDbLine
 10
204.360367
 20
384.22057
 30
0.0
 11
204.937718
 21
385.220573
 31
0.0
  0
LINE
  5
7E
330
1F
100
AcDbEntity
  8
LC-001-100-D00-0
 62
     7
370
    50
100
AcDbLine
 10
105.550963
 20
380.22057
 30
0.0
 11
105.550963
 21
381.720573
 31
0.0
  0
LINE
  5
7F
330
1F
100
AcDbEntity
  8
LC-001-100-D00-0
 62
     7
370
    50
100
AcDbLine
 10
204.550966
 20
381.720573
 30
0.0
 11
204.550966
 21
380.22057
 31
0.0
  0
LINE
  5
80
330
1F
100
AcDbEntity
  8
LC-001-100-D00-0
 62
     7
370
    50
100
AcDbLine
 10
203.783016
 20
385.220573
 30
0.0
 11
204.360367
 21
384.22057
 31
0.0
  0
LINE
  5
81
330
1F
100
AcDbEntity
  8
LC-001-100-D00-0
 62
     7
370
    50
100
AcDbLine
 10
105.741564
 20
384.22057
 30
0.0
 11
106.318917
 21
385.220573
 31
0.0
  0
LINE
  5
82
330
1F
100
AcDbEntity
  8
LC-001-100-D00-0
 62
     7
370
    50
100
AcDbLine
 10
106.318917
 20
385.220573
 30
0.0
 11
106.896262
 21
384.22057
 31
0.0
  0
LINE
  5
83
330
1F
100
AcDbEntity
  8
LC-001-100-D00-0
 62
     7
370
    50
100
AcDbLine
 10
203.205667
 20
384.22057
 30
0.0
 11
203.783016
 21
385.220573
 31
0.0
  0
LINE
  5
84
330
1F
100
AcDbEntity
  8
LC-001-100-D00-0
 62
     7
370
    50
100
AcDbLine
 10
202.628316
 20
385.220573
 30
0.0
 11
203.205667
 21
384.22057
 31
0.0
  0
LINE
  5
85
330
1F
100
AcDbEntity
  8
LC-001-100-D00-0
 62
     7
370
    50
100
AcDbLine
 10
106.896262
 20
384.22057
 30
0.0
 11
107.473615
 21
385.220573
 31
0.0
  0
LINE
  5
86
330
1F
100
AcDbEntity
  8
LC-001-100-D00-0
 62
     7
370
    50
100
AcDbLine
 10
107.473615
 20
385.220573
 30
0.0
 11
108.050968
 21
384.22057
 31
0.0
  0
LINE
  5
87
330
1F
100
AcDbEntity
  8
LC-001-100-D00-0
 62
     7
370
    50
100
AcDbLine
 10
202.050965
 20
384.22057
 30
0.0
 11
202.628316
 21
385.220573
 31
0.0
  0
LINE
  5
88
330
1F
100
AcDbEntity
  8
LC-001-100-D00-0
 62
     7
370
    50
100
AcDbLine
 10
108.050968
 20
384.22057
 30
0.0
 11
108.050968
 21
380.22057
 31
0.0
  0
LINE
  5
89
330
1F
100
AcDbEntity
  8
LC-001-100-D00-0
 62
     7
370
    50
100
AcDbLine
 10
202.050965
 20
380.22057
 30
0.0
 11
202.050965
 21
384.22057
 31
0.0
  0
LINE
  5
8A
330
1F
100
AcDbEntity
  8
LC-001-100-D00-0
 62
     7
370
    50
100
AcDbLine
 10
204.550966
 20
380.22057
 30
0.0
 11
202.050965
 21
380.22057
 31
0.0
  0
LINE
  5
8B
330
1F
100
AcDbEntity
  8
LC-001-100-D00-0
 62
     7
370
    50
100
AcDbLine
 10
205.515068
 20
384.22057
 30
0.0
 11
206.550966
 21
384.22057
 31
0.0
  0
LINE
  5
8C
330
1F
100
AcDbEntity
  8
LC-001-100-D00-0
 62
     7
370
    50
100
AcDbLine
 10
209.050966
 20
381.720573
 30
0.0
 11
204.550966
 21
381.720573
 31
0.0
  0
LINE
  5
8D
330
1F
100
AcDbEntity
  8
LC-001-100-D00-0
 62
     7
370
    50
100
AcDbLine
 10
211.050966
 20
377.720572
 30
0.0
 11
209.050966
 21
377.720572
 31
0.0
  0
LINE
  5
8E
330
1F
100
AcDbEntity
  8
LC-001-100-D00-0
 62
     7
370
    50
100
AcDbLine
 10
108.050968
 20
380.22057
 30
0.0
 11
105.550963
 21
380.22057
 31
0.0
  0
LINE
  5
8F
330
1F
100
AcDbEntity
  8
LC-001-100-D00-0
 62
     7
370
    50
100
AcDbLine
 10
103.550966
 20
384.22057
 30
0.0
 11
104.586865
 21
384.22057
 31
0.0
  0
LINE
  5
90
330
1F
100
AcDbEntity
  8
LC-001-100-D00-0
 62
     7
370
    50
100
AcDbLine
 10
105.550963
 20
381.720573
 30
0.0
 11
101.050969
 21
381.720573
 31
0.0
  0
LINE
  5
91
330
1F
100
AcDbEntity
  8
LC-001-100-D00-0
 62
     7
370
    50
100
AcDbLine
 10
101.050969
 20
377.720572
 30
0.0
 11
99.050965
 21
377.720572
 31
0.0
  0
CIRCLE
  5
92
330
1F
100
AcDbEntity
  8
LC-001-100-D00-0
 62
     7
370
    50
100
AcDbCircle
 10
115.800966
 20
386.520573
 30
0.0
 40
1.250000000000014
  0
CIRCLE
  5
93
330
1F
100
AcDbEntity
  8
LC-001-100-D00-0
 62
     7
370
    50
100
AcDbCircle
 10
194.300966
 20
386.520573
 30
0.0
 40
1.249999999999972
  0
LINE
  5
94
330
1F
100
AcDbEntity
  8
LC-001-100-D00-0
 62
     7
370
    50
100
AcDbLine
 10
115.300964
 20
388.020575
 30
0.0
 11
115.300964
 21
390.020572
 31
0.0
  0
LINE
  5
95
330
1F
100
AcDbEntity
  8
LC-001-100-D00-0
 62
     7
370
    50
100
AcDbLine
 10
194.800966
 20
390.020572
 30
0.0
 11
194.800966
 21
388.020575
 31
0.0
  0
LINE
  5
96
330
1F
100
AcDbEntity
  8
LC-001-100-D00-0
 62
     7
370
    50
100
AcDbLine
 10
115.550968
 20
383.520574
 30
0.0
 11
115.550968
 21
385.220573
 31
0.0
  0
LINE
  5
97
330
1F
100
AcDbEntity
  8
LC-001-100-D00-0
 62
     7
370
    50
100
AcDbLine
 10
194.550965
 20
385.220573
 30
0.0
 11
194.550965
 21
383.520574
 31
0.0
  0
LINE
  5
98
330
1F
100
AcDbEntity
  8
LC-001-100-D00-0
 62
     7
370
    50
100
AcDbLine
 10
117.050964
 20
385.220573
 30
0.0
 11
117.050964
 21
388.020575
 31
0.0
  0
LINE
  5
99
330
1F
100
AcDbEntity
  8
LC-001-100-D00-0
 62
     7
370
    50
100
AcDbLine
 10
193.050966
 20
388.020575
 30
0.0
 11
193.050966
 21
385.220573
 31
0.0
  0
ARC
  5
9A
330
1F
100
AcDbEntity
  8
LC-001-100-D00-0
 62
     7
370
    50
100
AcDbCircle
 10
119.550966
 20
388.020573
 30
0.0
 40
2.0
100
AcDbArc
 50
0.0
 51
90.0
  0
ARC
  5
9B
330
1F
100
AcDbEntity
  8
LC-001-100-D00-0
 62
     7
370
    50
100
AcDbCircle
 10
190.550966
 20
388.020573
 30
0.0
 40
2.0
100
AcDbArc
 50
90.0
 51
180.0
  0
LINE
  5
9C
330
1F
100
AcDbEntity
  8
LC-001-100-D00-0
 62
     7
370
    50
100
AcDbLine
 10
190.550966
 20
390.020572
 30
0.0
 11
119.550965
 21
390.020572
 31
0.0
  0
LINE
  5
9D
330
1F
100
AcDbEntity
  8
LC-001-100-D00-0
 62
     7
370
    50
100
AcDbLine
 10
119.550965
 20
380.020574
 30
0.0
 11
119.550965
 21
383.520574
 31
0.0
  0
LINE
  5
9E
330
1F
100
AcDbEntity
  8
LC-001-100-D00-0
 62
     7
370
    50
100
AcDbLine
 10
190.550966
 20
383.520574
 30
0.0
 11
190.550966
 21
380.020574
 31
0.0
  0
LINE
  5
9F
330
1F
100
AcDbEntity
  8
LC-001-100-D00-0
 62
     7
370
    50
100
AcDbLine
 10
121.550966
 20
388.020575
 30
0.0
 11
121.550966
 21
382.02057
 31
0.0
  0
LINE
  5
A0
330
1F
100
AcDbEntity
  8
LC-001-100-D00-0
 62
     7
370
    50
100
AcDbLine
 10
188.550966
 20
382.02057
 30
0.0
 11
188.550966
 21
388.020575
 31
0.0
  0
ARC
  5
A1
330
1F
100
AcDbEntity
  8
LC-001-100-D00-0
 62
     7
370
    50
100
AcDbCircle
 10
122.550966
 20
382.020573
 30
0.0
 40
1.000000000000014
100
AcDbArc
 50
180.0
 51
270.0
  0
ARC
  5
A2
330
1F
100
AcDbEntity
  8
LC-001-100-D00-0
 62
     7
370
    50
100
AcDbCircle
 10
187.550966
 20
382.020573
 30
0.0
 40
1.0
100
AcDbArc
 50
270.0
 51
0.0
  0
ARC
  5
A3
330
1F
100
AcDbEntity
  8
LC-001-100-D00-0
 62
     7
370
    50
100
AcDbCircle
 10
125.050966
 20
369.020573
 30
0.0
 40
10.99999999999996
100
AcDbArc
 50
0.0
 51
90.0
  0
ARC
  5
A4
330
1F
100
AcDbEntity
  8
LC-001-100-D00-0
 62
     7
370
    50
100
AcDbCircle
 10
185.050966
 20
369.020573
 30
0.0
 40
11.0
100
AcDbArc
 50
90.0
 51
180.0
  0
ARC
  5
A5
330
1F
100
AcDbEntity
  8
LC-001-100-D00-0
 62
     7
370
    50
100
AcDbCircle
 10
125.050966
 20
369.020573
 30
0.0
 40
11.99999999999999
100
AcDbArc
 50
0.0
 51
90.0
  0
ARC
  5
A6
330
1F
100
AcDbEntity
  8
LC-001-100-D00-0
 62
     7
370
    50
100
AcDbCircle
 10
185.050966
 20
369.020573
 30
0.0
 40
12.0
100
AcDbArc
 50
90.0
 51
180.0
  0
LINE
  5
A7
330
1F
100
AcDbEntity
  8
LC-001-100-D00-0
 62
     7
370
    50
100
AcDbLine
 10
185.050966
 20
381.020576
 30
0.0
 11
125.050965
 21
381.020576
 31
0.0
  0
LINE
  5
A8
330
1F
100
AcDbEntity
  8
LC-001-100-D00-0
 62
     7
370
    50
100
AcDbLine
 10
136.050965
 20
316.520574
 30
0.0
 11
136.050965
 21
369.020574
 31
0.0
  0
LINE
  5
A9
330
1F
100
AcDbEntity
  8
LC-001-100-D00-0
 62
     7
370
    50
100
AcDbLine
 10
174.050966
 20
369.020574
 30
0.0
 11
174.050966
 21
316.520574
 31
0.0
  0
LINE
  5
AA
330
1F
100
AcDbEntity
  8
LC-001-100-D00-0
 62
     7
370
    50
100
AcDbLine
 10
137.050967
 20
369.020574
 30
0.0
 11
137.050967
 21
316.520574
 31
0.0
  0
LINE
  5
AB
330
1F
100
AcDbEntity
  8
LC-001-100-D00-0
 62
     7
370
    50
100
AcDbLine
 10
173.050966
 20
316.520574
 30
0.0
 11
173.050966
 21
369.020574
 31
0.0
  0
LINE
  5
AC
330
1F
100
AcDbEntity
  8
LC-001-100-D00-0
 62
     7
370
    50
100
AcDbLine
 10
173.050966
 20
316.520574
 30
0.0
 11
137.050967
 21
316.520574
 31
0.0
  0
LINE
  5
AD
330
1F
100
AcDbEntity
  8
LC-001-100-D00-0
 62
     7
370
    50
100
AcDbLine
 10
137.050967
 20
316.520574
 30
0.0
 11
136.050965
 21
316.520574
 31
0.0
  0
LINE
  5
AE
330
1F
100
AcDbEntity
  8
LC-001-100-D00-0
 62
     7
370
    50
100
AcDbLine
 10
122.550964
 20
381.020576
 30
0.0
 11
125.050965
 21
381.020576
 31
0.0
  0
LINE
  5
AF
330
1F
100
AcDbEntity
  8
LC-001-100-D00-0
 62
     7
370
    50
100
AcDbLine
 10
125.050965
 20
380.020574
 30
0.0
 11
119.550965
 21
380.020574
 31
0.0
  0
LINE
  5
B0
330
1F
100
AcDbEntity
  8
LC-001-100-D00-0
 62
     7
370
    50
100
AcDbLine
 10
115.550968
 20
385.220573
 30
0.0
 11
117.050964
 21
385.220573
 31
0.0
  0
LINE
  5
B1
330
1F
100
AcDbEntity
  8
LC-001-100-D00-0
 62
     7
370
    50
100
AcDbLine
 10
119.550965
 20
383.520574
 30
0.0
 11
115.550968
 21
383.520574
 31
0.0
  0
LINE
  5
B2
330
1F
100
AcDbEntity
  8
LC-001-100-D00-0
 62
     7
370
    50
100
AcDbLine
 10
117.050964
 20
388.020575
 30
0.0
 11
115.300964
 21
388.020575
 31
0.0
  0
LINE
  5
B3
330
1F
100
AcDbEntity
  8
LC-001-100-D00-0
 62
     7
370
    50
100
AcDbLine
 10
115.300964
 20
390.020572
 30
0.0
 11
119.550965
 21
390.020572
 31
0.0
  0
LINE
  5
B4
330
1F
100
AcDbEntity
  8
LC-001-100-D00-0
 62
     7
370
    50
100
AcDbLine
 10
174.050966
 20
316.520574
 30
0.0
 11
173.050966
 21
316.520574
 31
0.0
  0
LINE
  5
B5
330
1F
100
AcDbEntity
  8
LC-001-100-D00-0
 62
     7
370
    50
100
AcDbLine
 10
185.050966
 20
381.020576
 30
0.0
 11
187.550966
 21
381.020576
 31
0.0
  0
LINE
  5
B6
330
1F
100
AcDbEntity
  8
LC-001-100-D00-0
 62
     7
370
    50
100
AcDbLine
 10
190.550966
 20
380.020574
 30
0.0
 11
185.050966
 21
380.020574
 31
0.0
  0
LINE
  5
B7
330
1F
100
AcDbEntity
  8
LC-001-100-D00-0
 62
     7
370
    50
100
AcDbLine
 10
193.050966
 20
385.220573
 30
0.0
 11
194.550965
 21
385.220573
 31
0.0
  0
LINE
  5
B8
330
1F
100
AcDbEntity
  8
LC-001-100-D00-0
 62
     7
370
    50
100
AcDbLine
 10
194.550965
 20
383.520574
 30
0.0
 11
190.550966
 21
383.520574
 31
0.0
  0
LINE
  5
B9
330
1F
100
AcDbEntity
  8
LC-001-100-D00-0
 62
     7
370
    50
100
AcDbLine
 10
194.800966
 20
388.020575
 30
0.0
 11
193.050966
 21
388.020575
 31
0.0
  0
LINE
  5
BA
330
1F
100
AcDbEntity
  8
LC-001-100-D00-0
 62
     7
370
    50
100
AcDbLine
 10
190.550966
 20
390.020572
 30
0.0
 11
194.800966
 21
390.020572
 31
0.0
  0
LINE
  5
BB
330
1F
100
AcDbEntity
  8
LC-001-100-D00-0
 62
     7
370
    50
100
AcDbLine
 10
185.550966
 20
365.020573
 30
0.0
 11
192.404577
 21
379.374251
 31
0.0
  0
LINE
  5
BC
330
1F
100
AcDbEntity
  8
LC-001-100-D00-0
 62
     7
370
    50
100
AcDbLine
 10
134.550966
 20
304.520574
 30
0.0
 11
175.550966
 21
304.520574
 31
0.0
  0
ARC
  5
BD
330
1F
100
AcDbEntity
  8
LC-001-100-D00-0
 62
     7
370
    50
100
AcDbCircle
 10
134.550966
 20
314.520573
 30
0.0
 40
10.00000000000006
100
AcDbArc
 50
180.0
 51
270.0
  0
LINE
  5
BE
330
1F
100
AcDbEntity
  8
LC-001-100-D00-0
 62
     7
370
    50
100
AcDbLine
 10
124.550964
 20
365.020573
 30
0.0
 11
124.550964
 21
314.520573
 31
0.0
  0
LINE
  5
BF
330
1F
100
AcDbEntity
  8
LC-001-100-D00-0
 62
     7
370
    50
100
AcDbLine
 10
117.697354
 20
379.374251
 30
0.0
 11
124.550964
 21
365.020573
 31
0.0
  0
ARC
  5
C0
330
1F
100
AcDbEntity
  8
LC-001-100-D00-0
 62
     7
370
    50
100
AcDbCircle
 10
119.050966
 20
380.020573
 30
0.0
 40
1.5
100
AcDbArc
 50
180.0
 51
205.523603
  0
LINE
  5
C1
330
1F
100
AcDbEntity
  8
LC-001-100-D00-0
 62
     7
370
    50
100
AcDbLine
 10
117.550965
 20
382.02057
 30
0.0
 11
117.550965
 21
380.020574
 31
0.0
  0
LINE
  5
C2
330
1F
100
AcDbEntity
  8
LC-001-100-D00-0
 62
     7
370
    50
100
AcDbLine
 10
115.200962
 20
382.02057
 30
0.0
 11
117.550965
 21
382.02057
 31
0.0
  0
LINE
  5
C3
330
1F
100
AcDbEntity
  8
LC-001-100-D00-0
 62
     7
370
    50
100
AcDbLine
 10
115.200962
 20
383.520574
 30
0.0
 11
115.200962
 21
382.02057
 31
0.0
  0
LINE
  5
C4
330
1F
100
AcDbEntity
  8
LC-001-100-D00-0
 62
     7
370
    50
100
AcDbLine
 10
119.050964
 20
383.520574
 30
0.0
 11
115.200962
 21
383.520574
 31
0.0
  0
LINE
  5
C5
330
1F
100
AcDbEntity
  8
LC-001-100-D00-0
 62
     7
370
    50
100
AcDbLine
 10
119.050964
 20
380.020574
 30
0.0
 11
119.050964
 21
383.520574
 31
0.0
  0
LINE
  5
C6
330
1F
100
AcDbEntity
  8
LC-001-100-D00-0
 62
     7
370
    50
100
AcDbLine
 10
125.608593
 20
366.286785
 30
0.0
 11
119.050964
 21
380.020574
 31
0.0
  0
LINE
  5
C7
330
1F
100
AcDbEntity
  8
LC-001-100-D00-0
 62
     7
370
    50
100
AcDbLine
 10
125.608593
 20
366.286785
 30
0.0
 11
126.050967
 21
365.520574
 31
0.0
  0
LINE
  5
C8
330
1F
100
AcDbEntity
  8
LC-001-100-D00-0
 62
     7
370
    50
100
AcDbLine
 10
126.050967
 20
314.520573
 30
0.0
 11
126.050967
 21
365.520574
 31
0.0
  0
ARC
  5
C9
330
1F
100
AcDbEntity
  8
LC-001-100-D00-0
 62
     7
370
    50
100
AcDbCircle
 10
134.550966
 20
314.520573
 30
0.0
 40
8.5
100
AcDbArc
 50
180.0
 51
270.0
  0
LINE
  5
CA
330
1F
100
AcDbEntity
  8
LC-001-100-D00-0
 62
     7
370
    50
100
AcDbLine
 10
175.550966
 20
306.020573
 30
0.0
 11
134.550966
 21
306.020573
 31
0.0
  0
ARC
  5
CB
330
1F
100
AcDbEntity
  8
LC-001-100-D00-0
 62
     7
370
    50
100
AcDbCircle
 10
175.550966
 20
314.520573
 30
0.0
 40
8.5
100
AcDbArc
 50
270.0
 51
0.0
  0
LINE
  5
CC
330
1F
100
AcDbEntity
  8
LC-001-100-D00-0
 62
     7
370
    50
100
AcDbLine
 10
184.050966
 20
365.520574
 30
0.0
 11
184.050966
 21
314.520573
 31
0.0
  0
LINE
  5
CD
330
1F
100
AcDbEntity
  8
LC-001-100-D00-0
 62
     7
370
    50
100
AcDbLine
 10
184.050966
 20
365.520574
 30
0.0
 11
184.49334
 21
366.286785
 31
0.0
  0
LINE
  5
CE
330
1F
100
AcDbEntity
  8
LC-001-100-D00-0
 62
     7
370
    50
100
AcDbLine
 10
191.050966
 20
380.020574
 30
0.0
 11
184.49334
 21
366.286785
 31
0.0
  0
LINE
  5
CF
330
1F
100
AcDbEntity
  8
LC-001-100-D00-0
 62
     7
370
    50
100
AcDbLine
 10
191.050966
 20
383.520574
 30
0.0
 11
191.050966
 21
380.020574
 31
0.0
  0
LINE
  5
D0
330
1F
100
AcDbEntity
  8
LC-001-100-D00-0
 62
     7
370
    50
100
AcDbLine
 10
194.900966
 20
383.520574
 30
0.0
 11
191.050966
 21
383.520574
 31
0.0
  0
LINE
  5
D1
330
1F
100
AcDbEntity
  8
LC-001-100-D00-0
 62
     7
370
    50
100
AcDbLine
 10
194.900966
 20
382.02057
 30
0.0
 11
194.900966
 21
383.520574
 31
0.0
  0
LINE
  5
D2
330
1F
100
AcDbEntity
  8
LC-001-100-D00-0
 62
     7
370
    50
100
AcDbLine
 10
192.550966
 20
382.02057
 30
0.0
 11
194.900966
 21
382.02057
 31
0.0
  0
LINE
  5
D3
330
1F
100
AcDbEntity
  8
LC-001-100-D00-0
 62
     7
370
    50
100
AcDbLine
 10
192.550966
 20
380.020574
 30
0.0
 11
192.550966
 21
382.02057
 31
0.0
  0
ARC
  5
D4
330
1F
100
AcDbEntity
  8
LC-001-100-D00-0
 62
     7
370
    50
100
AcDbCircle
 10
191.050966
 20
380.020573
 30
0.0
 40
1.500000000000005
100
AcDbArc
 50
334.476397
 51
0.0
  0
LINE
  5
D5
330
1F
100
AcDbEntity
  8
LC-001-100-D00-0
 62
     7
370
    50
100
AcDbLine
 10
185.550966
 20
314.520573
 30
0.0
 11
185.550966
 21
365.020573
 31
0.0
  0
ARC
  5
D6
330
1F
100
AcDbEntity
  8
LC-001-100-D00-0
 62
     7
370
    50
100
AcDbCircle
 10
175.550966
 20
314.520573
 30
0.0
 40
10.00000000000006
100
AcDbArc
 50
270.0
 51
0.0
  0
LINE
  5
D7
330
1F
100
AcDbEntity
  8
LC-001-100-D00-0
 62
     7
370
    50
100
AcDbLine
 10
184.050966
 20
365.520574
 30
0.0
 11
174.050966
 21
365.520574
 31
0.0
  0
LINE
  5
D8
330
1F
100
AcDbEntity
  8
LC-001-100-D00-0
 62
     7
370
    50
100
AcDbLine
 10
136.050965
 20
365.520574
 30
0.0
 11
126.050967
 21
365.520574
 31
0.0
  0
LINE
  5
D9
330
1F
100
AcDbEntity
  8
LC-001-100-D00-0
 62
     7
370
    50
100
AcDbLine
 10
190.925748
 20
380.020574
 30
0.0
 11
191.050966
 21
380.020574
 31
0.0
  0
LINE
  5
DA
330
1F
100
AcDbEntity
  8
LC-001-100-D00-0
 62
     7
370
    50
100
AcDbLine
 10
190.925748
 20
380.020574
 30
0.0
 11
190.550966
 21
380.020574
 31
0.0
  0
LINE
  5
DB
330
1F
100
AcDbEntity
  8
LC-001-100-D00-0
 62
     7
370
    50
100
AcDbLine
 10
119.550965
 20
380.020574
 30
0.0
 11
119.176182
 21
380.020574
 31
0.0
  0
LINE
  5
DC
330
1F
100
AcDbEntity
  8
LC-001-100-D00-0
 62
     7
370
    50
100
AcDbLine
 10
119.050964
 20
380.020574
 30
0.0
 11
119.176182
 21
380.020574
 31
0.0
  0
LINE
  5
DD
330
1F
100
AcDbEntity
  8
LC-001-100-D00-0
 62
     7
370
    50
100
AcDbLine
 10
184.3401
 20
366.286785
 30
0.0
 11
184.49334
 21
366.286785
 31
0.0
  0
INSERT
  5
E9
330
1F
100
AcDbEntity
  8
LC-001-100-D00-0
 62
     7
370
    50
100
AcDbBlockReference
  2
POLY2
 10
0.0
 20
0.0
 30
0.0
  0
INSERT
  5
F5
330
1F
100
AcDbEntity
  8
LC-001-100-D00-0
 62
     7
370
    50
100
AcDbBlockReference
  2
POLY3
 10
0.0
 20
0.0
 30
0.0
  0
LINE
  5
F6
330
1F
100
AcDbEntity
  8
LC-001-100-D00-0
 62
     7
370
    50
100
AcDbLine
 10
125.608593
 20
366.286785
 30
0.0
 11
125.761833
 21
366.286785
 31
0.0
  0
LINE
  5
F7
330
1F
100
AcDbEntity
  8
LC-001-100-D00-0
 62
     7
370
    50
100
AcDbLine
 10
125.045865
 20
367.520571
 30
0.0
 11
136.050965
 21
367.520571
 31
0.0
  0
LINE
  5
F8
330
1F
100
AcDbEntity
  8
LC-001-100-D00-0
 62
     7
370
    50
100
AcDbLine
 10
174.050966
 20
367.520571
 30
0.0
 11
185.056065
 21
367.520571
 31
0.0
  0
ARC
  5
F9
330
1F
100
AcDbEntity
  8
LC-001-100-D00-0
 62
     7
370
    50
100
AcDbCircle
 10
208.050966
 20
378.220573
 30
0.0
 40
0.5000000000000568
100
AcDbArc
 50
270.0
 51
0.0
  0
ARC
  5
FA
330
1F
100
AcDbEntity
  8
LC-001-100-D00-0
 62
     7
370
    50
100
AcDbCircle
 10
102.050966
 20
378.220573
 30
0.0
 40
0.5
100
AcDbArc
 50
180.0
 51
270.0
  0
LINE
  5
FB
330
1F
100
AcDbEntity
  8
LC-001-100-D00-0
 62
     7
370
    50
100
AcDbLine
 10
101.550962
 20
378.220573
 30
0.0
 11
101.550962
 21
381.720573
 31
0.0
  0
LINE
  5
FC
330
1F
100
AcDbEntity
  8
LC-001-100-D00-0
 62
     7
370
    50
100
AcDbLine
 10
208.550965
 20
381.720573
 30
0.0
 11
208.550965
 21
378.220573
 31
0.0
  0
LINE
  5
FD
330
1F
100
AcDbEntity
  8
LC-001-100-D00-0
 62
     7
370
    50
100
AcDbLine
 10
105.050969
 20
381.720573
 30
0.0
 11
105.050969
 21
380.22057
 31
0.0
  0
LINE
  5
FE
330
1F
100
AcDbEntity
  8
LC-001-100-D00-0
 62
     7
370
    50
100
AcDbLine
 10
205.050965
 20
380.22057
 30
0.0
 11
205.050965
 21
381.720573
 31
0.0
  0
ARC
  5
FF
330
1F
100
AcDbEntity
  8
LC-001-100-D00-0
 62
     7
370
    50
100
AcDbCircle
 10
190.050966
 20
305.862709
 30
0.0
 40
10.0
100
AcDbArc
 50
315.0
 51
0.0
  0
ARC
  5
100
330
1F
100
AcDbEntity
  8
LC-001-100-D00-0
 62
     7
370
    50
100
AcDbCircle
 10
120.050966
 20
305.862709
 30
0.0
 40
10.00000000000001
100
AcDbArc
 50
180.0
 51
225.0
  0
LINE
  5
101
330
1F
100
AcDbEntity
  8
LC-001-100-D00-0
 62
     7
370
    50
100
AcDbLine
 10
110.050965
 20
305.862709
 30
0.0
 11
110.050965
 21
375.720576
 31
0.0
  0
LINE
  5
102
330
1F
100
AcDbEntity
  8
LC-001-100-D00-0
 62
     7
370
    50
100
AcDbLine
 10
200.050966
 20
375.720576
 30
0.0
 11
200.050966
 21
305.862709
 31
0.0
  0
LINE
  5
103
330
1F
100
AcDbEntity
  8
LC-001-100-D00-0
 62
     7
370
    50
100
AcDbLine
 10
111.150968
 20
380.22057
 30
0.0
 11
113.150965
 21
378.220573
 31
0.0
  0
LINE
  5
104
330
1F
100
AcDbEntity
  8
LC-001-100-D00-0
 62
     7
370
    50
100
AcDbLine
 10
196.950966
 20
378.220573
 30
0.0
 11
198.950966
 21
380.22057
 31
0.0
  0
LINE
  5
105
330
1F
100
AcDbEntity
  8
LC-001-100-D00-0
 62
     7
370
    50
100
AcDbLine
 10
111.150968
 20
380.22057
 30
0.0
 11
112.050969
 21
380.22057
 31
0.0
  0
LINE
  5
106
330
1F
100
AcDbEntity
  8
LC-001-100-D00-0
 62
     7
370
    50
100
AcDbLine
 10
198.050966
 20
380.22057
 30
0.0
 11
198.950966
 21
380.22057
 31
0.0
  0
LINE
  5
107
330
1F
100
AcDbEntity
  8
LC-001-100-D00-0
 62
     7
370
    50
100
AcDbLine
 10
130.050964
 20
281.720573
 30
0.0
 11
112.9799
 21
298.791641
 31
0.0
  0
LINE
  5
108
330
1F
100
AcDbEntity
  8
LC-001-100-D00-0
 62
     7
370
    50
100
AcDbLine
 10
197.122033
 20
298.791641
 30
0.0
 11
180.050966
 21
281.720573
 31
0.0
  0
ARC
  5
109
330
1F
100
AcDbEntity
  8
LC-001-100-D00-0
 62
     7
370
    50
100
AcDbCircle
 10
120.150966
 20
305.762709
 30
0.0
 40
7.000000000000043
100
AcDbArc
 50
180.0
 51
225.0
  0
ARC
  5
10A
330
1F
100
AcDbEntity
  8
LC-001-100-D00-0
 62
     7
370
    50
100
AcDbCircle
 10
189.950966
 20
305.762709
 30
0.0
 40
7.000000000000056
100
AcDbArc
 50
315.0
 51
0.0
  0
LINE
  5
10B
330
1F
100
AcDbEntity
  8
LC-001-100-D00-0
 62
     7
370
    50
100
AcDbLine
 10
113.150965
 20
378.220573
 30
0.0
 11
113.150965
 21
305.762709
 31
0.0
  0
LINE
  5
10C
330
1F
100
AcDbEntity
  8
LC-001-100-D00-0
 62
     7
370
    50
100
AcDbLine
 10
196.950966
 20
305.762709
 30
0.0
 11
196.950966
 21
378.220573
 31
0.0
  0
LINE
  5
10D
330
1F
100
AcDbEntity
  8
LC-001-100-D00-0
 62
     7
370
    50
100
AcDbLine
 10
115.201216
 20
300.812962
 30
0.0
 11
132.172286
 21
283.841893
 31
0.0
  0
LINE
  5
10E
330
1F
100
AcDbEntity
  8
LC-001-100-D00-0
 62
     7
370
    50
100
AcDbLine
 10
177.929645
 20
283.841893
 30
0.0
 11
194.900713
 21
300.812962
 31
0.0
  0
LINE
  5
10F
330
1F
100
AcDbEntity
  8
LC-001-100-D00-0
 62
     7
370
    50
100
AcDbLine
 10
130.050964
 20
230.720572
 30
0.0
 11
130.050964
 21
281.720573
 31
0.0
  0
LINE
  5
110
330
1F
100
AcDbEntity
  8
LC-001-100-D00-0
 62
     7
370
    50
100
AcDbLine
 10
180.050966
 20
281.720573
 30
0.0
 11
180.050966
 21
230.720572
 31
0.0
  0
LINE
  5
111
330
1F
100
AcDbEntity
  8
LC-001-100-D00-0
 62
     7
370
    50
100
AcDbLine
 10
130.854815
 20
227.720574
 30
0.0
 11
130.050964
 21
230.720572
 31
0.0
  0
LINE
  5
112
330
1F
100
AcDbEntity
  8
LC-001-100-D00-0
 62
     7
370
    50
100
AcDbLine
 10
180.050966
 20
230.720572
 30
0.0
 11
179.247118
 21
227.720574
 31
0.0
  0
ARC
  5
113
330
1F
100
AcDbEntity
  8
LC-001-100-D00-0
 62
     7
370
    50
100
AcDbCircle
 10
180.050966
 20
281.720573
 30
0.0
 40
3.000000000000024
100
AcDbArc
 50
135.0
 51
180.0
  0
ARC
  5
114
330
1F
100
AcDbEntity
  8
LC-001-100-D00-0
 62
     7
370
    50
100
AcDbCircle
 10
130.050966
 20
281.720573
 30
0.0
 40
3.0
100
AcDbArc
 50
0.0
 51
45.0
  0
LINE
  5
115
330
1F
100
AcDbEntity
  8
LC-001-100-D00-0
 62
     7
370
    50
100
AcDbLine
 10
133.050966
 20
281.720573
 30
0.0
 11
133.050966
 21
227.720574
 31
0.0
  0
LINE
  5
116
330
1F
100
AcDbEntity
  8
LC-001-100-D00-0
 62
     7
370
    25
100
AcDbLine
 10
177.050966
 20
227.720574
 30
0.0
 11
177.050966
 21
281.720573
 31
0.0
  0
LINE
  5
117
330
1F
100
AcDbEntity
  8
LC-001-100-D00-0
 62
     7
370
    50
100
AcDbLine
 10
177.050966
 20
227.720574
 30
0.0
 11
133.050966
 21
227.720574
 31
0.0
  0
LINE
  5
118
330
1F
100
AcDbEntity
  8
LC-001-100-D00-0
 62
     7
370
    50
100
AcDbLine
 10
108.050968
 20
377.720572
 30
0.0
 11
110.050965
 21
375.720576
 31
0.0
  0
LINE
  5
119
330
1F
100
AcDbEntity
  8
LC-001-100-D00-0
 62
     7
370
    50
100
AcDbLine
 10
133.050966
 20
227.720574
 30
0.0
 11
130.854815
 21
227.720574
 31
0.0
  0
LINE
  5
11A
330
1F
100
AcDbEntity
  8
LC-001-100-D00-0
 62
     7
370
    50
100
AcDbLine
 10
105.050969
 20
380.22057
 30
0.0
 11
111.150968
 21
380.22057
 31
0.0
  0
LINE
  5
11B
330
1F
100
AcDbEntity
  8
LC-001-100-D00-0
 62
     7
370
    50
100
AcDbLine
 10
108.050968
 20
377.720572
 30
0.0
 11
102.050963
 21
377.720572
 31
0.0
  0
LINE
  5
11C
330
1F
100
AcDbEntity
  8
LC-001-100-D00-0
 62
     7
370
    50
100
AcDbLine
 10
101.550962
 20
381.720573
 30
0.0
 11
105.050969
 21
381.720573
 31
0.0
  0
LINE
  5
11D
330
1F
100
AcDbEntity
  8
LC-001-100-D00-0
 62
     7
370
    50
100
AcDbLine
 10
200.050966
 20
375.720576
 30
0.0
 11
202.050965
 21
377.720572
 31
0.0
  0
LINE
  5
11E
330
1F
100
AcDbEntity
  8
LC-001-100-D00-0
 62
     7
370
    50
100
AcDbLine
 10
179.247118
 20
227.720574
 30
0.0
 11
177.050966
 21
227.720574
 31
0.0
  0
LINE
  5
11F
330
1F
100
AcDbEntity
  8
LC-001-100-D00-0
 62
     7
370
    50
100
AcDbLine
 10
198.950966
 20
380.22057
 30
0.0
 11
205.050965
 21
380.22057
 31
0.0
  0
LINE
  5
120
330
1F
100
AcDbEntity
  8
LC-001-100-D00-0
 62
     7
370
    50
100
AcDbLine
 10
208.050966
 20
377.720572
 30
0.0
 11
202.050965
 21
377.720572
 31
0.0
  0
LINE
  5
121
330
1F
100
AcDbEntity
  8
LC-001-100-D00-0
 62
     7
370
    50
100
AcDbLine
 10
205.050965
 20
381.720573
 30
0.0
 11
208.550965
 21
381.720573
 31
0.0
  0
LINE
  5
122
330
1F
100
AcDbEntity
  8
LC-001-100-D00-0
 62
     7
370
    50
100
AcDbLine
 10
103.309471
 20
377.720572
 30
0.0
 11
110.050965
 21
366.086602
 31
0.0
  0
LINE
  5
123
330
1F
100
AcDbEntity
  8
LC-001-100-D00-0
 62
     7
370
    50
100
AcDbLine
 10
206.602808
 20
377.720572
 30
0.0
 11
200.050966
 21
366.367079
 31
0.0
  0
INSERT
  5
147
330
1F
100
AcDbEntity
  8
LC-001-100-D00-0
 62
     7
370
    25
100
AcDbBlockReference
  2
KLON1
 10
0.0
 20
0.0
 30
0.0
  0
INSERT
  5
174
330
1F
100
AcDbEntity
  8
LC-001-100-D00-0
 62
     7
370
    25
100
AcDbBlockReference
  2
KLON2
 10
0.0
 20
0.0
 30
0.0
  0
INSERT
  5
1A7
330
1F
100
AcDbEntity
  8
LC-001-100-D00-0
 62
     7
370
    25
100
AcDbBlockReference
  2
KLON3
 10
0.0
 20
0.0
 30
0.0
  0
INSERT
  5
1B3
330
1F
100
AcDbEntity
  8
LC-001-100-D00-0
 62
     7
370
    25
100
AcDbBlockReference
  2
KLON4
 10
0.0
 20
0.0
 30
0.0
  0
INSERT
  5
1C6
330
1F
100
AcDbEntity
  8
LC-001-100-D00-0
 62
     7
370
    25
100
AcDbBlockReference
  2
KLON5
 10
0.0
 20
0.0
 30
0.0
  0
LINE
  5
1C7
330
1F
100
AcDbEntity
  8
LC-001-100-D00-0
 62
     7
370
    50
100
AcDbLine
 10
115.864506
 20
385.272189
 30
0.0
 11
117.04935
 21
386.457033
 31
0.0
  0
INSERT
  5
1CD
330
1F
100
AcDbEntity
  8
LC-001-100-D00-0
 62
     7
370
    25
100
AcDbBlockReference
  2
KLON6
 10
0.0
 20
0.0
 30
0.0
  0
INSERT
  5
1D3
330
1F
100
AcDbEntity
  8
LC-001-100-D00-0
 62
     7
370
    25
100
AcDbBlockReference
  2
KLON7
 10
0.0
 20
0.0
 30
0.0
  0
INSERT
  5
1E5
330
1F
100
AcDbEntity
  8
LC-001-100-D00-0
 62
     7
370
    25
100
AcDbBlockReference
  2
KLON8
 10
0.0
 20
0.0
 30
0.0
  0
INSERT
  5
1F6
330
1F
100
AcDbEntity
  8
LC-001-100-D00-0
 62
     7
370
    25
100
AcDbBlockReference
  2
KLON9
 10
0.0
 20
0.0
 30
0.0
  0
INSERT
  5
1FC
330
1F
100
AcDbEntity
  8
LC-001-100-D00-0
 62
     7
370
    25
100
AcDbBlockReference
  2
KLON10
 10
0.0
 20
0.0
 30
0.0
  0
INSERT
  5
204
330
1F
100
AcDbEntity
  8
LC-001-100-D00-0
 62
     7
370
    25
100
AcDbBlockReference
  2
KLON11
 10
0.0
 20
0.0
 30
0.0
  0
DIMENSION
  5
208
330
1F
100
AcDbEntity
  8
LC-002-102-D00-0
 62
     7
370
    25
100
AcDbDimension
  2
*D15
 10
180.050966
 20
204.318262
 30
0.0
 11
233.440324
 21
235.118262
 31
0.0
 70
   160
  1
DN50
 71
     5
 42
50.0
  3
LC-DIM-L-0140-02-02
100
AcDbAlignedDimension
 13
130.050966
 23
230.720573
 33
0.0
 14
180.050966
 24
230.720573
 34
0.0
100
AcDbRotatedDimension
  0
DIMENSION
  5
217
330
1F
100
AcDbEntity
  8
LC-002-102-D00-0
 62
     7
370
    25
100
AcDbDimension
  2
*D16
 10
59.865039
 20
227.720573
 30
0.0
 11
29.065039
 21
241.146262
 31
0.0
 70
   160
 71
     5
 42
54.0
 53
90.0
  3
LC-DIM-L-0140-02-02
100
AcDbAlignedDimension
 13
130.050966
 23
281.720573
 33
0.0
 14
130.854813
 24
227.720573
 34
0.0
 50
90.0
100
AcDbRotatedDimension
  0
DIMENSION
  5
226
330
1F
100
AcDbEntity
  8
LC-002-102-D00-0
 62
     7
370
    25
100
AcDbDimension
  2
*D17
 10
200.050966
 20
143.730262
 30
0.0
 11
148.25
 21
174.530262
 31
0.0
 70
   160
  1
%%c<>
 71
     5
 42
90.0
  3
LC-DIM-L-0140-02-02
100
AcDbAlignedDimension
 13
110.050966
 23
305.862709
 33
0.0
 14
200.050966
 24
305.862709
 34
0.0
100
AcDbRotatedDimension
  0
DIMENSION
  5
233
330
1F
100
AcDbEntity
  8
LC-002-102-D00-0
 62
     7
370
    25
100
AcDbDimension
  2
*D18
 10
81.16262
 20
316.520573
 30
0.0
 11
50.36262
 21
321.336262
 31
0.0
 70
   160
  1
50
 71
     5
 42
51.0
 53
90.0
  3
LC-DIM-L-0140-02-02
100
AcDbAlignedDimension
 13
124.698865
 23
367.520573
 33
0.0
 14
136.050966
 24
316.520573
 34
0.0
 50
90.0
100
AcDbRotatedDimension
  0
DIMENSION
  5
242
330
1F
100
AcDbEntity
  8
LC-002-102-D00-0
 62
     7
370
    25
100
AcDbDimension
  2
*D19
 10
34.307941
 20
384.220573
 30
0.0
 11
3.507941
 21
398.556262
 31
0.0
 70
   160
  1
6-25
 71
     5
 42
6.0
 53
90.0
  3
LC-DIM-L-0140-02-02
100
AcDbAlignedDimension
 13
112.42953
 23
390.220573
 33
0.0
 14
103.550966
 24
384.220573
 34
0.0
 50
90.0
100
AcDbRotatedDimension
  0
LINE
  5
251
330
1F
100
AcDbEntity
  8
LC-002-102-D00-0
  6
DASHDOT
 62
     7
370
    25
100
AcDbLine
 10
155.050966
 20
226.220573
 30
0.0
 11
155.050966
 21
393.195745
 31
0.0
  0
DIMENSION
  5
253
330
1F
100
AcDbEntity
  8
LC-003-003-----0
 62
     7
370
    25
100
AcDbDimension
  2
*D20
 10
5.556207
 20
384.22057
 30
0.0
 11
-25.243793
 21
289.260262
 31
0.0
 70
   160
  1
157,5
 71
     5
 42
156.499997
 53
90.0
  3
LC-DIM-L-0140-02-02
100
AcDbAlignedDimension
 13
133.050966
 23
227.720574
 33
0.0
 14
103.550966
 24
384.22057
 34
0.0
 50
90.0
100
AcDbRotatedDimension
  0
ENDSEC
  0
SECTION
  2
OBJECTS
  0
DICTIONARY
  5
C
330
0
100
AcDbDictionary
281
     1
  3
ACAD_GROUP
350
D
  3
ACAD_LAYOUT
350
1A
  3
ACAD_MLINESTYLE
350
17
  3
ACAD_PLOTSETTINGS
350
19
  3
ACAD_PLOTSTYLENAME
350
E
  0
DICTIONARY
  5
D
102
{ACAD_REACTORS
330
C
102
}
330
C
100
AcDbDictionary
281
     1
  0
DICTIONARY
  5
1A
102
{ACAD_REACTORS
330
C
102
}
330
C
100
AcDbDictionary
281
     1
  3
Layout1
350
1E
  3
Layout2
350
26
  3
Model
350
22
  0
DICTIONARY
  5
17
102
{ACAD_REACTORS
330
C
102
}
330
C
100
AcDbDictionary
281
     1
  3
Standard
350
18
  0
DICTIONARY
  5
19
102
{ACAD_REACTORS
330
C
102
}
330
C
100
AcDbDictionary
281
     1
  0
ACDBDICTIONARYWDFLT
  5
E
102
{ACAD_REACTORS
330
C
102
}
330
C
100
AcDbDictionary
281
     1
  3
Normal
350
F
100
AcDbDictionaryWithDefault
340
F
  0
LAYOUT
  5
1E
102
{ACAD_REACTORS
330
1A
102
}
330
1A
100
AcDbPlotSettings
  1

  2

  4

  6

 40
0.0
 41
0.0
 42
0.0
 43
0.0
 44
0.0
 45
0.0
 46
0.0
 47
0.0
 48
0.0
 49
0.0
140
0.0
141
0.0
142
1.0
143
1.0
 70
   688
 72
     0
 73
     0
 74
     5
  7

 75
    16
147
1.0
148
0.0
149
0.0
100
AcDbLayout
  1
Layout1
 70
     1
 71
     1
 10
-271.75
 20
-87.335738
 11
568.25
 21
506.664262
 12
0.0
 22
0.0
 32
0.0
 14
-271.75
 24
-87.335738
 34
0.0
 15
568.25
 25
506.664262
 35
0.0
146
0.0
 13
0.0
 23
0.0
 33
0.0
 16
1.0
 26
0.0
 36
0.0
 17
0.0
 27
1.0
 37
0.0
 76
     0
330
1B
  0
LAYOUT
  5
26
102
{ACAD_REACTORS
330
1A
102
}
330
1A
100
AcDbPlotSettings
  1

  2

  4

  6

 40
0.0
 41
0.0
 42
0.0
 43
0.0
 44
0.0
 45
0.0
 46
0.0
 47
0.0
 48
0.0
 49
0.0
140
0.0
141
0.0
142
1.0
143
1.0
 70
   688
 72
     0
 73
     0
 74
     5
  7

 75
    16
147
1.0
148
0.0
149
0.0
100
AcDbLayout
  1
Layout2
 70
     1
 71
     2
 10
0.0
 20
0.0
 11
0.0
 21
0.0
 12
0.0
 22
0.0
 32
0.0
 14
0.0
 24
0.0
 34
0.0
 15
0.0
 25
0.0
 35
0.0
146
0.0
 13
0.0
 23
0.0
 33
0.0
 16
1.0
 26
0.0
 36
0.0
 17
0.0
 27
1.0
 37
0.0
 76
     0
330
23
  0
LAYOUT
  5
22
102
{ACAD_REACTORS
330
1A
102
}
330
1A
100
AcDbPlotSettings
  1

  2

  4

  6

 40
0.0
 41
0.0
 42
0.0
 43
0.0
 44
0.0
 45
0.0
 46
0.0
 47
0.0
 48
0.0
 49
0.0
140
0.0
141
0.0
142
1.0
143
1.0
 70
  1776
 72
     0
 73
     0
 74
     0
  7

 75
     0
147
1.0
148
0.0
149
0.0
100
AcDbLayout
  1
Model
 70
     1
 71
     0
 10
-271.75
 20
-87.335738
 11
568.25
 21
506.664262
 12
0.0
 22
0.0
 32
0.0
 14
-271.75
 24
-87.335738
 34
0.0
 15
568.25
 25
506.664262
 35
0.0
146
0.0
 13
0.0
 23
0.0
 33
0.0
 16
1.0
 26
0.0
 36
0.0
 17
0.0
 27
1.0
 37
0.0
 76
     0
330
1F
  0
MLINESTYLE
  5
18
102
{ACAD_REACTORS
330
17
102
}
330
17
100
AcDbMlineStyle
  2
Standard
 70
     0
  3

 62
   256
 51
90.0
 52
90.0
 71
     2
 49
0.5
 62
   256
  6
BYLAYER
 49
-0.5
 62
   256
  6
BYLAYER
  0
ACDBPLACEHOLDER
  5
F
102
{ACAD_REACTORS
330
E
102
}
330
E
  0
ENDSEC
  0
EOF
