  0
SECTION
  2
HEADER
  9
$ACADVER
  1
AC1009
  9
$INSBASE
 10
0.0
 20
0.0
 30
0.0
  9
$EXTMIN
 10
0.0
 20
0.0
 30
0.0
  9
$EXTMAX
 10
840.0
 20
594.0
 30
0.0
  9
$LIMMIN
 10
0.0
 20
0.0
  9
$LIMMAX
 10
840.0
 20
594.0
  9
$ORTHOMODE
 70
     0
  9
$REGENMODE
 70
     1
  9
$FILLMODE
 70
     1
  9
$QTEXTMODE
 70
     0
  9
$MIRRTEXT
 70
     1
  9
$DRAGMODE
 70
     2
  9
$LTSCALE
 40
2.0
  9
$OSMODE
 70
     0
  9
$ATTMODE
 70
     1
  9
$TEXTSIZE
 40
0.2
  9
$TRACEWID
 40
0.05
  9
$TEXTSTYLE
  7
STANDARD
  9
$CLAYER
  8
0
  9
$CELTYPE
  6
BYLAYER
  9
$CECOLOR
 62
     7
  9
$DIMSCALE
 40
2.0
  9
$DIMASZ
 40
3.5
  9
$DIMEXO
 40
0.0625
  9
$DIMDLI
 40
0.38
  9
$DIMRND
 40
0.0
  9
$DIMDLE
 40
0.0
  9
$DIMEXE
 40
0.18
  9
$DIMTP
 40
0.0
  9
$DIMTM
 40
0.0
  9
$DIMTXT
 40
3.5
  9
$DIMCEN
 40
0.09
  9
$DIMTSZ
 40
0.0
  9
$DIMTOL
 70
     0
  9
$DIMLIM
 70
     0
  9
$DIMTIH
 70
     1
  9
$DIMTOH
 70
     1
  9
$DIMSE1
 70
     0
  9
$DIMSE2
 70
     0
  9
$DIMTAD
 70
     1
  9
$DIMZIN
 70
     0
  9
$DIMBLK
  1

  9
$DIMASO
 70
     1
  9
$DIMSHO
 70
     1
  9
$DIMPOST
  1

  9
$DIMAPOST
  1

  9
$DIMALT
 70
     0
  9
$DIMALTD
 70
     2
  9
$DIMALTF
 40
25.4
  9
$DIMLFAC
 40
1.0
  9
$DIMTOFL
 70
     0
  9
$DIMTVP
 40
0.0
  9
$DIMTIX
 70
     0
  9
$DIMSOXD
 70
     0
  9
$DIMSAH
 70
     0
  9
$DIMBLK1
  1

  9
$DIMBLK2
  1

  9
$DIMSTYLE
  2
STANDARD
  9
$DIMCLRD
 70
     0
  9
$DIMCLRE
 70
     0
  9
$DIMCLRT
 70
     0
  9
$DIMTFAC
 40
1.0
  9
$DIMGAP
 40
0.09
  9
$LUNITS
 70
     2
  9
$LUPREC
 70
     2
  9
$AXISMODE
 70
     0
  9
$AXISUNIT
 10
0.0
 20
0.0
  9
$SKETCHINC
 40
0.1
  9
$FILLETRAD
 40
0.0
  9
$AUNITS
 70
     0
  9
$AUPREC
 70
     0
  9
$MENU
  1
acad
  9
$ELEVATION
 40
0.0
  9
$PELEVATION
 40
0.0
  9
$THICKNESS
 40
0.0
  9
$LIMCHECK
 70
     0
  9
$BLIPMODE
 70
     1
  9
$CHAMFERA
 40
0.0
  9
$CHAMFERB
 40
0.0
  9
$SKPOLY
 70
     0
  9
$TDCREATE
 40
0.000000000
  9
$TDUPDATE
 40
0.000000000
  9
$TDINDWG
 40
0.0000000000
  9
$TDUSRTIMER
 40
0.0000000000
  9
$USRTIMER
 70
     1
  9
$ANGBASE
 50
0.0
  9
$ANGDIR
 70
     0
  9
$PDMODE
 70
     0
  9
$PDSIZE
 40
0.0
  9
$PLINEWID
 40
0.0
  9
$COORDS
 70
     0
  9
$SPLFRAME
 70
     0
  9
$SPLINETYPE
 70
     6
  9
$SPLINESEGS
 70
     8
  9
$ATTDIA
 70
     0
  9
$ATTREQ
 70
     1
  9
$HANDLING
 70
     1
  9
$HANDSEED
  5
310
  9
$SURFTAB1
 70
     6
  9
$SURFTAB2
 70
     6
  9
$SURFTYPE
 70
     6
  9
$SURFU
 70
     6
  9
$SURFV
 70
     6
  9
$UCSNAME
  2

  9
$UCSORG
 10
0.0
 20
0.0
 30
0.0
  9
$UCSXDIR
 10
1.0
 20
0.0
 30
0.0
  9
$UCSYDIR
 10
0.0
 20
1.0
 30
0.0
  9
$PUCSNAME
  2

  9
$PUCSORG
 10
0.0
 20
0.0
 30
0.0
  9
$PUCSXDIR
 10
1.0
 20
0.0
 30
0.0
  9
$PUCSYDIR
 10
0.0
 20
1.0
 30
0.0
  9
$USERI1
 70
     0
  9
$USERI2
 70
     0
  9
$USERI3
 70
     0
  9
$USERI4
 70
     0
  9
$USERI5
 70
     0
  9
$USERR1
 40
0.0
  9
$USERR2
 40
0.0
  9
$USERR3
 40
0.0
  9
$USERR4
 40
0.0
  9
$USERR5
 40
0.0
  9
$WORLDVIEW
 70
     1
  9
$SHADEDGE
 70
     3
  9
$SHADEDIF
 70
    70
  9
$TILEMODE
 70
     1
  9
$MAXACTVP
 70
    16
  9
$PINSBASE
 10
0.0
 20
0.0
 30
0.0
  9
$PLIMCHECK
 70
     0
  9
$PEXTMIN
 10
1.000000E+20
 20
1.000000E+20
 30
1.000000E+20
  9
$PEXTMAX
 10
-1.000000E+20
 20
-1.000000E+20
 30
-1.000000E+20
  9
$PLIMMIN
 10
0.0
 20
0.0
  9
$PLIMMAX
 10
840.0
 20
594.0
  9
$UNITMODE
 70
     0
  9
$VISRETAIN
 70
     0
  9
$PLINEGEN
 70
     1
  9
$PSLTSCALE
 70
     0
  9
$TREEDEPTH
 70
  3020
  9
$DWGCODEPAGE
  3
dos850
  0
ENDSEC
  0
SECTION
  2
TABLES
  0
TABLE
  2
VPORT
 70
     1
  0
VPORT
  2
*ACTIVE
 70
     0
 10
0.0
 20
0.0
 11
1.0
 21
1.0
 12
420.0
 22
297.0
 13
0.0
 23
0.0
 14
1.0
 24
1.0
 15
0.0
 25
0.0
 16
0.0
 26
0.0
 36
1.0
 17
0.0
 27
0.0
 37
0.0
 40
594.0
 41
1.604229
 42
50.0
 43
0.0
 44
0.0
 50
0.0
 51
0.0
 71
     0
 72
   100
 73
     1
 74
     1
 75
     0
 76
     0
 77
     0
 78
     0
  0
ENDTAB
  0
TABLE
  2
LTYPE
 70
     2
  0
LTYPE
  2
CONTINUOUS
 70
    64
  3
Solid line
 72
    65
 73
     0
 40
0.0
  0
LTYPE
  2
DASHDOT
 70
    64
  3
__ . __ . __ . __ . __
 72
    65
 73
     4
 40
7.5
 49
5.0
 49
-1.25
 49
0.0
 49
-1.25
  0
ENDTAB
  0
TABLE
  2
LAYER
 70
    10
  0
LAYER
  2
0
 70
     0
 62
     7
  6
CONTINUOUS
  0
LAYER
  2
LC-INFO-1-2-MM-A3-0
 70
     1
 62
    -1
  6
CONTINUOUS
  0
LAYER
  2
LC-001-005-----0
 70
     0
 62
     2
  6
CONTINUOUS
  0
LAYER
  2
LC-005-003-MTH-0
 70
     0
 62
     2
  6
CONTINUOUS
  0
LAYER
  2
LC-006-003-MTG-0
 70
     0
 62
     2
  6
CONTINUOUS
  0
LAYER
  2
LC-004-003-----0
 70
     0
 62
     2
  6
CONTINUOUS
  0
LAYER
  2
LC-007-000-----0
 70
     0
 62
     7
  6
CONTINUOUS
  0
LAYER
  2
LC-002-002-----0
 70
     0
 62
     1
  6
CONTINUOUS
  0
LAYER
  2
LC-003-002-RND-0
 70
     0
 62
     1
  6
CONTINUOUS
  0
LAYER
  2
LC-000
 70
     0
 62
     7
  6
CONTINUOUS
  0
ENDTAB
  0
TABLE
  2
STYLE
 70
     4
  0
STYLE
  2
STANDARD
 70
     0
 40
0.0
 41
1.0
 50
0.0
 71
     0
 42
0.0
  3
txt
  4

  0
STYLE
  2
LC-STANDARD
 70
    64
 40
0.0
 41
1.0
 50
0.0
 71
     0
 42
3.5
  3
MONOTXT
  4

  0
STYLE
  2
LC-TXTSTYLE-150-400-0-0-A2
 70
    64
 40
0.0
 41
1.0
 50
15.0
 71
     0
 42
3.5
  3
MONOTXT
  4

  0
STYLE
  2
LC-TXTSTYLE-150-400-0-0-D3
 70
    64
 40
0.0
 41
1.0
 50
15.0
 71
     0
 42
3.5
  3
LC-STANDARD
  4

  0
ENDTAB
  0
TABLE
  2
VIEW
 70
     0
  0
ENDTAB
  0
TABLE
  2
UCS
 70
     0
  0
ENDTAB
  0
TABLE
  2
APPID
 70
     1
  0
APPID
  2
ACAD
 70
     0
  0
ENDTAB
  0
TABLE
  2
DIMSTYLE
 70
     3
  0
DIMSTYLE
  2
STANDARD
 70
     0
  3

  4

  5

  6

  7

 40
1.0
 41
0.18
 42
0.0625
 43
0.38
 44
0.18
 45
0.0
 46
0.0
 47
0.0
 48
0.0
 71
     0
 72
     0
 73
     1
 74
     1
 75
     0
 76
     0
 77
     0
 78
     0
140
0.18
141
0.09
142
0.0
143
25.4
144
1.0
145
0.0
146
1.0
147
0.09
170
     0
171
     2
172
     0
173
     0
174
     0
175
     0
176
     0
177
     0
178
     0
  0
DIMSTYLE
  2
LC-STANDARD
 70
     0
  3

  4

  5

  6

  7

 40
1.0
 41
3.5
 42
0.0
 43
7.5
 44
1.8
 45
0.0
 46
0.0
 47
0.0
 48
0.0
 71
     0
 72
     0
 73
     0
 74
     0
 75
     0
 76
     0
 77
     1
 78
     8
140
3.5
141
0.0
142
0.0
143
25.4
144
1.0
145
0.0
146
0.71
147
1.5
170
     0
171
     2
172
     1
173
     0
174
     0
175
     0
176
     0
177
     0
178
     3
  0
DIMSTYLE
  2
LC-DIM-L-0140-02-02
 70
     0
  3

  4

  5

  6

  7

 40
2.0
 41
3.5
 42
0.0
 43
7.5
 44
1.8
 45
0.0
 46
0.0
 47
0.0
 48
0.0
 71
     0
 72
     0
 73
     0
 74
     0
 75
     0
 76
     0
 77
     1
 78
     8
140
14.0
141
0.0
142
0.0
143
25.4
144
1.0
145
0.0
146
0.71
147
1.5
170
     0
171
     2
172
     0
173
     0
174
     0
175
     0
176
     2
177
     2
178
     8
  0
ENDTAB
  0
ENDSEC
  0
SECTION
  2
BLOCKS
  0
BLOCK
  8
0
  5
23
  2
*X0
 70
    65
 10
208.934221
 20
249.579099
 30
0.0
  3
*X0
  0
LINE
  8
LC-001-005-----0
  6
CONTINUOUS
  5
25
 10
209.98112
 20
249.579099
 30
0.0
 11
212.060188
 21
251.658167
 31
0.0
  0
LINE
  8
LC-001-005-----0
  6
CONTINUOUS
  5
26
 10
208.934221
 20
251.360628
 30
0.0
 11
212.060188
 21
254.486594
 31
0.0
  0
LINE
  8
LC-001-005-----0
  6
CONTINUOUS
  5
27
 10
208.934221
 20
254.189055
 30
0.0
 11
212.060188
 21
257.315022
 31
0.0
  0
LINE
  8
LC-001-005-----0
  6
CONTINUOUS
  5
28
 10
208.934221
 20
257.017482
 30
0.0
 11
212.060188
 21
260.143449
 31
0.0
  0
LINE
  8
LC-001-005-----0
  6
CONTINUOUS
  5
29
 10
208.934221
 20
259.845909
 30
0.0
 11
212.060188
 21
262.971876
 31
0.0
  0
LINE
  8
LC-001-005-----0
  6
CONTINUOUS
  5
2A
 10
208.934221
 20
262.674336
 30
0.0
 11
212.060188
 21
265.800303
 31
0.0
  0
LINE
  8
LC-001-005-----0
  6
CONTINUOUS
  5
2B
 10
208.934221
 20
265.502763
 30
0.0
 11
212.060188
 21
268.62873
 31
0.0
  0
LINE
  8
LC-001-005-----0
  6
CONTINUOUS
  5
2C
 10
208.934221
 20
268.33119
 30
0.0
 11
212.060188
 21
271.457157
 31
0.0
  0
LINE
  8
LC-001-005-----0
  6
CONTINUOUS
  5
2D
 10
208.934221
 20
271.159618
 30
0.0
 11
212.060188
 21
274.285584
 31
0.0
  0
LINE
  8
LC-001-005-----0
  6
CONTINUOUS
  5
2E
 10
208.934221
 20
273.988045
 30
0.0
 11
212.060188
 21
277.114011
 31
0.0
  0
LINE
  8
LC-001-005-----0
  6
CONTINUOUS
  5
2F
 10
208.934221
 20
276.816472
 30
0.0
 11
212.060188
 21
279.942439
 31
0.0
  0
LINE
  8
LC-001-005-----0
  6
CONTINUOUS
  5
30
 10
208.934221
 20
279.644899
 30
0.0
 11
212.060188
 21
282.770866
 31
0.0
  0
LINE
  8
LC-001-005-----0
  6
CONTINUOUS
  5
31
 10
208.934221
 20
282.473326
 30
0.0
 11
212.060188
 21
285.599293
 31
0.0
  0
LINE
  8
LC-001-005-----0
  6
CONTINUOUS
  5
32
 10
208.934221
 20
285.301753
 30
0.0
 11
212.060188
 21
288.42772
 31
0.0
  0
LINE
  8
LC-001-005-----0
  6
CONTINUOUS
  5
33
 10
208.934221
 20
288.13018
 30
0.0
 11
212.060188
 21
291.256147
 31
0.0
  0
LINE
  8
LC-001-005-----0
  6
CONTINUOUS
  5
34
 10
208.934221
 20
290.958607
 30
0.0
 11
212.060188
 21
294.084574
 31
0.0
  0
LINE
  8
LC-001-005-----0
  6
CONTINUOUS
  5
35
 10
208.934221
 20
293.787035
 30
0.0
 11
212.060188
 21
296.913001
 31
0.0
  0
LINE
  8
LC-001-005-----0
  6
CONTINUOUS
  5
36
 10
208.934221
 20
296.615462
 30
0.0
 11
212.060188
 21
299.741428
 31
0.0
  0
LINE
  8
LC-001-005-----0
  6
CONTINUOUS
  5
37
 10
208.934221
 20
299.443889
 30
0.0
 11
212.060188
 21
302.569856
 31
0.0
  0
LINE
  8
LC-001-005-----0
  6
CONTINUOUS
  5
38
 10
208.934221
 20
302.272316
 30
0.0
 11
212.060188
 21
305.398283
 31
0.0
  0
LINE
  8
LC-001-005-----0
  6
CONTINUOUS
  5
39
 10
208.934221
 20
305.100743
 30
0.0
 11
212.060188
 21
308.22671
 31
0.0
  0
LINE
  8
LC-001-005-----0
  6
CONTINUOUS
  5
3A
 10
208.934221
 20
307.92917
 30
0.0
 11
212.060188
 21
311.055137
 31
0.0
  0
LINE
  8
LC-001-005-----0
  6
CONTINUOUS
  5
3B
 10
208.934221
 20
310.757597
 30
0.0
 11
212.060188
 21
313.883564
 31
0.0
  0
LINE
  8
LC-001-005-----0
  6
CONTINUOUS
  5
3C
 10
208.934221
 20
313.586024
 30
0.0
 11
212.060188
 21
316.711991
 31
0.0
  0
LINE
  8
LC-001-005-----0
  6
CONTINUOUS
  5
3D
 10
208.934221
 20
316.414452
 30
0.0
 11
212.060188
 21
319.540418
 31
0.0
  0
LINE
  8
LC-001-005-----0
  6
CONTINUOUS
  5
3E
 10
208.934221
 20
319.242879
 30
0.0
 11
212.060188
 21
322.368845
 31
0.0
  0
LINE
  8
LC-001-005-----0
  6
CONTINUOUS
  5
3F
 10
208.934221
 20
322.071306
 30
0.0
 11
212.060188
 21
325.197273
 31
0.0
  0
LINE
  8
LC-001-005-----0
  6
CONTINUOUS
  5
40
 10
208.934221
 20
324.899733
 30
0.0
 11
212.060188
 21
328.0257
 31
0.0
  0
LINE
  8
LC-001-005-----0
  6
CONTINUOUS
  5
41
 10
208.934221
 20
327.72816
 30
0.0
 11
212.060188
 21
330.854127
 31
0.0
  0
LINE
  8
LC-001-005-----0
  6
CONTINUOUS
  5
42
 10
208.934221
 20
330.556587
 30
0.0
 11
212.060188
 21
333.682554
 31
0.0
  0
LINE
  8
LC-001-005-----0
  6
CONTINUOUS
  5
43
 10
208.934221
 20
333.385014
 30
0.0
 11
212.060188
 21
336.510981
 31
0.0
  0
LINE
  8
LC-001-005-----0
  6
CONTINUOUS
  5
44
 10
208.934221
 20
336.213441
 30
0.0
 11
212.060188
 21
339.339408
 31
0.0
  0
LINE
  8
LC-001-005-----0
  6
CONTINUOUS
  5
45
 10
208.934221
 20
339.041869
 30
0.0
 11
212.060188
 21
342.167835
 31
0.0
  0
LINE
  8
LC-001-005-----0
  6
CONTINUOUS
  5
46
 10
208.934221
 20
341.870296
 30
0.0
 11
212.060188
 21
344.996262
 31
0.0
  0
LINE
  8
LC-001-005-----0
  6
CONTINUOUS
  5
47
 10
208.934221
 20
344.698723
 30
0.0
 11
212.060188
 21
347.82469
 31
0.0
  0
LINE
  8
LC-001-005-----0
  6
CONTINUOUS
  5
48
 10
208.934221
 20
347.52715
 30
0.0
 11
212.060188
 21
350.653117
 31
0.0
  0
LINE
  8
LC-001-005-----0
  6
CONTINUOUS
  5
49
 10
208.934221
 20
350.355577
 30
0.0
 11
212.060188
 21
353.481544
 31
0.0
  0
LINE
  8
LC-001-005-----0
  6
CONTINUOUS
  5
4A
 10
208.934221
 20
353.184004
 30
0.0
 11
212.060188
 21
356.309971
 31
0.0
  0
LINE
  8
LC-001-005-----0
  6
CONTINUOUS
  5
4B
 10
208.934221
 20
356.012431
 30
0.0
 11
212.060188
 21
359.138398
 31
0.0
  0
LINE
  8
LC-001-005-----0
  6
CONTINUOUS
  5
4C
 10
208.934221
 20
358.840858
 30
0.0
 11
212.060188
 21
361.966825
 31
0.0
  0
LINE
  8
LC-001-005-----0
  6
CONTINUOUS
  5
4D
 10
208.934221
 20
361.669286
 30
0.0
 11
212.060188
 21
364.795252
 31
0.0
  0
LINE
  8
LC-001-005-----0
  6
CONTINUOUS
  5
4E
 10
208.934221
 20
364.497713
 30
0.0
 11
212.060188
 21
367.623679
 31
0.0
  0
LINE
  8
LC-001-005-----0
  6
CONTINUOUS
  5
4F
 10
208.934221
 20
367.32614
 30
0.0
 11
212.060188
 21
370.452107
 31
0.0
  0
LINE
  8
LC-001-005-----0
  6
CONTINUOUS
  5
50
 10
208.934221
 20
370.154567
 30
0.0
 11
212.060188
 21
373.280534
 31
0.0
  0
LINE
  8
LC-001-005-----0
  6
CONTINUOUS
  5
51
 10
208.934221
 20
372.982994
 30
0.0
 11
212.060188
 21
376.108961
 31
0.0
  0
LINE
  8
LC-001-005-----0
  6
CONTINUOUS
  5
52
 10
218.015716
 20
382.06449
 30
0.0
 11
220.434197
 21
384.48297
 31
0.0
  0
LINE
  8
LC-001-005-----0
  6
CONTINUOUS
  5
53
 10
208.934221
 20
375.811421
 30
0.0
 11
212.060188
 21
378.937388
 31
0.0
  0
LINE
  8
LC-001-005-----0
  6
CONTINUOUS
  5
54
 10
217.733965
 20
384.611166
 30
0.0
 11
220.434209
 21
387.311409
 31
0.0
  0
LINE
  8
LC-001-005-----0
  6
CONTINUOUS
  5
55
 10
208.934221
 20
378.639848
 30
0.0
 11
212.060188
 21
381.765815
 31
0.0
  0
LINE
  8
LC-001-005-----0
  6
CONTINUOUS
  5
56
 10
217.73372
 20
387.439348
 30
0.0
 11
220.434221
 21
390.139849
 31
0.0
  0
LINE
  8
LC-001-005-----0
  6
CONTINUOUS
  5
57
 10
208.934221
 20
381.468275
 30
0.0
 11
212.060188
 21
384.594242
 31
0.0
  0
LINE
  8
LC-001-005-----0
  6
CONTINUOUS
  5
58
 10
217.440753
 20
389.974807
 30
0.0
 11
219.71817
 21
392.252224
 31
0.0
  0
LINE
  8
LC-001-005-----0
  6
CONTINUOUS
  5
59
 10
208.934221
 20
384.296703
 30
0.0
 11
212.060188
 21
387.422669
 31
0.0
  0
LINE
  8
LC-001-005-----0
  6
CONTINUOUS
  5
5A
 10
215.737654
 20
391.100136
 30
0.0
 11
217.716618
 21
393.079099
 31
0.0
  0
LINE
  8
LC-001-005-----0
  6
CONTINUOUS
  5
5B
 10
208.934221
 20
387.12513
 30
0.0
 11
214.888191
 21
393.079099
 31
0.0
  0
LINE
  8
LC-001-005-----0
  6
CONTINUOUS
  5
5C
 10
208.934221
 20
389.953557
 30
0.0
 11
212.059763
 21
393.079099
 31
0.0
  0
LINE
  8
LC-001-005-----0
  6
CONTINUOUS
  5
5D
 10
208.934221
 20
392.781984
 30
0.0
 11
209.231336
 21
393.079099
 31
0.0
  0
ENDBLK
  8
0
  5
5E
  0
BLOCK
  8
0
  5
60
  2
*X1
 70
    65
 10
281.684223
 20
393.579099
 30
0.0
  3
*X1
  0
LINE
  8
LC-001-005-----0
  6
CONTINUOUS
  5
61
 10
304.184223
 20
394.693891
 30
0.0
 11
305.184223
 21
395.693891
 31
0.0
  0
LINE
  8
LC-001-005-----0
  6
CONTINUOUS
  5
62
 10
304.024408
 20
397.362503
 30
0.0
 11
304.767073
 21
398.105168
 31
0.0
  0
LINE
  8
LC-001-005-----0
  6
CONTINUOUS
  5
63
 10
302.400815
 20
398.567337
 30
0.0
 11
303.225916
 21
399.392438
 31
0.0
  0
LINE
  8
LC-001-005-----0
  6
CONTINUOUS
  5
64
 10
299.58415
 20
398.579099
 30
0.0
 11
300.58415
 21
399.579099
 31
0.0
  0
LINE
  8
LC-001-005-----0
  6
CONTINUOUS
  5
65
 10
296.755723
 20
398.579099
 30
0.0
 11
297.755723
 21
399.579099
 31
0.0
  0
LINE
  8
LC-001-005-----0
  6
CONTINUOUS
  5
66
 10
293.927296
 20
398.579099
 30
0.0
 11
294.927296
 21
399.579099
 31
0.0
  0
LINE
  8
LC-001-005-----0
  6
CONTINUOUS
  5
67
 10
291.098869
 20
398.579099
 30
0.0
 11
292.098869
 21
399.579099
 31
0.0
  0
LINE
  8
LC-001-005-----0
  6
CONTINUOUS
  5
68
 10
288.270442
 20
398.579099
 30
0.0
 11
289.270442
 21
399.579099
 31
0.0
  0
LINE
  8
LC-001-005-----0
  6
CONTINUOUS
  5
69
 10
285.442014
 20
398.579099
 30
0.0
 11
286.442014
 21
399.579099
 31
0.0
  0
LINE
  8
LC-001-005-----0
  6
CONTINUOUS
  5
6A
 10
282.613587
 20
398.579099
 30
0.0
 11
283.613587
 21
399.579099
 31
0.0
  0
ENDBLK
  8
0
  5
6B
  0
BLOCK
  8
0
  5
6D
  2
*X2
 70
    65
 10
312.184223
 20
393.579099
 30
0.0
  3
*X2
  0
LINE
  8
LC-001-005-----0
  6
CONTINUOUS
  5
6E
 10
321.039994
 20
394.579099
 30
0.0
 11
321.184223
 21
394.723328
 31
0.0
  0
LINE
  8
LC-001-005-----0
  6
CONTINUOUS
  5
6F
 10
320.184223
 20
396.551755
 30
0.0
 11
321.061351
 21
397.428884
 31
0.0
  0
LINE
  8
LC-001-005-----0
  6
CONTINUOUS
  5
70
 10
319.139988
 20
398.335947
 30
0.0
 11
319.866844
 21
399.062804
 31
0.0
  0
LINE
  8
LC-001-005-----0
  6
CONTINUOUS
  5
71
 10
312.554713
 20
394.579099
 30
0.0
 11
313.184223
 21
395.20861
 31
0.0
  0
LINE
  8
LC-001-005-----0
  6
CONTINUOUS
  5
72
 10
316.554713
 20
398.579099
 30
0.0
 11
317.554713
 21
399.579099
 31
0.0
  0
LINE
  8
LC-001-005-----0
  6
CONTINUOUS
  5
73
 10
312.226162
 20
397.078976
 30
0.0
 11
314.684347
 21
399.53716
 31
0.0
  0
ENDBLK
  8
0
  5
74
  0
BLOCK
  8
0
  5
76
  2
*X3
 70
    65
 10
344.184223
 20
393.579099
 30
0.0
  3
*X3
  0
LINE
  8
LC-001-005-----0
  6
CONTINUOUS
  5
77
 10
353.184223
 20
395.61063
 30
0.0
 11
354.184059
 21
396.610466
 31
0.0
  0
LINE
  8
LC-001-005-----0
  6
CONTINUOUS
  5
78
 10
352.666723
 20
397.921557
 30
0.0
 11
353.374409
 21
398.629243
 31
0.0
  0
LINE
  8
LC-001-005-----0
  6
CONTINUOUS
  5
79
 10
350.495838
 20
398.579099
 30
0.0
 11
351.481112
 21
399.564373
 31
0.0
  0
LINE
  8
LC-001-005-----0
  6
CONTINUOUS
  5
7A
 10
344.184223
 20
395.095911
 30
0.0
 11
345.184223
 21
396.095911
 31
0.0
  0
LINE
  8
LC-001-005-----0
  6
CONTINUOUS
  5
7B
 10
347.667411
 20
398.579099
 30
0.0
 11
348.667411
 21
399.579099
 31
0.0
  0
ENDBLK
  8
0
  5
7C
  0
BLOCK
  8
0
  5
7E
  2
*X4
 70
    65
 10
328.184223
 20
393.579099
 30
0.0
  3
*X4
  0
LINE
  8
LC-001-005-----0
  6
CONTINUOUS
  5
7F
 10
336.184223
 20
395.581193
 30
0.0
 11
337.184222
 21
396.581192
 31
0.0
  0
LINE
  8
LC-001-005-----0
  6
CONTINUOUS
  5
80
 10
335.680635
 20
397.906032
 30
0.0
 11
336.38859
 21
398.613987
 31
0.0
  0
LINE
  8
LC-001-005-----0
  6
CONTINUOUS
  5
81
 10
333.525276
 20
398.579099
 30
0.0
 11
334.507777
 21
399.561601
 31
0.0
  0
LINE
  8
LC-001-005-----0
  6
CONTINUOUS
  5
82
 10
328.184223
 20
396.066474
 30
0.0
 11
329.267303
 21
397.149554
 31
0.0
  0
LINE
  8
LC-001-005-----0
  6
CONTINUOUS
  5
83
 10
330.613768
 20
398.496019
 30
0.0
 11
331.696848
 21
399.579099
 31
0.0
  0
ENDBLK
  8
0
  5
84
  0
BLOCK
  8
0
  5
86
  2
*X5
 70
    65
 10
201.934223
 20
374.579099
 30
0.0
  3
*X5
  0
LINE
  8
LC-001-005-----0
  6
CONTINUOUS
  5
87
 10
221.415329
 20
392.353357
 30
0.0
 11
219.70848
 21
394.060206
 31
0.0
  0
LINE
  8
LC-001-005-----0
  6
CONTINUOUS
  5
88
 10
221.434223
 20
389.506036
 30
0.0
 11
220.434223
 21
390.506036
 31
0.0
  0
LINE
  8
LC-001-005-----0
  6
CONTINUOUS
  5
89
 10
217.861159
 20
393.079099
 30
0.0
 11
216.861159
 21
394.079099
 31
0.0
  0
LINE
  8
LC-001-005-----0
  6
CONTINUOUS
  5
8A
 10
221.434223
 20
386.677609
 30
0.0
 11
220.434223
 21
387.677609
 31
0.0
  0
LINE
  8
LC-001-005-----0
  6
CONTINUOUS
  5
8B
 10
215.032732
 20
393.079099
 30
0.0
 11
214.032732
 21
394.079099
 31
0.0
  0
LINE
  8
LC-001-005-----0
  6
CONTINUOUS
  5
8C
 10
221.434223
 20
383.849182
 30
0.0
 11
220.434223
 21
384.849182
 31
0.0
  0
LINE
  8
LC-001-005-----0
  6
CONTINUOUS
  5
8D
 10
212.204305
 20
393.079099
 30
0.0
 11
211.204305
 21
394.079099
 31
0.0
  0
LINE
  8
LC-001-005-----0
  6
CONTINUOUS
  5
8E
 10
208.434223
 20
396.849182
 30
0.0
 11
207.380267
 21
397.903138
 31
0.0
  0
LINE
  8
LC-001-005-----0
  6
CONTINUOUS
  5
8F
 10
206.758261
 20
398.525143
 30
0.0
 11
205.716222
 21
399.567183
 31
0.0
  0
LINE
  8
LC-001-005-----0
  6
CONTINUOUS
  5
90
 10
221.213676
 20
381.241302
 30
0.0
 11
220.434223
 21
382.020755
 31
0.0
  0
LINE
  8
LC-001-005-----0
  6
CONTINUOUS
  5
91
 10
209.375001
 20
393.079976
 30
0.0
 11
207.4351
 21
395.019878
 31
0.0
  0
LINE
  8
LC-001-005-----0
  6
CONTINUOUS
  5
92
 10
204.934223
 20
397.520755
 30
0.0
 11
204.093572
 21
398.361406
 31
0.0
  0
LINE
  8
LC-001-005-----0
  6
CONTINUOUS
  5
93
 10
220.537136
 20
379.089415
 30
0.0
 11
219.755647
 21
379.870903
 31
0.0
  0
LINE
  8
LC-001-005-----0
  6
CONTINUOUS
  5
94
 10
204.934223
 20
394.692327
 30
0.0
 11
203.934223
 21
395.692327
 31
0.0
  0
LINE
  8
LC-001-005-----0
  6
CONTINUOUS
  5
95
 10
220.907561
 20
375.890562
 30
0.0
 11
219.387859
 21
377.410264
 31
0.0
  0
LINE
  8
LC-001-005-----0
  6
CONTINUOUS
  5
96
 10
204.934223
 20
391.8639
 30
0.0
 11
203.934223
 21
392.8639
 31
0.0
  0
LINE
  8
LC-001-005-----0
  6
CONTINUOUS
  5
97
 10
204.18765
 20
389.782046
 30
0.0
 11
203.390597
 21
390.579099
 31
0.0
  0
ENDBLK
  8
0
  5
98
  0
BLOCK
  8
0
  5
9A
  2
*X6
 70
    65
 10
341.934223
 20
374.579099
 30
0.0
  3
*X6
  0
LINE
  8
LC-001-005-----0
  6
CONTINUOUS
  5
9B
 10
359.434223
 20
395.755819
 30
0.0
 11
358.434223
 21
396.755819
 31
0.0
  0
LINE
  8
LC-001-005-----0
  6
CONTINUOUS
  5
9C
 10
356.651686
 20
398.538356
 30
0.0
 11
355.899443
 21
399.290599
 31
0.0
  0
LINE
  8
LC-001-005-----0
  6
CONTINUOUS
  5
9D
 10
359.434223
 20
392.927392
 30
0.0
 11
358.434223
 21
393.927392
 31
0.0
  0
LINE
  8
LC-001-005-----0
  6
CONTINUOUS
  5
9E
 10
355.934223
 20
396.427392
 30
0.0
 11
354.934223
 21
397.427392
 31
0.0
  0
LINE
  8
LC-001-005-----0
  6
CONTINUOUS
  5
9F
 10
359.954089
 20
389.579099
 30
0.0
 11
358.434223
 21
391.098965
 31
0.0
  0
LINE
  8
LC-001-005-----0
  6
CONTINUOUS
  5
A0
 10
355.584276
 20
393.948912
 30
0.0
 11
354.934223
 21
394.598965
 31
0.0
  0
LINE
  8
LC-001-005-----0
  6
CONTINUOUS
  5
A1
 10
353.625661
 20
393.079099
 30
0.0
 11
352.625661
 21
394.079099
 31
0.0
  0
LINE
  8
LC-001-005-----0
  6
CONTINUOUS
  5
A2
 10
350.797234
 20
393.079099
 30
0.0
 11
349.797234
 21
394.079099
 31
0.0
  0
LINE
  8
LC-001-005-----0
  6
CONTINUOUS
  5
A3
 10
347.968807
 20
393.079099
 30
0.0
 11
346.968807
 21
394.079099
 31
0.0
  0
LINE
  8
LC-001-005-----0
  6
CONTINUOUS
  5
A4
 10
345.14038
 20
393.079099
 30
0.0
 11
344.14038
 21
394.079099
 31
0.0
  0
LINE
  8
LC-001-005-----0
  6
CONTINUOUS
  5
A5
 10
342.988112
 20
392.402941
 30
0.0
 11
342.243525
 21
393.147528
 31
0.0
  0
LINE
  8
LC-001-005-----0
  6
CONTINUOUS
  5
A6
 10
342.934223
 20
389.628402
 30
0.0
 11
341.934223
 21
390.628402
 31
0.0
  0
LINE
  8
LC-001-005-----0
  6
CONTINUOUS
  5
A7
 10
342.934223
 20
386.799975
 30
0.0
 11
341.934223
 21
387.799975
 31
0.0
  0
LINE
  8
LC-001-005-----0
  6
CONTINUOUS
  5
A8
 10
342.934223
 20
383.971548
 30
0.0
 11
341.934223
 21
384.971548
 31
0.0
  0
LINE
  8
LC-001-005-----0
  6
CONTINUOUS
  5
A9
 10
343.323684
 20
380.75366
 30
0.0
 11
341.934223
 21
382.143121
 31
0.0
  0
LINE
  8
LC-001-005-----0
  6
CONTINUOUS
  5
AA
 10
343.94557
 20
377.303347
 30
0.0
 11
343.139376
 21
378.10954
 31
0.0
  0
LINE
  8
LC-001-005-----0
  6
CONTINUOUS
  5
AB
 10
343.247762
 20
375.172727
 30
0.0
 11
342.477399
 21
375.943091
 31
0.0
  0
ENDBLK
  8
0
  5
AC
  0
BLOCK
  8
0
  5
AE
  2
*X7
 70
    65
 10
258.184223
 20
393.579099
 30
0.0
  3
*X7
  0
LINE
  8
LC-001-005-----0
  6
CONTINUOUS
  5
AF
 10
279.78516
 20
398.579099
 30
0.0
 11
280.78516
 21
399.579099
 31
0.0
  0
LINE
  8
LC-001-005-----0
  6
CONTINUOUS
  5
B0
 10
276.956733
 20
398.579099
 30
0.0
 11
277.956733
 21
399.579099
 31
0.0
  0
LINE
  8
LC-001-005-----0
  6
CONTINUOUS
  5
B1
 10
274.128306
 20
398.579099
 30
0.0
 11
275.128306
 21
399.579099
 31
0.0
  0
LINE
  8
LC-001-005-----0
  6
CONTINUOUS
  5
B2
 10
271.299879
 20
398.579099
 30
0.0
 11
272.299879
 21
399.579099
 31
0.0
  0
LINE
  8
LC-001-005-----0
  6
CONTINUOUS
  5
B3
 10
268.471452
 20
398.579099
 30
0.0
 11
269.471452
 21
399.579099
 31
0.0
  0
LINE
  8
LC-001-005-----0
  6
CONTINUOUS
  5
B4
 10
265.643025
 20
398.579099
 30
0.0
 11
266.643025
 21
399.579099
 31
0.0
  0
LINE
  8
LC-001-005-----0
  6
CONTINUOUS
  5
B5
 10
258.814597
 20
394.579099
 30
0.0
 11
259.184223
 21
394.948725
 31
0.0
  0
LINE
  8
LC-001-005-----0
  6
CONTINUOUS
  5
B6
 10
262.814597
 20
398.579099
 30
0.0
 11
263.814597
 21
399.579099
 31
0.0
  0
LINE
  8
LC-001-005-----0
  6
CONTINUOUS
  5
B7
 10
258.19124
 20
396.784169
 30
0.0
 11
260.979153
 21
399.572082
 31
0.0
  0
ENDBLK
  8
0
  5
B8
  0
BLOCK
  8
0
  5
BA
  2
*X8
 70
    65
 10
242.184223
 20
393.579099
 30
0.0
  3
*X8
  0
LINE
  8
LC-001-005-----0
  6
CONTINUOUS
  5
BB
 10
250.329316
 20
394.579099
 30
0.0
 11
251.184223
 21
395.434006
 31
0.0
  0
LINE
  8
LC-001-005-----0
  6
CONTINUOUS
  5
BC
 10
250.094194
 20
397.172404
 30
0.0
 11
250.859137
 21
397.937347
 31
0.0
  0
LINE
  8
LC-001-005-----0
  6
CONTINUOUS
  5
BD
 10
248.623602
 20
398.530239
 30
0.0
 11
249.410423
 21
399.317061
 31
0.0
  0
LINE
  8
LC-001-005-----0
  6
CONTINUOUS
  5
BE
 10
242.184223
 20
394.919288
 30
0.0
 11
243.184223
 21
395.919288
 31
0.0
  0
LINE
  8
LC-001-005-----0
  6
CONTINUOUS
  5
BF
 10
245.844035
 20
398.579099
 30
0.0
 11
246.844035
 21
399.579099
 31
0.0
  0
LINE
  8
LC-001-005-----0
  6
CONTINUOUS
  5
C0
 10
242.705376
 20
398.268867
 30
0.0
 11
243.494455
 21
399.057947
 31
0.0
  0
ENDBLK
  8
0
  5
C1
  0
BLOCK
  8
0
  5
C3
  2
*X9
 70
    65
 10
209.184223
 20
393.579099
 30
0.0
  3
*X9
  0
LINE
  8
LC-001-005-----0
  6
CONTINUOUS
  5
C4
 10
218.184223
 20
396.375132
 30
0.0
 11
219.098838
 21
397.289747
 31
0.0
  0
LINE
  8
LC-001-005-----0
  6
CONTINUOUS
  5
C5
 10
217.251309
 20
398.270645
 30
0.0
 11
217.97021
 21
398.989546
 31
0.0
  0
LINE
  8
LC-001-005-----0
  6
CONTINUOUS
  5
C6
 10
214.731336
 20
398.579099
 30
0.0
 11
215.731336
 21
399.579099
 31
0.0
  0
LINE
  8
LC-001-005-----0
  6
CONTINUOUS
  5
C7
 10
209.184223
 20
395.860413
 30
0.0
 11
210.207563
 21
396.883753
 31
0.0
  0
LINE
  8
LC-001-005-----0
  6
CONTINUOUS
  5
C8
 10
211.87957
 20
398.55576
 30
0.0
 11
212.902909
 21
399.579099
 31
0.0
  0
ENDBLK
  8
0
  5
C9
  0
BLOCK
  8
0
  5
CB
  2
*X10
 70
    65
 10
226.184223
 20
393.579099
 30
0.0
  3
*X10
  0
LINE
  8
LC-001-005-----0
  6
CONTINUOUS
  5
CC
 10
234.184223
 20
395.404569
 30
0.0
 11
235.184223
 21
396.404569
 31
0.0
  0
LINE
  8
LC-001-005-----0
  6
CONTINUOUS
  5
CD
 10
233.76086
 20
397.809634
 30
0.0
 11
234.471525
 21
398.520298
 31
0.0
  0
LINE
  8
LC-001-005-----0
  6
CONTINUOUS
  5
CE
 10
231.701899
 20
398.579099
 30
0.0
 11
232.663386
 21
399.540586
 31
0.0
  0
LINE
  8
LC-001-005-----0
  6
CONTINUOUS
  5
CF
 10
226.184223
 20
395.88985
 30
0.0
 11
227.213306
 21
396.918934
 31
0.0
  0
LINE
  8
LC-001-005-----0
  6
CONTINUOUS
  5
D0
 10
228.844389
 20
398.550016
 30
0.0
 11
229.873472
 21
399.579099
 31
0.0
  0
ENDBLK
  8
0
  5
D1
  0
BLOCK
  8
0
  5
D3
  2
*X11
 70
    65
 10
342.934223
 20
249.579099
 30
0.0
  3
*X11
  0
LINE
  8
LC-001-005-----0
  6
CONTINUOUS
  5
D4
 10
351.402476
 20
249.579099
 30
0.0
 11
354.434225
 21
252.610849
 31
0.0
  0
LINE
  8
LC-001-005-----0
  6
CONTINUOUS
  5
D5
 10
351.308258
 20
252.313309
 30
0.0
 11
354.434225
 21
255.439276
 31
0.0
  0
LINE
  8
LC-001-005-----0
  6
CONTINUOUS
  5
D6
 10
351.308258
 20
255.141736
 30
0.0
 11
354.434225
 21
258.267703
 31
0.0
  0
LINE
  8
LC-001-005-----0
  6
CONTINUOUS
  5
D7
 10
351.308258
 20
257.970163
 30
0.0
 11
354.434225
 21
261.09613
 31
0.0
  0
LINE
  8
LC-001-005-----0
  6
CONTINUOUS
  5
D8
 10
351.308258
 20
260.79859
 30
0.0
 11
354.434225
 21
263.924557
 31
0.0
  0
LINE
  8
LC-001-005-----0
  6
CONTINUOUS
  5
D9
 10
351.308258
 20
263.627017
 30
0.0
 11
354.434225
 21
266.752984
 31
0.0
  0
LINE
  8
LC-001-005-----0
  6
CONTINUOUS
  5
DA
 10
351.308258
 20
266.455445
 30
0.0
 11
354.434225
 21
269.581411
 31
0.0
  0
LINE
  8
LC-001-005-----0
  6
CONTINUOUS
  5
DB
 10
351.308258
 20
269.283872
 30
0.0
 11
354.434225
 21
272.409838
 31
0.0
  0
LINE
  8
LC-001-005-----0
  6
CONTINUOUS
  5
DC
 10
351.308258
 20
272.112299
 30
0.0
 11
354.434225
 21
275.238266
 31
0.0
  0
LINE
  8
LC-001-005-----0
  6
CONTINUOUS
  5
DD
 10
351.308258
 20
274.940726
 30
0.0
 11
354.434225
 21
278.066693
 31
0.0
  0
LINE
  8
LC-001-005-----0
  6
CONTINUOUS
  5
DE
 10
351.308258
 20
277.769153
 30
0.0
 11
354.434225
 21
280.89512
 31
0.0
  0
LINE
  8
LC-001-005-----0
  6
CONTINUOUS
  5
DF
 10
351.308258
 20
280.59758
 30
0.0
 11
354.434225
 21
283.723547
 31
0.0
  0
LINE
  8
LC-001-005-----0
  6
CONTINUOUS
  5
E0
 10
351.308258
 20
283.426007
 30
0.0
 11
354.434225
 21
286.551974
 31
0.0
  0
LINE
  8
LC-001-005-----0
  6
CONTINUOUS
  5
E1
 10
351.308258
 20
286.254434
 30
0.0
 11
354.434225
 21
289.380401
 31
0.0
  0
LINE
  8
LC-001-005-----0
  6
CONTINUOUS
  5
E2
 10
351.308258
 20
289.082862
 30
0.0
 11
354.434225
 21
292.208828
 31
0.0
  0
LINE
  8
LC-001-005-----0
  6
CONTINUOUS
  5
E3
 10
351.308258
 20
291.911289
 30
0.0
 11
354.434225
 21
295.037255
 31
0.0
  0
LINE
  8
LC-001-005-----0
  6
CONTINUOUS
  5
E4
 10
351.308258
 20
294.739716
 30
0.0
 11
354.434225
 21
297.865683
 31
0.0
  0
LINE
  8
LC-001-005-----0
  6
CONTINUOUS
  5
E5
 10
351.308258
 20
297.568143
 30
0.0
 11
354.434225
 21
300.69411
 31
0.0
  0
LINE
  8
LC-001-005-----0
  6
CONTINUOUS
  5
E6
 10
351.308258
 20
300.39657
 30
0.0
 11
354.434225
 21
303.522537
 31
0.0
  0
LINE
  8
LC-001-005-----0
  6
CONTINUOUS
  5
E7
 10
351.308258
 20
303.224997
 30
0.0
 11
354.434225
 21
306.350964
 31
0.0
  0
LINE
  8
LC-001-005-----0
  6
CONTINUOUS
  5
E8
 10
351.308258
 20
306.053424
 30
0.0
 11
354.434225
 21
309.179391
 31
0.0
  0
LINE
  8
LC-001-005-----0
  6
CONTINUOUS
  5
E9
 10
351.308258
 20
308.881851
 30
0.0
 11
354.434225
 21
312.007818
 31
0.0
  0
LINE
  8
LC-001-005-----0
  6
CONTINUOUS
  5
EA
 10
351.308258
 20
311.710279
 30
0.0
 11
354.434225
 21
314.836245
 31
0.0
  0
LINE
  8
LC-001-005-----0
  6
CONTINUOUS
  5
EB
 10
351.308258
 20
314.538706
 30
0.0
 11
354.434225
 21
317.664672
 31
0.0
  0
LINE
  8
LC-001-005-----0
  6
CONTINUOUS
  5
EC
 10
351.308258
 20
317.367133
 30
0.0
 11
354.434225
 21
320.4931
 31
0.0
  0
LINE
  8
LC-001-005-----0
  6
CONTINUOUS
  5
ED
 10
351.308258
 20
320.19556
 30
0.0
 11
354.434225
 21
323.321527
 31
0.0
  0
LINE
  8
LC-001-005-----0
  6
CONTINUOUS
  5
EE
 10
351.308258
 20
323.023987
 30
0.0
 11
354.434225
 21
326.149954
 31
0.0
  0
LINE
  8
LC-001-005-----0
  6
CONTINUOUS
  5
EF
 10
351.308258
 20
325.852414
 30
0.0
 11
354.434225
 21
328.978381
 31
0.0
  0
LINE
  8
LC-001-005-----0
  6
CONTINUOUS
  5
F0
 10
351.308258
 20
328.680841
 30
0.0
 11
354.434225
 21
331.806808
 31
0.0
  0
LINE
  8
LC-001-005-----0
  6
CONTINUOUS
  5
F1
 10
351.308258
 20
331.509268
 30
0.0
 11
354.434225
 21
334.635235
 31
0.0
  0
LINE
  8
LC-001-005-----0
  6
CONTINUOUS
  5
F2
 10
351.308258
 20
334.337696
 30
0.0
 11
354.434225
 21
337.463662
 31
0.0
  0
LINE
  8
LC-001-005-----0
  6
CONTINUOUS
  5
F3
 10
351.308258
 20
337.166123
 30
0.0
 11
354.434225
 21
340.292089
 31
0.0
  0
LINE
  8
LC-001-005-----0
  6
CONTINUOUS
  5
F4
 10
351.308258
 20
339.99455
 30
0.0
 11
354.434225
 21
343.120517
 31
0.0
  0
LINE
  8
LC-001-005-----0
  6
CONTINUOUS
  5
F5
 10
351.308258
 20
342.822977
 30
0.0
 11
354.434225
 21
345.948944
 31
0.0
  0
LINE
  8
LC-001-005-----0
  6
CONTINUOUS
  5
F6
 10
351.308258
 20
345.651404
 30
0.0
 11
354.434225
 21
348.777371
 31
0.0
  0
LINE
  8
LC-001-005-----0
  6
CONTINUOUS
  5
F7
 10
351.308258
 20
348.479831
 30
0.0
 11
354.434225
 21
351.605798
 31
0.0
  0
LINE
  8
LC-001-005-----0
  6
CONTINUOUS
  5
F8
 10
351.308258
 20
351.308258
 30
0.0
 11
354.434225
 21
354.434225
 31
0.0
  0
LINE
  8
LC-001-005-----0
  6
CONTINUOUS
  5
F9
 10
351.308258
 20
354.136685
 30
0.0
 11
354.434225
 21
357.262652
 31
0.0
  0
LINE
  8
LC-001-005-----0
  6
CONTINUOUS
  5
FA
 10
351.308258
 20
356.965113
 30
0.0
 11
354.434225
 21
360.091079
 31
0.0
  0
LINE
  8
LC-001-005-----0
  6
CONTINUOUS
  5
FB
 10
351.308258
 20
359.79354
 30
0.0
 11
354.434225
 21
362.919506
 31
0.0
  0
LINE
  8
LC-001-005-----0
  6
CONTINUOUS
  5
FC
 10
351.308258
 20
362.621967
 30
0.0
 11
354.434225
 21
365.747934
 31
0.0
  0
LINE
  8
LC-001-005-----0
  6
CONTINUOUS
  5
FD
 10
351.308258
 20
365.450394
 30
0.0
 11
354.434225
 21
368.576361
 31
0.0
  0
LINE
  8
LC-001-005-----0
  6
CONTINUOUS
  5
FE
 10
351.308258
 20
368.278821
 30
0.0
 11
354.434225
 21
371.404788
 31
0.0
  0
LINE
  8
LC-001-005-----0
  6
CONTINUOUS
  5
FF
 10
351.308258
 20
371.107248
 30
0.0
 11
354.434225
 21
374.233215
 31
0.0
  0
LINE
  8
LC-001-005-----0
  6
CONTINUOUS
  5
100
 10
351.308258
 20
373.935675
 30
0.0
 11
354.434225
 21
377.061642
 31
0.0
  0
LINE
  8
LC-001-005-----0
  6
CONTINUOUS
  5
101
 10
351.308258
 20
376.764102
 30
0.0
 11
354.434225
 21
379.890069
 31
0.0
  0
LINE
  8
LC-001-005-----0
  6
CONTINUOUS
  5
102
 10
351.308258
 20
379.59253
 30
0.0
 11
354.434225
 21
382.718496
 31
0.0
  0
LINE
  8
LC-001-005-----0
  6
CONTINUOUS
  5
103
 10
351.308258
 20
382.420957
 30
0.0
 11
354.434225
 21
385.546923
 31
0.0
  0
LINE
  8
LC-001-005-----0
  6
CONTINUOUS
  5
104
 10
351.308258
 20
385.249384
 30
0.0
 11
354.434225
 21
388.375351
 31
0.0
  0
LINE
  8
LC-001-005-----0
  6
CONTINUOUS
  5
105
 10
345.294937
 20
382.06449
 30
0.0
 11
345.634289
 21
382.403842
 31
0.0
  0
LINE
  8
LC-001-005-----0
  6
CONTINUOUS
  5
106
 10
351.308258
 20
388.077811
 30
0.0
 11
354.434225
 21
391.203778
 31
0.0
  0
LINE
  8
LC-001-005-----0
  6
CONTINUOUS
  5
107
 10
342.934258
 20
382.532237
 30
0.0
 11
345.634534
 21
385.232514
 31
0.0
  0
LINE
  8
LC-001-005-----0
  6
CONTINUOUS
  5
108
 10
350.822747
 20
390.420727
 30
0.0
 11
353.48112
 21
393.079099
 31
0.0
  0
LINE
  8
LC-001-005-----0
  6
CONTINUOUS
  5
109
 10
342.934245
 20
385.360652
 30
0.0
 11
345.634779
 21
388.061186
 31
0.0
  0
LINE
  8
LC-001-005-----0
  6
CONTINUOUS
  5
10A
 10
348.688056
 20
391.114463
 30
0.0
 11
350.652693
 21
393.079099
 31
0.0
  0
LINE
  8
LC-001-005-----0
  6
CONTINUOUS
  5
10B
 10
342.934233
 20
388.189067
 30
0.0
 11
347.824265
 21
393.079099
 31
0.0
  0
LINE
  8
LC-001-005-----0
  6
CONTINUOUS
  5
10C
 10
343.003983
 20
391.087244
 30
0.0
 11
344.847765
 21
392.931027
 31
0.0
  0
LINE
  8
LC-001-005-----0
  6
CONTINUOUS
  5
10D
 10
344.941069
 20
393.02433
 30
0.0
 11
344.995838
 21
393.079099
 31
0.0
  0
ENDBLK
  8
0
  5
10E
  0
BLOCK
  8
0
  5
110
  2
*D12
 70
    65
 10
0.0
 20
0.0
 30
0.0
  3
*D12
  0
LINE
  8
LC-005-003-MTH-0
  6
CONTINUOUS
  5
112
 10
208.934221
 20
251.2791
 30
0.0
 11
208.934221
 21
179.2
 31
0.0
  0
LINE
  8
LC-005-003-MTH-0
  6
CONTINUOUS
  5
113
 10
354.434225
 20
251.2791
 30
0.0
 11
354.434225
 21
179.2
 31
0.0
  0
LINE
  8
LC-006-003-MTG-0
  6
CONTINUOUS
  5
115
 10
208.934221
 20
196.0
 30
0.0
 11
354.434225
 21
196.0
 31
0.0
  0
LINE
  8
LC-004-003-----0
  6
CONTINUOUS
  5
117
 10
236.694677
 20
199.654733
 30
0.0
 11
208.934221
 21
196.0
 31
0.0
  0
LINE
  8
LC-004-003-----0
  6
CONTINUOUS
  5
118
 10
208.934221
 20
196.0
 30
0.0
 11
236.694677
 21
192.345267
 31
0.0
  0
LINE
  8
LC-004-003-----0
  6
CONTINUOUS
  5
119
 10
236.694677
 20
192.345267
 30
0.0
 11
236.694677
 21
199.654733
 31
0.0
  0
LINE
  8
LC-004-003-----0
  6
CONTINUOUS
  5
11A
 10
236.756958
 20
198.704503
 30
0.0
 11
216.214221
 21
196.0
 31
0.0
  0
LINE
  8
LC-004-003-----0
  6
CONTINUOUS
  5
11B
 10
216.214221
 20
196.0
 30
0.0
 11
236.756958
 21
193.295497
 31
0.0
  0
LINE
  8
LC-004-003-----0
  6
CONTINUOUS
  5
11C
 10
236.81924
 20
197.754272
 30
0.0
 11
223.494221
 21
196.0
 31
0.0
  0
LINE
  8
LC-004-003-----0
  6
CONTINUOUS
  5
11D
 10
223.494221
 20
196.0
 30
0.0
 11
236.81924
 21
194.245728
 31
0.0
  0
LINE
  8
LC-004-003-----0
  6
CONTINUOUS
  5
11E
 10
236.881521
 20
196.804041
 30
0.0
 11
230.774221
 21
196.0
 31
0.0
  0
LINE
  8
LC-004-003-----0
  6
CONTINUOUS
  5
11F
 10
230.774221
 20
196.0
 30
0.0
 11
236.881521
 21
195.195959
 31
0.0
  0
LINE
  8
LC-004-003-----0
  6
CONTINUOUS
  5
120
 10
326.673769
 20
192.345267
 30
0.0
 11
354.434225
 21
196.0
 31
0.0
  0
LINE
  8
LC-004-003-----0
  6
CONTINUOUS
  5
121
 10
354.434225
 20
196.0
 30
0.0
 11
326.673769
 21
199.654733
 31
0.0
  0
LINE
  8
LC-004-003-----0
  6
CONTINUOUS
  5
122
 10
326.673769
 20
199.654733
 30
0.0
 11
326.673769
 21
192.345267
 31
0.0
  0
LINE
  8
LC-004-003-----0
  6
CONTINUOUS
  5
123
 10
326.611488
 20
193.295497
 30
0.0
 11
347.154225
 21
196.0
 31
0.0
  0
LINE
  8
LC-004-003-----0
  6
CONTINUOUS
  5
124
 10
347.154225
 20
196.0
 30
0.0
 11
326.611488
 21
198.704503
 31
0.0
  0
LINE
  8
LC-004-003-----0
  6
CONTINUOUS
  5
125
 10
326.549206
 20
194.245728
 30
0.0
 11
339.874225
 21
196.0
 31
0.0
  0
LINE
  8
LC-004-003-----0
  6
CONTINUOUS
  5
126
 10
339.874225
 20
196.0
 30
0.0
 11
326.549206
 21
197.754272
 31
0.0
  0
LINE
  8
LC-004-003-----0
  6
CONTINUOUS
  5
127
 10
326.486925
 20
195.195959
 30
0.0
 11
332.594225
 21
196.0
 31
0.0
  0
LINE
  8
LC-004-003-----0
  6
CONTINUOUS
  5
128
 10
332.594225
 20
196.0
 30
0.0
 11
326.486925
 21
196.804041
 31
0.0
  0
TEXT
  8
LC-004-003-----0
  6
CONTINUOUS
 62
     8
  5
12A
 10
247.934745
 20
203.827554
 30
0.0
 40
28.0
  1
Ø145
 41
0.9
 51
15.0
  7
LC-TXTSTYLE-150-400-0-0-D0
 72
     1
 11
286.032383
 21
203.827554
 31
0.0
  0
ENDBLK
  8
0
  5
12B
  0
BLOCK
  8
0
  5
12D
  2
*D13
 70
    65
 10
0.0
 20
0.0
 30
0.0
  3
*D13
  0
LINE
  8
LC-005-003-MTH-0
  6
CONTINUOUS
  5
12E
 10
203.934223
 20
397.579099
 30
0.0
 11
203.934223
 21
476.8
 31
0.0
  0
LINE
  8
LC-005-003-MTH-0
  6
CONTINUOUS
  5
12F
 10
359.434223
 20
397.579099
 30
0.0
 11
359.434223
 21
476.8
 31
0.0
  0
LINE
  8
LC-006-003-MTG-0
  6
CONTINUOUS
  5
130
 10
203.934223
 20
460.0
 30
0.0
 11
359.434223
 21
460.0
 31
0.0
  0
LINE
  8
LC-004-003-----0
  6
CONTINUOUS
  5
131
 10
231.694679
 20
463.654733
 30
0.0
 11
203.934223
 21
460.0
 31
0.0
  0
LINE
  8
LC-004-003-----0
  6
CONTINUOUS
  5
132
 10
203.934223
 20
460.0
 30
0.0
 11
231.694679
 21
456.345267
 31
0.0
  0
LINE
  8
LC-004-003-----0
  6
CONTINUOUS
  5
133
 10
231.694679
 20
456.345267
 30
0.0
 11
231.694679
 21
463.654733
 31
0.0
  0
LINE
  8
LC-004-003-----0
  6
CONTINUOUS
  5
134
 10
231.75696
 20
462.704503
 30
0.0
 11
211.214223
 21
460.0
 31
0.0
  0
LINE
  8
LC-004-003-----0
  6
CONTINUOUS
  5
135
 10
211.214223
 20
460.0
 30
0.0
 11
231.75696
 21
457.295497
 31
0.0
  0
LINE
  8
LC-004-003-----0
  6
CONTINUOUS
  5
136
 10
231.819242
 20
461.754272
 30
0.0
 11
218.494223
 21
460.0
 31
0.0
  0
LINE
  8
LC-004-003-----0
  6
CONTINUOUS
  5
137
 10
218.494223
 20
460.0
 30
0.0
 11
231.819242
 21
458.245728
 31
0.0
  0
LINE
  8
LC-004-003-----0
  6
CONTINUOUS
  5
138
 10
231.881523
 20
460.804041
 30
0.0
 11
225.774223
 21
460.0
 31
0.0
  0
LINE
  8
LC-004-003-----0
  6
CONTINUOUS
  5
139
 10
225.774223
 20
460.0
 30
0.0
 11
231.881523
 21
459.195959
 31
0.0
  0
LINE
  8
LC-004-003-----0
  6
CONTINUOUS
  5
13A
 10
331.673767
 20
456.345267
 30
0.0
 11
359.434223
 21
460.0
 31
0.0
  0
LINE
  8
LC-004-003-----0
  6
CONTINUOUS
  5
13B
 10
359.434223
 20
460.0
 30
0.0
 11
331.673767
 21
463.654733
 31
0.0
  0
LINE
  8
LC-004-003-----0
  6
CONTINUOUS
  5
13C
 10
331.673767
 20
463.654733
 30
0.0
 11
331.673767
 21
456.345267
 31
0.0
  0
LINE
  8
LC-004-003-----0
  6
CONTINUOUS
  5
13D
 10
331.611485
 20
457.295497
 30
0.0
 11
352.154223
 21
460.0
 31
0.0
  0
LINE
  8
LC-004-003-----0
  6
CONTINUOUS
  5
13E
 10
352.154223
 20
460.0
 30
0.0
 11
331.611485
 21
462.704503
 31
0.0
  0
LINE
  8
LC-004-003-----0
  6
CONTINUOUS
  5
13F
 10
331.549204
 20
458.245728
 30
0.0
 11
344.874223
 21
460.0
 31
0.0
  0
LINE
  8
LC-004-003-----0
  6
CONTINUOUS
  5
140
 10
344.874223
 20
460.0
 30
0.0
 11
331.549204
 21
461.754272
 31
0.0
  0
LINE
  8
LC-004-003-----0
  6
CONTINUOUS
  5
141
 10
331.486923
 20
459.195959
 30
0.0
 11
337.594223
 21
460.0
 31
0.0
  0
LINE
  8
LC-004-003-----0
  6
CONTINUOUS
  5
142
 10
337.594223
 20
460.0
 30
0.0
 11
331.486923
 21
460.804041
 31
0.0
  0
TEXT
  8
LC-004-003-----0
  6
CONTINUOUS
 62
     8
  5
143
 10
246.362383
 20
467.827554
 30
0.0
 40
28.0
  1
Ø155
 51
15.0
  7
LC-TXTSTYLE-150-400-0-0-D0
  0
ENDBLK
  8
0
  5
144
  0
BLOCK
  8
0
  5
146
  2
*D14
 70
    65
 10
0.0
 20
0.0
 30
0.0
  3
*D14
  0
LINE
  8
LC-005-003-MTH-0
  6
CONTINUOUS
  5
147
 10
202.434223
 20
389.579099
 30
0.0
 11
163.2
 21
389.579099
 31
0.0
  0
LINE
  8
LC-005-003-MTH-0
  6
CONTINUOUS
  5
148
 10
205.934223
 20
399.579099
 30
0.0
 11
163.2
 21
399.579099
 31
0.0
  0
LINE
  8
LC-004-003-----0
  6
CONTINUOUS
  5
149
 10
183.654733
 20
361.818643
 30
0.0
 11
180.0
 21
389.579099
 31
0.0
  0
LINE
  8
LC-004-003-----0
  6
CONTINUOUS
  5
14A
 10
180.0
 20
389.579099
 30
0.0
 11
176.345267
 21
361.818643
 31
0.0
  0
LINE
  8
LC-004-003-----0
  6
CONTINUOUS
  5
14B
 10
176.345267
 20
361.818643
 30
0.0
 11
183.654733
 21
361.818643
 31
0.0
  0
LINE
  8
LC-004-003-----0
  6
CONTINUOUS
  5
14C
 10
182.704503
 20
361.756362
 30
0.0
 11
180.0
 21
382.299099
 31
0.0
  0
LINE
  8
LC-004-003-----0
  6
CONTINUOUS
  5
14D
 10
180.0
 20
382.299099
 30
0.0
 11
177.295497
 21
361.756362
 31
0.0
  0
LINE
  8
LC-004-003-----0
  6
CONTINUOUS
  5
14E
 10
181.754272
 20
361.694081
 30
0.0
 11
180.0
 21
375.019099
 31
0.0
  0
LINE
  8
LC-004-003-----0
  6
CONTINUOUS
  5
14F
 10
180.0
 20
375.019099
 30
0.0
 11
178.245728
 21
361.694081
 31
0.0
  0
LINE
  8
LC-004-003-----0
  6
CONTINUOUS
  5
150
 10
180.804041
 20
361.631799
 30
0.0
 11
180.0
 21
367.739099
 31
0.0
  0
LINE
  8
LC-004-003-----0
  6
CONTINUOUS
  5
151
 10
180.0
 20
367.739099
 30
0.0
 11
179.195959
 21
361.631799
 31
0.0
  0
LINE
  8
LC-004-003-----0
  6
CONTINUOUS
  5
152
 10
176.345267
 20
427.339556
 30
0.0
 11
180.0
 21
399.579099
 31
0.0
  0
LINE
  8
LC-004-003-----0
  6
CONTINUOUS
  5
153
 10
180.0
 20
399.579099
 30
0.0
 11
183.654733
 21
427.339556
 31
0.0
  0
LINE
  8
LC-004-003-----0
  6
CONTINUOUS
  5
154
 10
183.654733
 20
427.339556
 30
0.0
 11
176.345267
 21
427.339556
 31
0.0
  0
LINE
  8
LC-004-003-----0
  6
CONTINUOUS
  5
155
 10
177.295497
 20
427.401837
 30
0.0
 11
180.0
 21
406.859099
 31
0.0
  0
LINE
  8
LC-004-003-----0
  6
CONTINUOUS
  5
156
 10
180.0
 20
406.859099
 30
0.0
 11
182.704503
 21
427.401837
 31
0.0
  0
LINE
  8
LC-004-003-----0
  6
CONTINUOUS
  5
157
 10
178.245728
 20
427.464118
 30
0.0
 11
180.0
 21
414.139099
 31
0.0
  0
LINE
  8
LC-004-003-----0
  6
CONTINUOUS
  5
158
 10
180.0
 20
414.139099
 30
0.0
 11
181.754272
 21
427.464118
 31
0.0
  0
LINE
  8
LC-004-003-----0
  6
CONTINUOUS
  5
159
 10
179.195959
 20
427.5264
 30
0.0
 11
180.0
 21
421.419099
 31
0.0
  0
LINE
  8
LC-004-003-----0
  6
CONTINUOUS
  5
15A
 10
180.0
 20
421.419099
 30
0.0
 11
180.804041
 21
427.5264
 31
0.0
  0
LINE
  8
LC-006-003-MTG-0
  6
CONTINUOUS
  5
15B
 10
180.0
 20
350.379099
 30
0.0
 11
180.0
 21
465.341299
 31
0.0
  0
TEXT
  8
LC-004-003-----0
  6
CONTINUOUS
 62
     8
  5
15C
 10
172.172446
 20
442.007259
 30
0.0
 40
28.0
  1
7
 50
90.0
 51
15.0
  7
LC-TXTSTYLE-150-400-0-0-D0
  0
ENDBLK
  8
0
  5
15D
  0
BLOCK
  8
0
  5
15F
  2
*D15
 70
    65
 10
0.0
 20
0.0
 30
0.0
  3
*D15
  0
LINE
  8
LC-005-003-MTH-0
  6
CONTINUOUS
  5
160
 10
209.184223
 20
396.579099
 30
0.0
 11
209.184223
 21
436.8
 31
0.0
  0
LINE
  8
LC-005-003-MTH-0
  6
CONTINUOUS
  5
161
 10
354.184223
 20
396.579099
 30
0.0
 11
354.184223
 21
436.8
 31
0.0
  0
LINE
  8
LC-006-003-MTG-0
  6
CONTINUOUS
  5
162
 10
209.184223
 20
420.0
 30
0.0
 11
354.184223
 21
420.0
 31
0.0
  0
LINE
  8
LC-004-003-----0
  6
CONTINUOUS
  5
163
 10
236.944679
 20
423.654733
 30
0.0
 11
209.184223
 21
420.0
 31
0.0
  0
LINE
  8
LC-004-003-----0
  6
CONTINUOUS
  5
164
 10
209.184223
 20
420.0
 30
0.0
 11
236.944679
 21
416.345267
 31
0.0
  0
LINE
  8
LC-004-003-----0
  6
CONTINUOUS
  5
165
 10
236.944679
 20
416.345267
 30
0.0
 11
236.944679
 21
423.654733
 31
0.0
  0
LINE
  8
LC-004-003-----0
  6
CONTINUOUS
  5
166
 10
237.00696
 20
422.704503
 30
0.0
 11
216.464223
 21
420.0
 31
0.0
  0
LINE
  8
LC-004-003-----0
  6
CONTINUOUS
  5
167
 10
216.464223
 20
420.0
 30
0.0
 11
237.00696
 21
417.295497
 31
0.0
  0
LINE
  8
LC-004-003-----0
  6
CONTINUOUS
  5
168
 10
237.069242
 20
421.754272
 30
0.0
 11
223.744223
 21
420.0
 31
0.0
  0
LINE
  8
LC-004-003-----0
  6
CONTINUOUS
  5
169
 10
223.744223
 20
420.0
 30
0.0
 11
237.069242
 21
418.245728
 31
0.0
  0
LINE
  8
LC-004-003-----0
  6
CONTINUOUS
  5
16A
 10
237.131523
 20
420.804041
 30
0.0
 11
231.024223
 21
420.0
 31
0.0
  0
LINE
  8
LC-004-003-----0
  6
CONTINUOUS
  5
16B
 10
231.024223
 20
420.0
 30
0.0
 11
237.131523
 21
419.195959
 31
0.0
  0
LINE
  8
LC-004-003-----0
  6
CONTINUOUS
  5
16C
 10
326.423767
 20
416.345267
 30
0.0
 11
354.184223
 21
420.0
 31
0.0
  0
LINE
  8
LC-004-003-----0
  6
CONTINUOUS
  5
16D
 10
354.184223
 20
420.0
 30
0.0
 11
326.423767
 21
423.654733
 31
0.0
  0
LINE
  8
LC-004-003-----0
  6
CONTINUOUS
  5
16E
 10
326.423767
 20
423.654733
 30
0.0
 11
326.423767
 21
416.345267
 31
0.0
  0
LINE
  8
LC-004-003-----0
  6
CONTINUOUS
  5
16F
 10
326.361485
 20
417.295497
 30
0.0
 11
346.904223
 21
420.0
 31
0.0
  0
LINE
  8
LC-004-003-----0
  6
CONTINUOUS
  5
170
 10
346.904223
 20
420.0
 30
0.0
 11
326.361485
 21
422.704503
 31
0.0
  0
LINE
  8
LC-004-003-----0
  6
CONTINUOUS
  5
171
 10
326.299204
 20
418.245728
 30
0.0
 11
339.624223
 21
420.0
 31
0.0
  0
LINE
  8
LC-004-003-----0
  6
CONTINUOUS
  5
172
 10
339.624223
 20
420.0
 30
0.0
 11
326.299204
 21
421.754272
 31
0.0
  0
LINE
  8
LC-004-003-----0
  6
CONTINUOUS
  5
173
 10
326.236923
 20
419.195959
 30
0.0
 11
332.344223
 21
420.0
 31
0.0
  0
LINE
  8
LC-004-003-----0
  6
CONTINUOUS
  5
174
 10
332.344223
 20
420.0
 30
0.0
 11
326.236923
 21
420.804041
 31
0.0
  0
TEXT
  8
LC-004-003-----0
  6
CONTINUOUS
 62
     8
  5
175
 10
247.934745
 20
427.827554
 30
0.0
 40
28.0
  1
Ø145
 51
15.0
  7
LC-TXTSTYLE-150-400-0-0-D0
 72
     1
 11
286.032383
 21
427.827554
 31
0.0
  0
ENDBLK
  8
0
  5
176
  0
BLOCK
  8
0
  5
178
  2
BLK1
 70
    64
 10
0.0
 20
0.0
 30
0.0
  3
BLK1
  0
ENDBLK
  8
0
  5
179
  0
BLOCK
  8
0
  5
17B
  2
BLK2
 70
    64
 10
0.0
 20
0.0
 30
0.0
  3
BLK2
  0
ENDBLK
  8
0
  5
17C
  0
BLOCK
  8
0
  5
17E
  2
BLK3
 70
    64
 10
0.0
 20
0.0
 30
0.0
  3
BLK3
  0
ENDBLK
  8
0
  5
17F
  0
BLOCK
  8
0
  5
181
  2
*X19
 70
    65
 10
212.060188
 20
249.579099
 30
0.0
  3
*X19
  0
LINE
  8
LC-001-005-----0
  6
CONTINUOUS
  5
182
 10
277.863371
 20
249.579099
 30
0.0
 11
281.684223
 21
253.399952
 31
0.0
  0
LINE
  8
LC-001-005-----0
  6
CONTINUOUS
  5
183
 10
272.206516
 20
249.579099
 30
0.0
 11
281.684223
 21
259.056806
 31
0.0
  0
LINE
  8
LC-001-005-----0
  6
CONTINUOUS
  5
184
 10
266.549662
 20
249.579099
 30
0.0
 11
281.684223
 21
264.71366
 31
0.0
  0
LINE
  8
LC-001-005-----0
  6
CONTINUOUS
  5
185
 10
260.892808
 20
249.579099
 30
0.0
 11
281.684223
 21
270.370514
 31
0.0
  0
LINE
  8
LC-001-005-----0
  6
CONTINUOUS
  5
186
 10
255.235954
 20
249.579099
 30
0.0
 11
278.235954
 21
272.579099
 31
0.0
  0
LINE
  8
LC-001-005-----0
  6
CONTINUOUS
  5
187
 10
249.579099
 20
249.579099
 30
0.0
 11
272.579099
 21
272.579099
 31
0.0
  0
LINE
  8
LC-001-005-----0
  6
CONTINUOUS
  5
188
 10
243.922245
 20
249.579099
 30
0.0
 11
266.922245
 21
272.579099
 31
0.0
  0
LINE
  8
LC-001-005-----0
  6
CONTINUOUS
  5
189
 10
238.265391
 20
249.579099
 30
0.0
 11
261.265391
 21
272.579099
 31
0.0
  0
LINE
  8
LC-001-005-----0
  6
CONTINUOUS
  5
18A
 10
232.608537
 20
249.579099
 30
0.0
 11
255.608537
 21
272.579099
 31
0.0
  0
LINE
  8
LC-001-005-----0
  6
CONTINUOUS
  5
18B
 10
226.951682
 20
249.579099
 30
0.0
 11
249.951682
 21
272.579099
 31
0.0
  0
LINE
  8
LC-001-005-----0
  6
CONTINUOUS
  5
18C
 10
221.294828
 20
249.579099
 30
0.0
 11
244.294828
 21
272.579099
 31
0.0
  0
LINE
  8
LC-001-005-----0
  6
CONTINUOUS
  5
18D
 10
215.637974
 20
249.579099
 30
0.0
 11
238.637974
 21
272.579099
 31
0.0
  0
LINE
  8
LC-001-005-----0
  6
CONTINUOUS
  5
18E
 10
212.060188
 20
251.658167
 30
0.0
 11
232.98112
 21
272.579099
 31
0.0
  0
LINE
  8
LC-001-005-----0
  6
CONTINUOUS
  5
18F
 10
212.060188
 20
257.315022
 30
0.0
 11
227.324265
 21
272.579099
 31
0.0
  0
LINE
  8
LC-001-005-----0
  6
CONTINUOUS
  5
190
 10
212.060188
 20
262.971876
 30
0.0
 11
221.667411
 21
272.579099
 31
0.0
  0
LINE
  8
LC-001-005-----0
  6
CONTINUOUS
  5
191
 10
212.060188
 20
268.62873
 30
0.0
 11
216.010557
 21
272.579099
 31
0.0
  0
LINE
  8
LC-001-005-----0
  6
CONTINUOUS
  5
192
 10
281.684223
 20
267.030639
 30
0.0
 11
276.135763
 21
272.579099
 31
0.0
  0
LINE
  8
LC-001-005-----0
  6
CONTINUOUS
  5
193
 10
281.684223
 20
261.373785
 30
0.0
 11
270.478908
 21
272.579099
 31
0.0
  0
LINE
  8
LC-001-005-----0
  6
CONTINUOUS
  5
194
 10
281.684223
 20
255.716931
 30
0.0
 11
264.822054
 21
272.579099
 31
0.0
  0
LINE
  8
LC-001-005-----0
  6
CONTINUOUS
  5
195
 10
281.684223
 20
250.060076
 30
0.0
 11
259.1652
 21
272.579099
 31
0.0
  0
LINE
  8
LC-001-005-----0
  6
CONTINUOUS
  5
196
 10
276.508346
 20
249.579099
 30
0.0
 11
253.508346
 21
272.579099
 31
0.0
  0
LINE
  8
LC-001-005-----0
  6
CONTINUOUS
  5
197
 10
270.851491
 20
249.579099
 30
0.0
 11
247.851491
 21
272.579099
 31
0.0
  0
LINE
  8
LC-001-005-----0
  6
CONTINUOUS
  5
198
 10
265.194637
 20
249.579099
 30
0.0
 11
242.194637
 21
272.579099
 31
0.0
  0
LINE
  8
LC-001-005-----0
  6
CONTINUOUS
  5
199
 10
259.537783
 20
249.579099
 30
0.0
 11
236.537783
 21
272.579099
 31
0.0
  0
LINE
  8
LC-001-005-----0
  6
CONTINUOUS
  5
19A
 10
253.880929
 20
249.579099
 30
0.0
 11
230.880929
 21
272.579099
 31
0.0
  0
LINE
  8
LC-001-005-----0
  6
CONTINUOUS
  5
19B
 10
248.224074
 20
249.579099
 30
0.0
 11
225.224074
 21
272.579099
 31
0.0
  0
LINE
  8
LC-001-005-----0
  6
CONTINUOUS
  5
19C
 10
242.56722
 20
249.579099
 30
0.0
 11
219.56722
 21
272.579099
 31
0.0
  0
LINE
  8
LC-001-005-----0
  6
CONTINUOUS
  5
19D
 10
236.910366
 20
249.579099
 30
0.0
 11
213.910366
 21
272.579099
 31
0.0
  0
LINE
  8
LC-001-005-----0
  6
CONTINUOUS
  5
19E
 10
231.253512
 20
249.579099
 30
0.0
 11
212.060188
 21
268.772424
 31
0.0
  0
LINE
  8
LC-001-005-----0
  6
CONTINUOUS
  5
19F
 10
225.596657
 20
249.579099
 30
0.0
 11
212.060188
 21
263.115569
 31
0.0
  0
LINE
  8
LC-001-005-----0
  6
CONTINUOUS
  5
1A0
 10
219.939803
 20
249.579099
 30
0.0
 11
212.060188
 21
257.458715
 31
0.0
  0
LINE
  8
LC-001-005-----0
  6
CONTINUOUS
  5
1A1
 10
214.282949
 20
249.579099
 30
0.0
 11
212.060188
 21
251.801861
 31
0.0
  0
ENDBLK
  8
0
  5
1A2
  0
BLOCK
  8
0
  5
1A4
  2
*X20
 70
    65
 10
281.684223
 20
249.579099
 30
0.0
  3
*X20
  0
LINE
  8
LC-001-005-----0
  6
CONTINUOUS
  5
1A5
 10
345.745622
 20
249.579099
 30
0.0
 11
351.308258
 21
255.141736
 31
0.0
  0
LINE
  8
LC-001-005-----0
  6
CONTINUOUS
  5
1A6
 10
340.088767
 20
249.579099
 30
0.0
 11
351.308258
 21
260.79859
 31
0.0
  0
LINE
  8
LC-001-005-----0
  6
CONTINUOUS
  5
1A7
 10
334.431913
 20
249.579099
 30
0.0
 11
351.308258
 21
266.455445
 31
0.0
  0
LINE
  8
LC-001-005-----0
  6
CONTINUOUS
  5
1A8
 10
328.775059
 20
249.579099
 30
0.0
 11
351.308258
 21
272.112299
 31
0.0
  0
LINE
  8
LC-001-005-----0
  6
CONTINUOUS
  5
1A9
 10
323.118205
 20
249.579099
 30
0.0
 11
346.118205
 21
272.579099
 31
0.0
  0
LINE
  8
LC-001-005-----0
  6
CONTINUOUS
  5
1AA
 10
317.46135
 20
249.579099
 30
0.0
 11
340.46135
 21
272.579099
 31
0.0
  0
LINE
  8
LC-001-005-----0
  6
CONTINUOUS
  5
1AB
 10
311.804496
 20
249.579099
 30
0.0
 11
334.804496
 21
272.579099
 31
0.0
  0
LINE
  8
LC-001-005-----0
  6
CONTINUOUS
  5
1AC
 10
306.147642
 20
249.579099
 30
0.0
 11
329.147642
 21
272.579099
 31
0.0
  0
LINE
  8
LC-001-005-----0
  6
CONTINUOUS
  5
1AD
 10
300.490788
 20
249.579099
 30
0.0
 11
323.490788
 21
272.579099
 31
0.0
  0
LINE
  8
LC-001-005-----0
  6
CONTINUOUS
  5
1AE
 10
294.833933
 20
249.579099
 30
0.0
 11
317.833933
 21
272.579099
 31
0.0
  0
LINE
  8
LC-001-005-----0
  6
CONTINUOUS
  5
1AF
 10
289.177079
 20
249.579099
 30
0.0
 11
312.177079
 21
272.579099
 31
0.0
  0
LINE
  8
LC-001-005-----0
  6
CONTINUOUS
  5
1B0
 10
283.520225
 20
249.579099
 30
0.0
 11
306.520225
 21
272.579099
 31
0.0
  0
LINE
  8
LC-001-005-----0
  6
CONTINUOUS
  5
1B1
 10
281.684223
 20
253.399952
 30
0.0
 11
300.863371
 21
272.579099
 31
0.0
  0
LINE
  8
LC-001-005-----0
  6
CONTINUOUS
  5
1B2
 10
281.684223
 20
259.056806
 30
0.0
 11
295.206516
 21
272.579099
 31
0.0
  0
LINE
  8
LC-001-005-----0
  6
CONTINUOUS
  5
1B3
 10
281.684223
 20
264.71366
 30
0.0
 11
289.549662
 21
272.579099
 31
0.0
  0
LINE
  8
LC-001-005-----0
  6
CONTINUOUS
  5
1B4
 10
281.684223
 20
270.370514
 30
0.0
 11
283.892808
 21
272.579099
 31
0.0
  0
LINE
  8
LC-001-005-----0
  6
CONTINUOUS
  5
1B5
 10
351.308258
 20
270.945709
 30
0.0
 11
349.674868
 21
272.579099
 31
0.0
  0
LINE
  8
LC-001-005-----0
  6
CONTINUOUS
  5
1B6
 10
351.308258
 20
265.288855
 30
0.0
 11
344.018014
 21
272.579099
 31
0.0
  0
LINE
  8
LC-001-005-----0
  6
CONTINUOUS
  5
1B7
 10
351.308258
 20
259.632001
 30
0.0
 11
338.361159
 21
272.579099
 31
0.0
  0
LINE
  8
LC-001-005-----0
  6
CONTINUOUS
  5
1B8
 10
351.308258
 20
253.975146
 30
0.0
 11
332.704305
 21
272.579099
 31
0.0
  0
LINE
  8
LC-001-005-----0
  6
CONTINUOUS
  5
1B9
 10
350.047451
 20
249.579099
 30
0.0
 11
327.047451
 21
272.579099
 31
0.0
  0
LINE
  8
LC-001-005-----0
  6
CONTINUOUS
  5
1BA
 10
344.390597
 20
249.579099
 30
0.0
 11
321.390597
 21
272.579099
 31
0.0
  0
LINE
  8
LC-001-005-----0
  6
CONTINUOUS
  5
1BB
 10
338.733742
 20
249.579099
 30
0.0
 11
315.733742
 21
272.579099
 31
0.0
  0
LINE
  8
LC-001-005-----0
  6
CONTINUOUS
  5
1BC
 10
333.076888
 20
249.579099
 30
0.0
 11
310.076888
 21
272.579099
 31
0.0
  0
LINE
  8
LC-001-005-----0
  6
CONTINUOUS
  5
1BD
 10
327.420034
 20
249.579099
 30
0.0
 11
304.420034
 21
272.579099
 31
0.0
  0
LINE
  8
LC-001-005-----0
  6
CONTINUOUS
  5
1BE
 10
321.76318
 20
249.579099
 30
0.0
 11
298.76318
 21
272.579099
 31
0.0
  0
LINE
  8
LC-001-005-----0
  6
CONTINUOUS
  5
1BF
 10
316.106325
 20
249.579099
 30
0.0
 11
293.106325
 21
272.579099
 31
0.0
  0
LINE
  8
LC-001-005-----0
  6
CONTINUOUS
  5
1C0
 10
310.449471
 20
249.579099
 30
0.0
 11
287.449471
 21
272.579099
 31
0.0
  0
LINE
  8
LC-001-005-----0
  6
CONTINUOUS
  5
1C1
 10
304.792617
 20
249.579099
 30
0.0
 11
281.792617
 21
272.579099
 31
0.0
  0
LINE
  8
LC-001-005-----0
  6
CONTINUOUS
  5
1C2
 10
299.135763
 20
249.579099
 30
0.0
 11
281.684223
 21
267.030639
 31
0.0
  0
LINE
  8
LC-001-005-----0
  6
CONTINUOUS
  5
1C3
 10
293.478908
 20
249.579099
 30
0.0
 11
281.684223
 21
261.373785
 31
0.0
  0
LINE
  8
LC-001-005-----0
  6
CONTINUOUS
  5
1C4
 10
287.822054
 20
249.579099
 30
0.0
 11
281.684223
 21
255.716931
 31
0.0
  0
LINE
  8
LC-001-005-----0
  6
CONTINUOUS
  5
1C5
 10
282.1652
 20
249.579099
 30
0.0
 11
281.684223
 21
250.060076
 31
0.0
  0
ENDBLK
  8
0
  5
1C6
  0
BLOCK
  8
0
  5
1C8
  2
*D21
 70
    65
 10
0.0
 20
0.0
 30
0.0
  3
*D21
  0
LINE
  8
LC-005-003-MTH-0
  6
CONTINUOUS
  5
1C9
 10
353.978711
 20
249.579099
 30
0.0
 11
408.8
 21
249.579099
 31
0.0
  0
LINE
  8
LC-005-003-MTH-0
  6
CONTINUOUS
  5
1CA
 10
351.308258
 20
272.579099
 30
0.0
 11
408.8
 21
272.579099
 31
0.0
  0
LINE
  8
LC-004-003-----0
  6
CONTINUOUS
  5
1CB
 10
395.654733
 20
221.818643
 30
0.0
 11
392.0
 21
249.579099
 31
0.0
  0
LINE
  8
LC-004-003-----0
  6
CONTINUOUS
  5
1CC
 10
392.0
 20
249.579099
 30
0.0
 11
388.345267
 21
221.818643
 31
0.0
  0
LINE
  8
LC-004-003-----0
  6
CONTINUOUS
  5
1CD
 10
388.345267
 20
221.818643
 30
0.0
 11
395.654733
 21
221.818643
 31
0.0
  0
LINE
  8
LC-004-003-----0
  6
CONTINUOUS
  5
1CE
 10
394.704503
 20
221.756362
 30
0.0
 11
392.0
 21
242.299099
 31
0.0
  0
LINE
  8
LC-004-003-----0
  6
CONTINUOUS
  5
1CF
 10
392.0
 20
242.299099
 30
0.0
 11
389.295497
 21
221.756362
 31
0.0
  0
LINE
  8
LC-004-003-----0
  6
CONTINUOUS
  5
1D0
 10
393.754272
 20
221.694081
 30
0.0
 11
392.0
 21
235.019099
 31
0.0
  0
LINE
  8
LC-004-003-----0
  6
CONTINUOUS
  5
1D1
 10
392.0
 20
235.019099
 30
0.0
 11
390.245728
 21
221.694081
 31
0.0
  0
LINE
  8
LC-004-003-----0
  6
CONTINUOUS
  5
1D2
 10
392.804041
 20
221.631799
 30
0.0
 11
392.0
 21
227.739099
 31
0.0
  0
LINE
  8
LC-004-003-----0
  6
CONTINUOUS
  5
1D3
 10
392.0
 20
227.739099
 30
0.0
 11
391.195959
 21
221.631799
 31
0.0
  0
LINE
  8
LC-004-003-----0
  6
CONTINUOUS
  5
1D4
 10
388.345267
 20
300.339556
 30
0.0
 11
392.0
 21
272.579099
 31
0.0
  0
LINE
  8
LC-004-003-----0
  6
CONTINUOUS
  5
1D5
 10
392.0
 20
272.579099
 30
0.0
 11
395.654733
 21
300.339556
 31
0.0
  0
LINE
  8
LC-004-003-----0
  6
CONTINUOUS
  5
1D6
 10
395.654733
 20
300.339556
 30
0.0
 11
388.345267
 21
300.339556
 31
0.0
  0
LINE
  8
LC-004-003-----0
  6
CONTINUOUS
  5
1D7
 10
389.295497
 20
300.401837
 30
0.0
 11
392.0
 21
279.859099
 31
0.0
  0
LINE
  8
LC-004-003-----0
  6
CONTINUOUS
  5
1D8
 10
392.0
 20
279.859099
 30
0.0
 11
394.704503
 21
300.401837
 31
0.0
  0
LINE
  8
LC-004-003-----0
  6
CONTINUOUS
  5
1D9
 10
390.245728
 20
300.464118
 30
0.0
 11
392.0
 21
287.139099
 31
0.0
  0
LINE
  8
LC-004-003-----0
  6
CONTINUOUS
  5
1DA
 10
392.0
 20
287.139099
 30
0.0
 11
393.754272
 21
300.464118
 31
0.0
  0
LINE
  8
LC-004-003-----0
  6
CONTINUOUS
  5
1DB
 10
391.195959
 20
300.5264
 30
0.0
 11
392.0
 21
294.419099
 31
0.0
  0
LINE
  8
LC-004-003-----0
  6
CONTINUOUS
  5
1DC
 10
392.0
 20
294.419099
 30
0.0
 11
392.804041
 21
300.5264
 31
0.0
  0
LINE
  8
LC-006-003-MTG-0
  6
CONTINUOUS
  5
1DD
 10
392.0
 20
210.379099
 30
0.0
 11
392.0
 21
355.943499
 31
0.0
  0
TEXT
  8
LC-004-003-----0
  6
CONTINUOUS
 62
     8
  5
1DE
 10
384.172446
 20
315.007259
 30
0.0
 40
28.0
  1
23
 50
90.0
 51
15.0
  7
LC-TXTSTYLE-150-400-0-0-D0
  0
ENDBLK
  8
0
  5
1DF
  0
BLOCK
  8
0
  5
1E1
  2
*D22
 70
    65
 10
0.0
 20
0.0
 30
0.0
  3
*D22
  0
LINE
  8
LC-005-003-MTH-0
  6
CONTINUOUS
  5
1E2
 10
351.308258
 20
272.579099
 30
0.0
 11
448.0
 21
272.579099
 31
0.0
  0
LINE
  8
LC-005-003-MTH-0
  6
CONTINUOUS
  5
1E3
 10
356.934223
 20
399.579099
 30
0.0
 11
448.0
 21
399.579099
 31
0.0
  0
LINE
  8
LC-006-003-MTG-0
  6
CONTINUOUS
  5
1E4
 10
431.2
 20
272.579099
 30
0.0
 11
431.2
 21
399.579099
 31
0.0
  0
LINE
  8
LC-004-003-----0
  6
CONTINUOUS
  5
1E5
 10
427.545267
 20
300.339556
 30
0.0
 11
431.2
 21
272.579099
 31
0.0
  0
LINE
  8
LC-004-003-----0
  6
CONTINUOUS
  5
1E6
 10
431.2
 20
272.579099
 30
0.0
 11
434.854733
 21
300.339556
 31
0.0
  0
LINE
  8
LC-004-003-----0
  6
CONTINUOUS
  5
1E7
 10
434.854733
 20
300.339556
 30
0.0
 11
427.545267
 21
300.339556
 31
0.0
  0
LINE
  8
LC-004-003-----0
  6
CONTINUOUS
  5
1E8
 10
428.495497
 20
300.401837
 30
0.0
 11
431.2
 21
279.859099
 31
0.0
  0
LINE
  8
LC-004-003-----0
  6
CONTINUOUS
  5
1E9
 10
431.2
 20
279.859099
 30
0.0
 11
433.904503
 21
300.401837
 31
0.0
  0
LINE
  8
LC-004-003-----0
  6
CONTINUOUS
  5
1EA
 10
429.445728
 20
300.464118
 30
0.0
 11
431.2
 21
287.139099
 31
0.0
  0
LINE
  8
LC-004-003-----0
  6
CONTINUOUS
  5
1EB
 10
431.2
 20
287.139099
 30
0.0
 11
432.954272
 21
300.464118
 31
0.0
  0
LINE
  8
LC-004-003-----0
  6
CONTINUOUS
  5
1EC
 10
430.395959
 20
300.5264
 30
0.0
 11
431.2
 21
294.419099
 31
0.0
  0
LINE
  8
LC-004-003-----0
  6
CONTINUOUS
  5
1ED
 10
431.2
 20
294.419099
 30
0.0
 11
432.004041
 21
300.5264
 31
0.0
  0
LINE
  8
LC-004-003-----0
  6
CONTINUOUS
  5
1EE
 10
434.854733
 20
371.818643
 30
0.0
 11
431.2
 21
399.579099
 31
0.0
  0
LINE
  8
LC-004-003-----0
  6
CONTINUOUS
  5
1EF
 10
431.2
 20
399.579099
 30
0.0
 11
427.545267
 21
371.818643
 31
0.0
  0
LINE
  8
LC-004-003-----0
  6
CONTINUOUS
  5
1F0
 10
427.545267
 20
371.818643
 30
0.0
 11
434.854733
 21
371.818643
 31
0.0
  0
LINE
  8
LC-004-003-----0
  6
CONTINUOUS
  5
1F1
 10
433.904503
 20
371.756362
 30
0.0
 11
431.2
 21
392.299099
 31
0.0
  0
LINE
  8
LC-004-003-----0
  6
CONTINUOUS
  5
1F2
 10
431.2
 20
392.299099
 30
0.0
 11
428.495497
 21
371.756362
 31
0.0
  0
LINE
  8
LC-004-003-----0
  6
CONTINUOUS
  5
1F3
 10
432.954272
 20
371.694081
 30
0.0
 11
431.2
 21
385.019099
 31
0.0
  0
LINE
  8
LC-004-003-----0
  6
CONTINUOUS
  5
1F4
 10
431.2
 20
385.019099
 30
0.0
 11
429.445728
 21
371.694081
 31
0.0
  0
LINE
  8
LC-004-003-----0
  6
CONTINUOUS
  5
1F5
 10
432.004041
 20
371.631799
 30
0.0
 11
431.2
 21
377.739099
 31
0.0
  0
LINE
  8
LC-004-003-----0
  6
CONTINUOUS
  5
1F6
 10
431.2
 20
377.739099
 30
0.0
 11
430.395959
 21
371.631799
 31
0.0
  0
TEXT
  8
LC-004-003-----0
  6
CONTINUOUS
 62
     8
  5
1F7
 10
423.372446
 20
286.753244
 30
0.0
 40
28.0
  1
5-127
 50
90.0
 51
15.0
  7
LC-TXTSTYLE-150-400-0-0-D0
 72
     1
 11
423.372446
 21
340.427259
 31
0.0
  0
ENDBLK
  8
0
  5
1F8
  0
ENDSEC
  0
SECTION
  2
ENTITIES
  0
VIEWPORT
  8
LC-000
  5
309
 67
     1
 68
     1
 10
420.0
 20
297.0
 30
0.0
 40
840.0
 41
594.0
 69
     1
1001
ACAD
1000
MVIEW
1002
{
1070
    16
1010
0.0
1020
0.0
1030
0.0
1010
0.0
1020
0.0
1030
1.0
1040
0.0
1040
594.0
1040
420.0
1040
297.0
1040
50.0
1040
0.0
1040
0.0
1070
     0
1070
   100
1070
     1
1070
     1
1070
     0
1070
     0
1070
     0
1070
     0
1040
0.0
1040
0.0
1040
0.0
1040
1.0
1040
1.0
1040
0.0
1040
0.0
1070
     0
1002
{
1002
}
1002
}
  0
VIEWPORT
  8
0
  5
30A
 67
     1
 68
     1
 10
0.0
 20
0.0
 30
0.0
 40
0.0
 41
0.0
 69
     1
1001
ACAD
1000
MVIEW
1002
{
1070
    16
1010
0.0
1020
0.0
1030
0.0
1010
0.0
1020
0.0
1030
1.0
1040
0.0
1040
594.0
1040
0.0
1040
0.0
1040
50.0
1040
0.0
1040
0.0
1070
     0
1070
   100
1070
     0
1070
     1
1070
     0
1070
     0
1070
     0
1070
     0
1040
0.0
1040
0.0
1040
0.0
1040
0.5
1040
0.5
1040
0.5
1040
0.5
1070
     0
1002
{
1002
}
1002
}
  0
INSERT
  8
0
  5
1F9
  2
*X0
 10
208.934221
 20
249.579099
 30
0.0
  0
INSERT
  8
0
  5
1FA
  2
*X1
 10
281.684223
 20
393.579099
 30
0.0
  0
INSERT
  8
0
  5
1FB
  2
*X2
 10
312.184223
 20
393.579099
 30
0.0
  0
INSERT
  8
0
  5
1FC
  2
*X3
 10
344.184223
 20
393.579099
 30
0.0
  0
INSERT
  8
0
  5
1FD
  2
*X4
 10
328.184223
 20
393.579099
 30
0.0
  0
INSERT
  8
0
  5
1FE
  2
*X5
 10
201.934223
 20
374.579099
 30
0.0
  0
INSERT
  8
0
  5
1FF
  2
*X6
 10
341.934223
 20
374.579099
 30
0.0
  0
INSERT
  8
0
  5
200
  2
*X7
 10
258.184223
 20
393.579099
 30
0.0
  0
INSERT
  8
0
  5
201
  2
*X8
 10
242.184223
 20
393.579099
 30
0.0
  0
INSERT
  8
0
  5
202
  2
*X9
 10
209.184223
 20
393.579099
 30
0.0
  0
INSERT
  8
0
  5
203
  2
*X10
 10
226.184223
 20
393.579099
 30
0.0
  0
INSERT
  8
0
  5
204
  2
*X11
 10
342.934223
 20
249.579099
 30
0.0
  0
DIMENSION
  8
0
  5
205
  2
*D12
 10
281.684223
 20
196.0
 30
0.0
 11
281.684223
 21
196.0
 31
0.0
  1
%%c145
 13
208.934221
 23
251.2791
 33
0.0
 14
354.434225
 24
251.2791
 34
0.0
  3
LC-DIM-L-0140-02-02
  0
DIMENSION
  8
0
  5
206
  2
*D13
 10
273.803969
 20
460.0
 30
0.0
 11
273.803969
 21
460.0
 31
0.0
  1
%%c155
 13
203.934223
 23
397.579099
 33
0.0
 14
359.434223
 24
397.579099
 34
0.0
  3
LC-DIM-L-0140-02-02
  0
DIMENSION
  8
0
  5
207
  2
*D14
 10
180.0
 20
414.018
 30
0.0
 11
180.0
 21
414.018
 31
0.0
  1
7
 13
205.934223
 23
399.579099
 33
0.0
 14
202.434223
 24
389.579099
 34
0.0
 50
90.0
  3
LC-DIM-L-0140-02-02
  0
DIMENSION
  8
0
  5
208
  2
*D15
 10
281.684223
 20
420.0
 30
0.0
 11
281.684223
 21
420.0
 31
0.0
  1
%%c<>
 13
209.184223
 23
396.579099
 33
0.0
 14
354.184223
 24
396.579099
 34
0.0
  3
LC-DIM-L-0140-02-02
  0
INSERT
  8
0
  5
20A
  2
BLK1
 10
0.0
 20
0.0
 30
0.0
  0
INSERT
  8
0
  5
20B
  2
BLK2
 10
0.0
 20
0.0
 30
0.0
  0
INSERT
  8
0
  5
20C
  2
BLK3
 10
0.0
 20
0.0
 30
0.0
  0
INSERT
  8
0
  5
20D
  2
*X19
 10
212.060188
 20
249.579099
 30
0.0
  0
INSERT
  8
0
  5
20E
  2
*X20
 10
281.684223
 20
249.579099
 30
0.0
  0
DIMENSION
  8
0
  5
20F
  2
*D21
 10
392.0
 20
261.079099
 30
0.0
 11
392.0
 21
261.079099
 31
0.0
 13
353.978711
 23
249.579099
 33
0.0
 14
351.308258
 24
272.579099
 34
0.0
 50
90.0
  3
LC-DIM-L-0140-02-02
  0
DIMENSION
  8
0
  5
210
  2
*D22
 10
431.2
 20
336.079099
 30
0.0
 11
431.2
 21
336.079099
 31
0.0
  1
5-127
 13
351.308258
 23
272.579099
 33
0.0
 14
356.934223
 24
399.579099
 34
0.0
 50
90.0
  3
LC-DIM-L-0140-02-02
  0
LINE
  8
LC-002-002-----0
  6
CONTINUOUS
  5
212
 10
342.93426
 20
382.06449
 30
0.0
 11
345.63426
 21
382.06449
 31
0.0
  0
LINE
  8
LC-002-002-----0
  6
CONTINUOUS
  5
213
 10
345.63426
 20
382.06449
 30
0.0
 11
345.63426
 21
388.864964
 31
0.0
  0
ARC
  8
LC-002-002-----0
  6
CONTINUOUS
  5
214
 10
217.934223
 20
390.500786
 30
0.0
 40
2.5
 50
359.999776
 51
90.0
  0
LINE
  8
LC-002-002-----0
  6
CONTINUOUS
  5
215
 10
220.434186
 20
382.06449
 30
0.0
 11
217.734186
 21
382.06449
 31
0.0
  0
LINE
  8
LC-002-002-----0
  6
CONTINUOUS
  5
216
 10
215.747424
 20
391.114463
 30
0.0
 11
214.060188
 21
391.114463
 31
0.0
  0
ARC
  8
LC-003-002-RND-0
  6
CONTINUOUS
  5
218
 10
214.060188
 20
389.114463
 30
0.0
 40
2.0
 50
90.0
 51
180.0
  0
ARC
  8
LC-002-002-----0
  6
CONTINUOUS
  5
219
 10
347.884358
 20
388.864964
 30
0.0
 40
2.249509
 50
90.0
 51
180.0
  0
ARC
  8
LC-003-002-RND-0
  6
CONTINUOUS
  5
21A
 10
349.308258
 20
389.114463
 30
0.0
 40
2.0
 50
0.0
 51
90.0
  0
LINE
  8
LC-002-002-----0
  6
CONTINUOUS
  5
21B
 10
221.146348
 20
374.579099
 30
0.0
 11
343.053341
 21
374.579099
 31
0.0
  0
LINE
  8
LC-002-002-----0
  6
CONTINUOUS
  5
21C
 10
281.684223
 20
399.579099
 30
0.0
 11
281.684223
 21
398.579099
 31
0.0
  0
LINE
  8
LC-002-002-----0
  6
DASHDOT
 62
     2
  5
21E
 10
281.684223
 20
399.579099
 30
0.0
 11
281.684223
 21
249.579099
 31
0.0
  0
LINE
  8
LC-002-002-----0
  6
CONTINUOUS
  5
21F
 10
312.184223
 20
396.579099
 30
0.0
 11
312.184223
 21
394.579099
 31
0.0
  0
LINE
  8
LC-002-002-----0
  6
CONTINUOUS
  5
220
 10
343.634223
 20
393.079099
 30
0.0
 11
354.434223
 21
393.079099
 31
0.0
  0
LINE
  8
LC-002-002-----0
  6
CONTINUOUS
  5
221
 10
360.934223
 20
390.579099
 30
0.0
 11
360.934223
 21
389.579099
 31
0.0
  0
LINE
  8
LC-002-002-----0
  6
CONTINUOUS
  5
222
 10
202.434223
 20
390.579099
 30
0.0
 11
202.434223
 21
389.579099
 31
0.0
  0
LINE
  8
LC-002-002-----0
  6
CONTINUOUS
  5
223
 10
336.184223
 20
394.579099
 30
0.0
 11
337.184223
 21
394.579099
 31
0.0
  0
LINE
  8
LC-002-002-----0
  6
CONTINUOUS
  5
224
 10
220.315105
 20
374.579099
 30
0.0
 11
221.319877
 21
374.579099
 31
0.0
  0
LINE
  8
LC-002-002-----0
  6
CONTINUOUS
  5
225
 10
360.934223
 20
389.579099
 30
0.0
 11
359.934223
 21
389.579099
 31
0.0
  0
LINE
  8
LC-002-002-----0
  6
CONTINUOUS
  5
226
 10
360.934223
 20
390.579099
 30
0.0
 11
359.934223
 21
390.579099
 31
0.0
  0
ARC
  8
LC-002-002-----0
  6
CONTINUOUS
  5
227
 10
359.934223
 20
391.079099
 30
0.0
 40
0.5
 50
180.0
 51
270.0
  0
ARC
  8
LC-002-002-----0
  6
CONTINUOUS
  5
228
 10
359.934223
 20
391.079099
 30
0.0
 40
1.5
 50
180.0
 51
270.0
  0
LINE
  8
LC-002-002-----0
  6
CONTINUOUS
  5
229
 10
359.434223
 20
397.579099
 30
0.0
 11
359.434223
 21
391.079099
 31
0.0
  0
LINE
  8
LC-002-002-----0
  6
CONTINUOUS
  5
22A
 10
358.434223
 20
397.579099
 30
0.0
 11
358.434223
 21
391.079099
 31
0.0
  0
LINE
  8
LC-002-002-----0
  6
CONTINUOUS
  5
22B
 10
212.060188
 20
389.114463
 30
0.0
 11
212.060188
 21
249.579099
 31
0.0
  0
LINE
  8
LC-002-002-----0
  6
CONTINUOUS
  5
22C
 10
347.621022
 20
391.114463
 30
0.0
 11
349.308258
 21
391.114463
 31
0.0
  0
ARC
  8
LC-002-002-----0
  6
CONTINUOUS
  5
22D
 10
357.434223
 20
397.579099
 30
0.0
 40
2.0
 50
0.0
 51
90.0
  0
ARC
  8
LC-002-002-----0
  6
CONTINUOUS
  5
22E
 10
357.434223
 20
397.579099
 30
0.0
 40
1.0
 50
0.0
 51
90.0
  0
LINE
  8
LC-002-002-----0
  6
CONTINUOUS
  5
22F
 10
356.809523
 20
398.579099
 30
0.0
 11
357.434223
 21
398.579099
 31
0.0
  0
LINE
  8
LC-002-002-----0
  6
CONTINUOUS
  5
230
 10
356.934223
 20
399.579099
 30
0.0
 11
357.434223
 21
399.579099
 31
0.0
  0
ARC
  8
LC-002-002-----0
  6
CONTINUOUS
  5
231
 10
356.934223
 20
397.579099
 30
0.0
 40
2.0
 50
90.0
 51
180.0
  0
ARC
  8
LC-002-002-----0
  6
CONTINUOUS
  5
232
 10
356.934223
 20
397.579099
 30
0.0
 40
1.0
 50
90.0
 51
180.0
  0
LINE
  8
LC-002-002-----0
  6
CONTINUOUS
  5
233
 10
355.934223
 20
397.579099
 30
0.0
 11
355.934223
 21
394.579099
 31
0.0
  0
LINE
  8
LC-002-002-----0
  6
CONTINUOUS
  5
234
 10
354.934223
 20
397.579099
 30
0.0
 11
354.934223
 21
394.079099
 31
0.0
  0
ARC
  8
LC-003-002-RND-0
  6
CONTINUOUS
  5
235
 10
354.434223
 20
394.579099
 30
0.0
 40
1.5
 50
270.0
 51
0.0
  0
ARC
  8
LC-003-002-RND-0
  6
CONTINUOUS
  5
236
 10
208.934223
 20
394.579099
 30
0.0
 40
1.5
 50
180.0
 51
270.0
  0
LINE
  8
LC-002-002-----0
  6
CONTINUOUS
  5
237
 10
251.184223
 20
396.579099
 30
0.0
 11
251.184223
 21
394.579099
 31
0.0
  0
LINE
  8
LC-002-002-----0
  6
CONTINUOUS
  5
238
 10
241.684223
 20
399.579099
 30
0.0
 11
281.684223
 21
399.579099
 31
0.0
  0
LINE
  8
LC-002-002-----0
  6
CONTINUOUS
  5
239
 10
259.184223
 20
396.579099
 30
0.0
 11
259.184223
 21
394.579099
 31
0.0
  0
ARC
  8
LC-002-002-----0
  6
CONTINUOUS
  5
23A
 10
261.184223
 20
396.579099
 30
0.0
 40
2.0
 50
90.0
 51
180.0
  0
LINE
  8
LC-002-002-----0
  6
CONTINUOUS
  5
23B
 10
250.184223
 20
394.579099
 30
0.0
 11
250.184223
 21
396.579099
 31
0.0
  0
LINE
  8
LC-002-002-----0
  6
CONTINUOUS
  5
23C
 10
232.184223
 20
398.579099
 30
0.0
 11
229.184223
 21
398.579099
 31
0.0
  0
LINE
  8
LC-002-002-----0
  6
CONTINUOUS
  5
23D
 10
217.268502
 20
399.579099
 30
0.0
 11
233.184223
 21
399.579099
 31
0.0
  0
ARC
  8
LC-002-002-----0
  6
CONTINUOUS
  5
23E
 10
248.184223
 20
396.579099
 30
0.0
 40
3.0
 50
0.0
 51
90.0
  0
LINE
  8
LC-002-002-----0
  6
CONTINUOUS
  5
23F
 10
243.184223
 20
396.579099
 30
0.0
 11
243.184223
 21
394.579099
 31
0.0
  0
LINE
  8
LC-002-002-----0
  6
CONTINUOUS
  5
240
 10
218.184223
 20
394.579099
 30
0.0
 11
218.184223
 21
396.579099
 31
0.0
  0
LINE
  8
LC-002-002-----0
  6
CONTINUOUS
  5
241
 10
219.184223
 20
394.579099
 30
0.0
 11
219.184223
 21
396.579099
 31
0.0
  0
ARC
  8
LC-002-002-----0
  6
CONTINUOUS
  5
242
 10
232.184223
 20
396.579099
 30
0.0
 40
3.0
 50
0.0
 51
90.0
  0
LINE
  8
LC-002-002-----0
  6
CONTINUOUS
  5
243
 10
227.184223
 20
396.579099
 30
0.0
 11
227.184223
 21
394.579099
 31
0.0
  0
ARC
  8
LC-002-002-----0
  6
CONTINUOUS
  5
244
 10
245.184223
 20
396.579099
 30
0.0
 40
2.0
 50
90.0
 51
180.0
  0
ARC
  8
LC-002-002-----0
  6
CONTINUOUS
  5
245
 10
229.184223
 20
396.579099
 30
0.0
 40
2.0
 50
90.0
 51
180.0
  0
ARC
  8
LC-002-002-----0
  6
CONTINUOUS
  5
246
 10
216.184223
 20
396.579099
 30
0.0
 40
2.0
 50
0.0
 51
90.0
  0
ARC
  8
LC-002-002-----0
  6
CONTINUOUS
  5
247
 10
212.184223
 20
396.579099
 30
0.0
 40
2.0
 50
90.0
 51
180.0
  0
LINE
  8
LC-002-002-----0
  6
CONTINUOUS
  5
248
 10
210.184223
 20
396.579099
 30
0.0
 11
210.184223
 21
394.579099
 31
0.0
  0
ARC
  8
LC-002-002-----0
  6
CONTINUOUS
  5
249
 10
216.184223
 20
396.579099
 30
0.0
 40
3.0
 50
0.0
 51
90.0
  0
ARC
  8
LC-002-002-----0
  6
CONTINUOUS
  5
24A
 10
212.184223
 20
396.579099
 30
0.0
 40
3.0
 50
90.0
 51
180.0
  0
LINE
  8
LC-002-002-----0
  6
CONTINUOUS
  5
24B
 10
216.184223
 20
398.579099
 30
0.0
 11
212.184223
 21
398.579099
 31
0.0
  0
ARC
  8
LC-002-002-----0
  6
CONTINUOUS
  5
24C
 10
232.184223
 20
396.579099
 30
0.0
 40
2.0
 50
0.0
 51
90.0
  0
LINE
  8
LC-002-002-----0
  6
CONTINUOUS
  5
24D
 10
234.184223
 20
394.579099
 30
0.0
 11
234.184223
 21
396.579099
 31
0.0
  0
ARC
  8
LC-002-002-----0
  6
CONTINUOUS
  5
24E
 10
248.184223
 20
396.579099
 30
0.0
 40
2.0
 50
0.0
 51
90.0
  0
LINE
  8
LC-002-002-----0
  6
CONTINUOUS
  5
24F
 10
245.184223
 20
398.579099
 30
0.0
 11
248.184223
 21
398.579099
 31
0.0
  0
LINE
  8
LC-002-002-----0
  6
CONTINUOUS
  5
250
 10
261.184223
 20
398.579099
 30
0.0
 11
281.684223
 21
398.579099
 31
0.0
  0
LINE
  8
LC-002-002-----0
  6
CONTINUOUS
  5
251
 10
217.184223
 20
399.579099
 30
0.0
 11
212.184223
 21
399.579099
 31
0.0
  0
ARC
  8
LC-002-002-----0
  6
CONTINUOUS
  5
252
 10
229.184223
 20
396.579099
 30
0.0
 40
3.0
 50
90.0
 51
180.0
  0
LINE
  8
LC-002-002-----0
  6
CONTINUOUS
  5
253
 10
232.497557
 20
399.579099
 30
0.0
 11
241.684223
 21
399.579099
 31
0.0
  0
ARC
  8
LC-002-002-----0
  6
CONTINUOUS
  5
254
 10
245.184223
 20
396.579099
 30
0.0
 40
3.0
 50
90.0
 51
180.0
  0
ARC
  8
LC-002-002-----0
  6
CONTINUOUS
  5
255
 10
261.184223
 20
396.579099
 30
0.0
 40
3.0
 50
90.0
 51
180.0
  0
LINE
  8
LC-002-002-----0
  6
CONTINUOUS
  5
256
 10
226.184223
 20
396.579099
 30
0.0
 11
226.184223
 21
394.579099
 31
0.0
  0
LINE
  8
LC-002-002-----0
  6
CONTINUOUS
  5
257
 10
235.184223
 20
394.579099
 30
0.0
 11
235.184223
 21
396.579099
 31
0.0
  0
LINE
  8
LC-002-002-----0
  6
CONTINUOUS
  5
258
 10
242.184223
 20
396.579099
 30
0.0
 11
242.184223
 21
394.579099
 31
0.0
  0
LINE
  8
LC-002-002-----0
  6
CONTINUOUS
  5
259
 10
258.184223
 20
396.579099
 30
0.0
 11
258.184223
 21
394.579099
 31
0.0
  0
LINE
  8
LC-002-002-----0
  6
CONTINUOUS
  5
25A
 10
281.684223
 20
394.579099
 30
0.0
 11
230.372222
 21
394.579099
 31
0.0
  0
LINE
  8
LC-002-002-----0
  6
CONTINUOUS
  5
25B
 10
230.684223
 20
394.579099
 30
0.0
 11
209.184223
 21
394.579099
 31
0.0
  0
LINE
  8
LC-002-002-----0
  6
CONTINUOUS
  5
25C
 10
209.184223
 20
396.579099
 30
0.0
 11
209.184223
 21
394.579099
 31
0.0
  0
CIRCLE
  8
LC-002-002-----0
  6
CONTINUOUS
  5
25D
 10
533.392083
 20
324.579099
 30
0.0
 40
77.5
  0
CIRCLE
  8
LC-002-002-----0
  6
CONTINUOUS
  5
25E
 10
533.392083
 20
324.579099
 30
0.0
 40
79.0
  0
CIRCLE
  8
LC-002-002-----0
  6
CONTINUOUS
  5
25F
 10
533.392083
 20
324.579099
 30
0.0
 40
72.5
  0
LINE
  8
LC-002-002-----0
  6
CONTINUOUS
  5
260
 10
508.734427
 20
332.079099
 30
0.0
 11
508.734427
 21
332.079099
 31
0.0
  0
ARC
  8
LC-003-002-RND-0
  6
CONTINUOUS
  5
261
 10
475.426576
 20
335.579099
 30
0.0
 40
3.5
 50
270.0
 51
349.254861
  0
LINE
  8
LC-002-002-----0
  6
CONTINUOUS
  5
262
 10
525.892083
 20
349.236755
 30
0.0
 11
525.892083
 21
349.236755
 31
0.0
  0
ARC
  8
LC-002-002-----0
  6
CONTINUOUS
  5
263
 10
533.392083
 20
324.579099
 30
0.0
 40
23.5
 50
114.042076
 51
155.957924
  0
ARC
  8
LC-002-002-----0
  6
CONTINUOUS
  5
264
 10
533.392083
 20
324.579099
 30
0.0
 40
30.5
 50
114.042076
 51
155.957924
  0
ARC
  8
LC-003-002-RND-0
  6
CONTINUOUS
  5
265
 10
508.734427
 20
335.579099
 30
0.0
 40
3.5
 50
155.957924
 51
270.0
  0
ARC
  8
LC-003-002-RND-0
  6
CONTINUOUS
  5
266
 10
508.734427
 20
335.579099
 30
0.0
 40
3.5
 50
270.0
 51
335.957924
  0
ARC
  8
LC-003-002-RND-0
  6
CONTINUOUS
  5
267
 10
522.392083
 20
349.236755
 30
0.0
 40
3.5
 50
0.0
 51
114.042076
  0
ARC
  8
LC-003-002-RND-0
  6
CONTINUOUS
  5
268
 10
522.392083
 20
349.236755
 30
0.0
 40
3.5
 50
294.042076
 51
0.0
  0
LINE
  8
LC-002-002-----0
  6
CONTINUOUS
  5
269
 10
475.426576
 20
332.079099
 30
0.0
 11
475.426576
 21
332.079099
 31
0.0
  0
LINE
  8
LC-002-002-----0
  6
CONTINUOUS
  5
26A
 10
525.892083
 20
366.148319
 30
0.0
 11
525.892083
 21
366.148319
 31
0.0
  0
ARC
  8
LC-002-002-----0
  6
CONTINUOUS
  5
26B
 10
533.392083
 20
324.579099
 30
0.0
 40
39.5
 50
104.821821
 51
165.178179
  0
ARC
  8
LC-002-002-----0
  6
CONTINUOUS
  5
26C
 10
533.392083
 20
324.579099
 30
0.0
 40
46.5
 50
104.821821
 51
165.178179
  0
ARC
  8
LC-003-002-RND-0
  6
CONTINUOUS
  5
26D
 10
491.822863
 20
335.579099
 30
0.0
 40
3.5
 50
165.178179
 51
270.0
  0
ARC
  8
LC-003-002-RND-0
  6
CONTINUOUS
  5
26E
 10
491.822863
 20
335.579099
 30
0.0
 40
3.5
 50
270.0
 51
345.178179
  0
ARC
  8
LC-003-002-RND-0
  6
CONTINUOUS
  5
26F
 10
522.392083
 20
366.148319
 30
0.0
 40
3.5
 50
284.821821
 51
0.0
  0
LINE
  8
LC-002-002-----0
  6
CONTINUOUS
  5
270
 10
208.934221
 20
251.2791
 30
0.0
 11
209.389734
 21
249.579099
 31
0.0
  0
ARC
  8
LC-003-002-RND-0
  6
CONTINUOUS
  5
271
 10
522.392083
 20
366.148319
 30
0.0
 40
3.5
 50
0.0
 51
104.821821
  0
LINE
  8
LC-002-002-----0
  6
CONTINUOUS
  5
272
 10
525.892083
 20
382.544606
 30
0.0
 11
525.892083
 21
382.544606
 31
0.0
  0
ARC
  8
LC-002-002-----0
  6
CONTINUOUS
  5
273
 10
533.392083
 20
324.579099
 30
0.0
 40
55.5
 50
100.745139
 51
169.254861
  0
ARC
  8
LC-002-002-----0
  6
CONTINUOUS
  5
274
 10
533.392083
 20
324.579099
 30
0.0
 40
62.5
 50
100.745139
 51
169.254861
  0
ARC
  8
LC-003-002-RND-0
  6
CONTINUOUS
  5
275
 10
475.426576
 20
335.579099
 30
0.0
 40
3.5
 50
169.254861
 51
270.0
  0
ARC
  8
LC-003-002-RND-0
  6
CONTINUOUS
  5
276
 10
522.392083
 20
382.544606
 30
0.0
 40
3.5
 50
280.745139
 51
0.0
  0
ARC
  8
LC-003-002-RND-0
  6
CONTINUOUS
  5
277
 10
522.392083
 20
382.544606
 30
0.0
 40
3.5
 50
0.0
 51
100.745139
  0
LINE
  8
LC-002-002-----0
  6
CONTINUOUS
  5
278
 10
558.049739
 20
332.079099
 30
0.0
 11
558.049739
 21
332.079099
 31
0.0
  0
ARC
  8
LC-003-002-RND-0
  6
CONTINUOUS
  5
279
 10
591.35759
 20
335.579099
 30
0.0
 40
3.5
 50
190.745139
 51
270.0
  0
LINE
  8
LC-002-002-----0
  6
CONTINUOUS
  5
27A
 10
540.892083
 20
349.236755
 30
0.0
 11
540.892083
 21
349.236755
 31
0.0
  0
ARC
  8
LC-002-002-----0
  6
CONTINUOUS
  5
27B
 10
533.392083
 20
324.579099
 30
0.0
 40
23.5
 50
24.042076
 51
65.957924
  0
ARC
  8
LC-002-002-----0
  6
CONTINUOUS
  5
27C
 10
533.392083
 20
324.579099
 30
0.0
 40
30.5
 50
24.042076
 51
65.957924
  0
ARC
  8
LC-003-002-RND-0
  6
CONTINUOUS
  5
27D
 10
558.049739
 20
335.579099
 30
0.0
 40
3.5
 50
270.0
 51
24.042076
  0
ARC
  8
LC-003-002-RND-0
  6
CONTINUOUS
  5
27E
 10
558.049739
 20
335.579099
 30
0.0
 40
3.5
 50
204.042076
 51
270.0
  0
ARC
  8
LC-003-002-RND-0
  6
CONTINUOUS
  5
27F
 10
544.392083
 20
349.236755
 30
0.0
 40
3.5
 50
65.957924
 51
180.0
  0
ARC
  8
LC-003-002-RND-0
  6
CONTINUOUS
  5
280
 10
544.392083
 20
349.236755
 30
0.0
 40
3.5
 50
180.0
 51
245.957924
  0
LINE
  8
LC-002-002-----0
  6
CONTINUOUS
  5
281
 10
591.35759
 20
332.079099
 30
0.0
 11
591.35759
 21
332.079099
 31
0.0
  0
ARC
  8
LC-002-002-----0
  6
CONTINUOUS
  5
282
 10
533.392083
 20
324.579099
 30
0.0
 40
39.5
 50
14.821821
 51
75.178179
  0
ARC
  8
LC-002-002-----0
  6
CONTINUOUS
  5
283
 10
533.392083
 20
324.579099
 30
0.0
 40
46.5
 50
14.821821
 51
75.178179
  0
ARC
  8
LC-003-002-RND-0
  6
CONTINUOUS
  5
284
 10
574.961302
 20
335.579099
 30
0.0
 40
3.5
 50
270.0
 51
14.821821
  0
ARC
  8
LC-003-002-RND-0
  6
CONTINUOUS
  5
285
 10
574.961302
 20
335.579099
 30
0.0
 40
3.5
 50
194.821821
 51
270.0
  0
ARC
  8
LC-002-002-----0
  6
CONTINUOUS
  5
286
 10
533.392083
 20
324.579099
 30
0.0
 40
55.5
 50
10.745139
 51
79.254861
  0
ARC
  8
LC-002-002-----0
  6
CONTINUOUS
  5
287
 10
533.392083
 20
324.579099
 30
0.0
 40
62.5
 50
10.745139
 51
79.254861
  0
ARC
  8
LC-003-002-RND-0
  6
CONTINUOUS
  5
288
 10
591.35759
 20
335.579099
 30
0.0
 40
3.5
 50
270.0
 51
10.745139
  0
ARC
  8
LC-003-002-RND-0
  6
CONTINUOUS
  5
289
 10
544.392083
 20
366.148319
 30
0.0
 40
3.5
 50
180.0
 51
255.178179
  0
ARC
  8
LC-003-002-RND-0
  6
CONTINUOUS
  5
28A
 10
544.392083
 20
366.148319
 30
0.0
 40
3.5
 50
75.178179
 51
180.0
  0
LINE
  8
LC-002-002-----0
  6
CONTINUOUS
  5
28B
 10
354.434225
 20
251.2791
 30
0.0
 11
353.978711
 21
249.579099
 31
0.0
  0
ARC
  8
LC-003-002-RND-0
  6
CONTINUOUS
  5
28C
 10
544.392083
 20
382.544606
 30
0.0
 40
3.5
 50
180.0
 51
259.254861
  0
ARC
  8
LC-003-002-RND-0
  6
CONTINUOUS
  5
28D
 10
544.392083
 20
382.544606
 30
0.0
 40
3.5
 50
79.254861
 51
180.0
  0
LINE
  8
LC-002-002-----0
  6
CONTINUOUS
  5
28E
 10
508.734427
 20
317.079099
 30
0.0
 11
508.734427
 21
317.079099
 31
0.0
  0
ARC
  8
LC-003-002-RND-0
  6
CONTINUOUS
  5
28F
 10
475.426576
 20
313.579099
 30
0.0
 40
3.5
 50
10.745139
 51
90.0
  0
ARC
  8
LC-002-002-----0
  6
CONTINUOUS
  5
290
 10
533.392083
 20
324.579099
 30
0.0
 40
23.5
 50
204.042076
 51
245.957924
  0
ARC
  8
LC-002-002-----0
  6
CONTINUOUS
  5
291
 10
533.392083
 20
324.579099
 30
0.0
 40
30.5
 50
204.042076
 51
245.957924
  0
ARC
  8
LC-003-002-RND-0
  6
CONTINUOUS
  5
292
 10
508.734427
 20
313.579099
 30
0.0
 40
3.5
 50
90.0
 51
204.042076
  0
ARC
  8
LC-003-002-RND-0
  6
CONTINUOUS
  5
293
 10
508.734427
 20
313.579099
 30
0.0
 40
3.5
 50
24.042076
 51
90.0
  0
LINE
  8
LC-002-002-----0
  6
CONTINUOUS
  5
294
 10
475.426576
 20
317.079099
 30
0.0
 11
475.426576
 21
317.079099
 31
0.0
  0
ARC
  8
LC-002-002-----0
  6
CONTINUOUS
  5
295
 10
533.392083
 20
324.579099
 30
0.0
 40
39.5
 50
194.821821
 51
255.178179
  0
LINE
  8
LC-002-002-----0
  6
CONTINUOUS
  5
296
 10
353.978711
 20
249.579099
 30
0.0
 11
209.389734
 21
249.579099
 31
0.0
  0
ARC
  8
LC-002-002-----0
  6
CONTINUOUS
  5
297
 10
533.392083
 20
324.579099
 30
0.0
 40
46.5
 50
194.821821
 51
255.178179
  0
ARC
  8
LC-003-002-RND-0
  6
CONTINUOUS
  5
298
 10
491.822863
 20
313.579099
 30
0.0
 40
3.5
 50
90.0
 51
194.821821
  0
ARC
  8
LC-003-002-RND-0
  6
CONTINUOUS
  5
299
 10
491.822863
 20
313.579099
 30
0.0
 40
3.5
 50
14.821821
 51
90.0
  0
ARC
  8
LC-002-002-----0
  6
CONTINUOUS
  5
29A
 10
533.392083
 20
324.579099
 30
0.0
 40
55.5
 50
190.745139
 51
259.254861
  0
ARC
  8
LC-002-002-----0
  6
CONTINUOUS
  5
29B
 10
533.392083
 20
324.579099
 30
0.0
 40
62.5
 50
190.745139
 51
259.254861
  0
ARC
  8
LC-003-002-RND-0
  6
CONTINUOUS
  5
29C
 10
475.426576
 20
313.579099
 30
0.0
 40
3.5
 50
90.0
 51
190.745139
  0
LINE
  8
LC-002-002-----0
  6
CONTINUOUS
  5
29D
 10
558.049739
 20
317.079099
 30
0.0
 11
558.049739
 21
317.079099
 31
0.0
  0
ARC
  8
LC-003-002-RND-0
  6
CONTINUOUS
  5
29E
 10
591.35759
 20
313.579099
 30
0.0
 40
3.5
 50
90.0
 51
169.254861
  0
LINE
  8
LC-002-002-----0
  6
CONTINUOUS
  5
29F
 10
540.892083
 20
299.921443
 30
0.0
 11
540.892083
 21
299.921443
 31
0.0
  0
ARC
  8
LC-002-002-----0
  6
CONTINUOUS
  5
2A0
 10
533.392083
 20
324.579099
 30
0.0
 40
23.5
 50
294.042076
 51
335.957924
  0
ARC
  8
LC-002-002-----0
  6
CONTINUOUS
  5
2A1
 10
533.392083
 20
324.579099
 30
0.0
 40
30.5
 50
294.042076
 51
335.957924
  0
ARC
  8
LC-003-002-RND-0
  6
CONTINUOUS
  5
2A2
 10
558.049739
 20
313.579099
 30
0.0
 40
3.5
 50
335.957924
 51
90.0
  0
ARC
  8
LC-003-002-RND-0
  6
CONTINUOUS
  5
2A3
 10
558.049739
 20
313.579099
 30
0.0
 40
3.5
 50
90.0
 51
155.957924
  0
ARC
  8
LC-003-002-RND-0
  6
CONTINUOUS
  5
2A4
 10
544.392083
 20
299.921443
 30
0.0
 40
3.5
 50
180.0
 51
294.042076
  0
ARC
  8
LC-003-002-RND-0
  6
CONTINUOUS
  5
2A5
 10
544.392083
 20
299.921443
 30
0.0
 40
3.5
 50
114.042076
 51
180.0
  0
LINE
  8
LC-002-002-----0
  6
CONTINUOUS
  5
2A6
 10
591.35759
 20
317.079099
 30
0.0
 11
591.35759
 21
317.079099
 31
0.0
  0
ARC
  8
LC-002-002-----0
  6
CONTINUOUS
  5
2A7
 10
533.392083
 20
324.579099
 30
0.0
 40
39.5
 50
284.821821
 51
345.178179
  0
ARC
  8
LC-002-002-----0
  6
CONTINUOUS
  5
2A8
 10
533.392083
 20
324.579099
 30
0.0
 40
46.5
 50
284.821821
 51
345.178179
  0
ARC
  8
LC-003-002-RND-0
  6
CONTINUOUS
  5
2A9
 10
574.961302
 20
313.579099
 30
0.0
 40
3.5
 50
345.178179
 51
90.0
  0
LINE
  8
LC-002-002-----0
  6
CONTINUOUS
  5
2AA
 10
203.934223
 20
397.579099
 30
0.0
 11
203.934223
 21
391.079099
 31
0.0
  0
ARC
  8
LC-003-002-RND-0
  6
CONTINUOUS
  5
2AB
 10
574.961302
 20
313.579099
 30
0.0
 40
3.5
 50
90.0
 51
165.178179
  0
ARC
  8
LC-002-002-----0
  6
CONTINUOUS
  5
2AC
 10
203.434223
 20
391.079099
 30
0.0
 40
0.5
 50
270.0
 51
0.0
  0
ARC
  8
LC-002-002-----0
  6
CONTINUOUS
  5
2AD
 10
533.392083
 20
324.579099
 30
0.0
 40
55.5
 50
280.745139
 51
349.254861
  0
ARC
  8
LC-002-002-----0
  6
CONTINUOUS
  5
2AE
 10
533.392083
 20
324.579099
 30
0.0
 40
62.5
 50
280.745139
 51
349.254861
  0
ARC
  8
LC-003-002-RND-0
  6
CONTINUOUS
  5
2AF
 10
591.35759
 20
313.579099
 30
0.0
 40
3.5
 50
349.254861
 51
90.0
  0
ARC
  8
LC-003-002-RND-0
  6
CONTINUOUS
  5
2B0
 10
522.392083
 20
299.921443
 30
0.0
 40
3.5
 50
245.957924
 51
0.0
  0
ARC
  8
LC-003-002-RND-0
  6
CONTINUOUS
  5
2B1
 10
522.392083
 20
299.921443
 30
0.0
 40
3.5
 50
0.0
 51
65.957924
  0
ARC
  8
LC-003-002-RND-0
  6
CONTINUOUS
  5
2B2
 10
522.392083
 20
283.00988
 30
0.0
 40
3.5
 50
0.0
 51
75.178179
  0
ARC
  8
LC-003-002-RND-0
  6
CONTINUOUS
  5
2B3
 10
522.392083
 20
283.00988
 30
0.0
 40
3.5
 50
255.178179
 51
0.0
  0
ARC
  8
LC-003-002-RND-0
  6
CONTINUOUS
  5
2B4
 10
522.392083
 20
266.613592
 30
0.0
 40
3.5
 50
0.0
 51
79.254861
  0
ARC
  8
LC-003-002-RND-0
  6
CONTINUOUS
  5
2B5
 10
522.392083
 20
266.613592
 30
0.0
 40
3.5
 50
259.254861
 51
0.0
  0
ARC
  8
LC-003-002-RND-0
  6
CONTINUOUS
  5
2B6
 10
544.392083
 20
283.00988
 30
0.0
 40
3.5
 50
104.821821
 51
180.0
  0
ARC
  8
LC-003-002-RND-0
  6
CONTINUOUS
  5
2B7
 10
544.392083
 20
283.00988
 30
0.0
 40
3.5
 50
180.0
 51
284.821821
  0
ARC
  8
LC-003-002-RND-0
  6
CONTINUOUS
  5
2B8
 10
544.392083
 20
266.613592
 30
0.0
 40
3.5
 50
100.745139
 51
180.0
  0
ARC
  8
LC-003-002-RND-0
  6
CONTINUOUS
  5
2B9
 10
544.392083
 20
266.613592
 30
0.0
 40
3.5
 50
180.0
 51
280.745139
  0
LINE
  8
LC-002-002-----0
  6
CONTINUOUS
  5
2BA
 10
202.434223
 20
390.579099
 30
0.0
 11
203.434223
 21
390.579099
 31
0.0
  0
LINE
  8
LC-002-002-----0
  6
CONTINUOUS
  5
2BB
 10
204.934223
 20
397.579099
 30
0.0
 11
204.934223
 21
391.079099
 31
0.0
  0
ARC
  8
LC-002-002-----0
  6
CONTINUOUS
  5
2BC
 10
203.434223
 20
391.079099
 30
0.0
 40
1.5
 50
270.0
 51
0.0
  0
LINE
  8
LC-002-002-----0
  6
CONTINUOUS
  5
2BD
 10
202.434223
 20
389.579099
 30
0.0
 11
203.434223
 21
389.579099
 31
0.0
  0
LINE
  8
LC-002-002-----0
  6
CONTINUOUS
  5
2BE
 10
341.934223
 20
393.329099
 30
0.0
 11
341.934223
 21
381.942803
 31
0.0
  0
LINE
  8
LC-002-002-----0
  6
CONTINUOUS
  5
2BF
 10
220.219499
 20
378.079099
 30
0.0
 11
343.116865
 21
378.079099
 31
0.0
  0
LINE
  8
LC-002-002-----0
  6
CONTINUOUS
  5
2C0
 10
220.434223
 20
381.942803
 30
0.0
 11
219.219775
 21
378.234723
 31
0.0
  0
LINE
  8
LC-002-002-----0
  6
CONTINUOUS
  5
2C1
 10
206.558922
 20
398.579099
 30
0.0
 11
205.934223
 21
398.579099
 31
0.0
  0
ARC
  8
LC-002-002-----0
  6
CONTINUOUS
  5
2C2
 10
205.934223
 20
397.579099
 30
0.0
 40
2.0
 50
90.0
 51
180.0
  0
ARC
  8
LC-002-002-----0
  6
CONTINUOUS
  5
2C3
 10
206.434223
 20
397.579099
 30
0.0
 40
1.0
 50
0.0
 51
90.0
  0
ARC
  8
LC-002-002-----0
  6
CONTINUOUS
  5
2C4
 10
205.934223
 20
397.579099
 30
0.0
 40
1.0
 50
90.0
 51
180.0
  0
ARC
  8
LC-002-002-----0
  6
CONTINUOUS
  5
2C5
 10
219.69494
 20
378.079099
 30
0.0
 40
0.5
 50
161.86566
 51
198.13434
  0
LINE
  8
LC-002-002-----0
  6
CONTINUOUS
  5
2C6
 10
342.934223
 20
392.329099
 30
0.0
 11
342.934223
 21
381.942803
 31
0.0
  0
LINE
  8
LC-002-002-----0
  6
CONTINUOUS
  5
2C7
 10
220.434223
 20
392.079099
 30
0.0
 11
220.434223
 21
381.942803
 31
0.0
  0
LINE
  8
LC-002-002-----0
  6
CONTINUOUS
  5
2C8
 10
208.434223
 20
394.079099
 30
0.0
 11
354.97494
 21
394.079099
 31
0.0
  0
ARC
  8
LC-002-002-----0
  6
CONTINUOUS
  5
2C9
 10
219.434223
 20
392.079099
 30
0.0
 40
1.0
 50
0.0
 51
90.0
  0
LINE
  8
LC-002-002-----0
  6
CONTINUOUS
  5
2CA
 10
221.434223
 20
381.942803
 30
0.0
 11
220.219499
 21
378.079099
 31
0.0
  0
LINE
  8
LC-002-002-----0
  6
CONTINUOUS
  5
2CB
 10
220.315105
 20
374.579099
 30
0.0
 11
219.219775
 21
377.923476
 31
0.0
  0
ARC
  8
LC-002-002-----0
  6
CONTINUOUS
  5
2CC
 10
219.434223
 20
392.079099
 30
0.0
 40
2.0
 50
0.0
 51
90.0
  0
LINE
  8
LC-002-002-----0
  6
CONTINUOUS
  5
2CD
 10
207.434223
 20
397.579099
 30
0.0
 11
207.434223
 21
394.579099
 31
0.0
  0
LINE
  8
LC-002-002-----0
  6
CONTINUOUS
  5
2CE
 10
221.434223
 20
392.079099
 30
0.0
 11
221.434223
 21
381.942803
 31
0.0
  0
ARC
  8
LC-002-002-----0
  6
CONTINUOUS
  5
2CF
 10
206.434223
 20
397.579099
 30
0.0
 40
2.0
 50
0.0
 51
90.0
  0
LINE
  8
LC-002-002-----0
  6
CONTINUOUS
  5
2D0
 10
208.934223
 20
393.079099
 30
0.0
 11
217.47917
 21
393.079099
 31
0.0
  0
LINE
  8
LC-002-002-----0
  6
CONTINUOUS
  5
2D1
 10
208.434223
 20
397.579099
 30
0.0
 11
208.434223
 21
394.079099
 31
0.0
  0
ARC
  8
LC-002-002-----0
  6
CONTINUOUS
  5
2D2
 10
343.684223
 20
392.329099
 30
0.0
 40
0.75
 50
90.0
 51
180.0
  0
ARC
  8
LC-002-002-----0
  6
CONTINUOUS
  5
2D3
 10
342.684223
 20
393.329099
 30
0.0
 40
0.75
 50
90.0
 51
180.0
  0
LINE
  8
LC-002-002-----0
  6
CONTINUOUS
  5
2D4
 10
221.319877
 20
374.579099
 30
0.0
 11
220.219499
 21
378.079099
 31
0.0
  0
LINE
  8
LC-002-002-----0
  6
CONTINUOUS
  5
2D5
 10
341.934223
 20
381.942803
 30
0.0
 11
343.148947
 21
378.079099
 31
0.0
  0
LINE
  8
LC-002-002-----0
  6
CONTINUOUS
  5
2D6
 10
342.934223
 20
381.942803
 30
0.0
 11
344.148671
 21
378.234723
 31
0.0
  0
ARC
  8
LC-002-002-----0
  6
CONTINUOUS
  5
2D7
 10
343.673506
 20
378.079099
 30
0.0
 40
0.5
 50
341.86566
 51
18.13434
  0
LINE
  8
LC-002-002-----0
  6
CONTINUOUS
  5
2D8
 10
343.053341
 20
374.579099
 30
0.0
 11
344.148671
 21
377.923476
 31
0.0
  0
LINE
  8
LC-002-002-----0
  6
CONTINUOUS
  5
2D9
 10
342.048569
 20
374.579099
 30
0.0
 11
343.148947
 21
378.079099
 31
0.0
  0
LINE
  8
LC-002-002-----0
  6
CONTINUOUS
  5
2DA
 10
206.434223
 20
399.579099
 30
0.0
 11
205.934223
 21
399.579099
 31
0.0
  0
LINE
  8
LC-002-002-----0
  6
CONTINUOUS
  5
2DB
 10
354.184223
 20
396.579099
 30
0.0
 11
354.184223
 21
394.579099
 31
0.0
  0
LINE
  8
LC-002-002-----0
  6
CONTINUOUS
  5
2DC
 10
321.684223
 20
399.579099
 30
0.0
 11
281.684223
 21
399.579099
 31
0.0
  0
LINE
  8
LC-002-002-----0
  6
CONTINUOUS
  5
2DD
 10
304.184223
 20
396.579099
 30
0.0
 11
304.184223
 21
394.579099
 31
0.0
  0
ARC
  8
LC-002-002-----0
  6
CONTINUOUS
  5
2DE
 10
302.184223
 20
396.579099
 30
0.0
 40
2.0
 50
0.0
 51
90.0
  0
LINE
  8
LC-002-002-----0
  6
CONTINUOUS
  5
2DF
 10
313.184223
 20
394.579099
 30
0.0
 11
313.184223
 21
396.579099
 31
0.0
  0
LINE
  8
LC-002-002-----0
  6
CONTINUOUS
  5
2E0
 10
331.184223
 20
398.579099
 30
0.0
 11
334.184223
 21
398.579099
 31
0.0
  0
LINE
  8
LC-002-002-----0
  6
CONTINUOUS
  5
2E1
 10
346.099944
 20
399.579099
 30
0.0
 11
330.184223
 21
399.579099
 31
0.0
  0
LINE
  8
LC-002-002-----0
  6
CONTINUOUS
  5
2E2
 10
281.684223
 20
394.579099
 30
0.0
 11
332.996224
 21
394.579099
 31
0.0
  0
ARC
  8
LC-002-002-----0
  6
CONTINUOUS
  5
2E3
 10
315.184223
 20
396.579099
 30
0.0
 40
3.0
 50
90.0
 51
180.0
  0
LINE
  8
LC-002-002-----0
  6
CONTINUOUS
  5
2E4
 10
320.184223
 20
396.579099
 30
0.0
 11
320.184223
 21
394.579099
 31
0.0
  0
LINE
  8
LC-002-002-----0
  6
CONTINUOUS
  5
2E5
 10
345.184223
 20
394.579099
 30
0.0
 11
345.184223
 21
396.579099
 31
0.0
  0
LINE
  8
LC-002-002-----0
  6
CONTINUOUS
  5
2E6
 10
344.184223
 20
394.579099
 30
0.0
 11
344.184223
 21
396.579099
 31
0.0
  0
LINE
  8
LC-002-002-----0
  6
CONTINUOUS
  5
2E7
 10
332.684223
 20
394.579099
 30
0.0
 11
354.184223
 21
394.579099
 31
0.0
  0
ARC
  8
LC-002-002-----0
  6
CONTINUOUS
  5
2E8
 10
331.184223
 20
396.579099
 30
0.0
 40
3.0
 50
90.0
 51
180.0
  0
LINE
  8
LC-002-002-----0
  6
CONTINUOUS
  5
2E9
 10
336.184223
 20
396.579099
 30
0.0
 11
336.184223
 21
394.579099
 31
0.0
  0
ARC
  8
LC-002-002-----0
  6
CONTINUOUS
  5
2EA
 10
318.184223
 20
396.579099
 30
0.0
 40
2.0
 50
0.0
 51
90.0
  0
ARC
  8
LC-002-002-----0
  6
CONTINUOUS
  5
2EB
 10
334.184223
 20
396.579099
 30
0.0
 40
2.0
 50
0.0
 51
90.0
  0
ARC
  8
LC-002-002-----0
  6
CONTINUOUS
  5
2EC
 10
347.184223
 20
396.579099
 30
0.0
 40
2.0
 50
90.0
 51
180.0
  0
ARC
  8
LC-002-002-----0
  6
CONTINUOUS
  5
2ED
 10
351.184223
 20
396.579099
 30
0.0
 40
2.0
 50
0.0
 51
90.0
  0
LINE
  8
LC-002-002-----0
  6
CONTINUOUS
  5
2EE
 10
353.184223
 20
396.579099
 30
0.0
 11
353.184223
 21
394.579099
 31
0.0
  0
ARC
  8
LC-002-002-----0
  6
CONTINUOUS
  5
2EF
 10
347.184223
 20
396.579099
 30
0.0
 40
3.0
 50
90.0
 51
180.0
  0
ARC
  8
LC-002-002-----0
  6
CONTINUOUS
  5
2F0
 10
351.184223
 20
396.579099
 30
0.0
 40
3.0
 50
0.0
 51
90.0
  0
LINE
  8
LC-002-002-----0
  6
CONTINUOUS
  5
2F1
 10
347.184223
 20
398.579099
 30
0.0
 11
351.184223
 21
398.579099
 31
0.0
  0
ARC
  8
LC-002-002-----0
  6
CONTINUOUS
  5
2F2
 10
331.184223
 20
396.579099
 30
0.0
 40
2.0
 50
90.0
 51
180.0
  0
LINE
  8
LC-002-002-----0
  6
CONTINUOUS
  5
2F3
 10
329.184223
 20
394.579099
 30
0.0
 11
329.184223
 21
396.579099
 31
0.0
  0
ARC
  8
LC-002-002-----0
  6
CONTINUOUS
  5
2F4
 10
315.184223
 20
396.579099
 30
0.0
 40
2.0
 50
90.0
 51
180.0
  0
LINE
  8
LC-002-002-----0
  6
CONTINUOUS
  5
2F5
 10
318.184223
 20
398.579099
 30
0.0
 11
315.184223
 21
398.579099
 31
0.0
  0
LINE
  8
LC-002-002-----0
  6
CONTINUOUS
  5
2F6
 10
302.184223
 20
398.579099
 30
0.0
 11
281.684223
 21
398.579099
 31
0.0
  0
LINE
  8
LC-002-002-----0
  6
CONTINUOUS
  5
2F7
 10
346.184223
 20
399.579099
 30
0.0
 11
351.184223
 21
399.579099
 31
0.0
  0
ARC
  8
LC-002-002-----0
  6
CONTINUOUS
  5
2F8
 10
334.184223
 20
396.579099
 30
0.0
 40
3.0
 50
0.0
 51
90.0
  0
LINE
  8
LC-002-002-----0
  6
CONTINUOUS
  5
2F9
 10
330.870889
 20
399.579099
 30
0.0
 11
321.684223
 21
399.579099
 31
0.0
  0
ARC
  8
LC-002-002-----0
  6
CONTINUOUS
  5
2FA
 10
318.184223
 20
396.579099
 30
0.0
 40
3.0
 50
0.0
 51
90.0
  0
ARC
  8
LC-002-002-----0
  6
CONTINUOUS
  5
2FB
 10
302.184223
 20
396.579099
 30
0.0
 40
3.0
 50
0.0
 51
90.0
  0
LINE
  8
LC-002-002-----0
  6
CONTINUOUS
  5
2FC
 10
337.184223
 20
396.579099
 30
0.0
 11
337.184223
 21
394.579099
 31
0.0
  0
LINE
  8
LC-002-002-----0
  6
CONTINUOUS
  5
2FD
 10
328.184223
 20
394.579099
 30
0.0
 11
328.184223
 21
396.579099
 31
0.0
  0
LINE
  8
LC-002-002-----0
  6
CONTINUOUS
  5
2FE
 10
321.184223
 20
396.579099
 30
0.0
 11
321.184223
 21
394.579099
 31
0.0
  0
LINE
  8
LC-002-002-----0
  6
CONTINUOUS
  5
2FF
 10
305.184223
 20
396.579099
 30
0.0
 11
305.184223
 21
394.579099
 31
0.0
  0
ARC
  8
LC-002-002-----0
  6
CONTINUOUS
  5
300
 10
215.484088
 20
388.864964
 30
0.0
 40
2.249509
 50
0.0
 51
90.0
  0
LINE
  8
LC-002-002-----0
  6
CONTINUOUS
  5
301
 10
220.434186
 20
382.06449
 30
0.0
 11
220.434186
 21
390.500786
 31
0.0
  0
LINE
  8
LC-002-002-----0
  6
CONTINUOUS
  5
302
 10
217.734186
 20
382.06449
 30
0.0
 11
217.734186
 21
388.864964
 31
0.0
  0
LINE
  8
LC-002-002-----0
  6
CONTINUOUS
  5
303
 10
219.574623
 20
393.079099
 30
0.0
 11
208.934221
 21
393.079099
 31
0.0
  0
LINE
  8
LC-002-002-----0
  6
CONTINUOUS
  5
304
 10
354.434225
 20
251.2791
 30
0.0
 11
354.434225
 21
393.000777
 31
0.0
  0
LINE
  8
LC-002-002-----0
  6
CONTINUOUS
  5
305
 10
208.934221
 20
251.2791
 30
0.0
 11
208.934221
 21
393.079099
 31
0.0
  0
LINE
  8
LC-002-002-----0
  6
CONTINUOUS
 62
     2
  5
306
 10
351.308258
 20
272.579099
 30
0.0
 11
212.060188
 21
272.579099
 31
0.0
  0
LINE
  8
LC-002-002-----0
  6
CONTINUOUS
  5
307
 10
351.308258
 20
389.114463
 30
0.0
 11
351.308258
 21
249.579099
 31
0.0
  0
ENDSEC
  0
EOF
