  0
SECTION
  2
HEADER
  9
$ACADVER
  1
AC1009
  9
$INSBASE
 10
0.0
 20
0.0
 30
0.0
  9
$EXTMIN
 10
0.0
 20
0.0
 30
0.0
  9
$EXTMAX
 10
840.0
 20
594.0
 30
0.0
  9
$LIMMIN
 10
0.0
 20
0.0
  9
$LIMMAX
 10
840.0
 20
594.0
  9
$ORTHOMODE
 70
     0
  9
$REGENMODE
 70
     1
  9
$FILLMODE
 70
     1
  9
$QTEXTMODE
 70
     0
  9
$MIRRTEXT
 70
     1
  9
$DRAGMODE
 70
     2
  9
$LTSCALE
 40
2.0
  9
$OSMODE
 70
     0
  9
$ATTMODE
 70
     1
  9
$TEXTSIZE
 40
0.2
  9
$TRACEWID
 40
0.05
  9
$TEXTSTYLE
  7
STANDARD
  9
$CLAYER
  8
0
  9
$CELTYPE
  6
BYLAYER
  9
$CECOLOR
 62
     7
  9
$DIMSCALE
 40
2.0
  9
$DIMASZ
 40
3.5
  9
$DIMEXO
 40
0.0625
  9
$DIMDLI
 40
0.38
  9
$DIMRND
 40
0.0
  9
$DIMDLE
 40
0.0
  9
$DIMEXE
 40
0.18
  9
$DIMTP
 40
0.0
  9
$DIMTM
 40
0.0
  9
$DIMTXT
 40
3.5
  9
$DIMCEN
 40
0.09
  9
$DIMTSZ
 40
0.0
  9
$DIMTOL
 70
     0
  9
$DIMLIM
 70
     0
  9
$DIMTIH
 70
     1
  9
$DIMTOH
 70
     1
  9
$DIMSE1
 70
     0
  9
$DIMSE2
 70
     0
  9
$DIMTAD
 70
     1
  9
$DIMZIN
 70
     0
  9
$DIMBLK
  1

  9
$DIMASO
 70
     1
  9
$DIMSHO
 70
     1
  9
$DIMPOST
  1

  9
$DIMAPOST
  1

  9
$DIMALT
 70
     0
  9
$DIMALTD
 70
     2
  9
$DIMALTF
 40
25.4
  9
$DIMLFAC
 40
1.0
  9
$DIMTOFL
 70
     0
  9
$DIMTVP
 40
0.0
  9
$DIMTIX
 70
     0
  9
$DIMSOXD
 70
     0
  9
$DIMSAH
 70
     0
  9
$DIMBLK1
  1

  9
$DIMBLK2
  1

  9
$DIMSTYLE
  2
STANDARD
  9
$DIMCLRD
 70
     0
  9
$DIMCLRE
 70
     0
  9
$DIMCLRT
 70
     0
  9
$DIMTFAC
 40
1.0
  9
$DIMGAP
 40
0.09
  9
$LUNITS
 70
     2
  9
$LUPREC
 70
     2
  9
$AXISMODE
 70
     0
  9
$AXISUNIT
 10
0.0
 20
0.0
  9
$SKETCHINC
 40
0.1
  9
$FILLETRAD
 40
0.0
  9
$AUNITS
 70
     0
  9
$AUPREC
 70
     0
  9
$MENU
  1
acad
  9
$ELEVATION
 40
0.0
  9
$PELEVATION
 40
0.0
  9
$THICKNESS
 40
0.0
  9
$LIMCHECK
 70
     0
  9
$BLIPMODE
 70
     1
  9
$CHAMFERA
 40
0.0
  9
$CHAMFERB
 40
0.0
  9
$SKPOLY
 70
     0
  9
$TDCREATE
 40
0.000000000
  9
$TDUPDATE
 40
0.000000000
  9
$TDINDWG
 40
0.0000000000
  9
$TDUSRTIMER
 40
0.0000000000
  9
$USRTIMER
 70
     1
  9
$ANGBASE
 50
0.0
  9
$ANGDIR
 70
     0
  9
$PDMODE
 70
     0
  9
$PDSIZE
 40
0.0
  9
$PLINEWID
 40
0.0
  9
$COORDS
 70
     0
  9
$SPLFRAME
 70
     0
  9
$SPLINETYPE
 70
     6
  9
$SPLINESEGS
 70
     8
  9
$ATTDIA
 70
     0
  9
$ATTREQ
 70
     1
  9
$HANDLING
 70
     1
  9
$HANDSEED
  5
38B
  9
$SURFTAB1
 70
     6
  9
$SURFTAB2
 70
     6
  9
$SURFTYPE
 70
     6
  9
$SURFU
 70
     6
  9
$SURFV
 70
     6
  9
$UCSNAME
  2

  9
$UCSORG
 10
0.0
 20
0.0
 30
0.0
  9
$UCSXDIR
 10
1.0
 20
0.0
 30
0.0
  9
$UCSYDIR
 10
0.0
 20
1.0
 30
0.0
  9
$PUCSNAME
  2

  9
$PUCSORG
 10
0.0
 20
0.0
 30
0.0
  9
$PUCSXDIR
 10
1.0
 20
0.0
 30
0.0
  9
$PUCSYDIR
 10
0.0
 20
1.0
 30
0.0
  9
$USERI1
 70
     0
  9
$USERI2
 70
     0
  9
$USERI3
 70
     0
  9
$USERI4
 70
     0
  9
$USERI5
 70
     0
  9
$USERR1
 40
0.0
  9
$USERR2
 40
0.0
  9
$USERR3
 40
0.0
  9
$USERR4
 40
0.0
  9
$USERR5
 40
0.0
  9
$WORLDVIEW
 70
     1
  9
$SHADEDGE
 70
     3
  9
$SHADEDIF
 70
    70
  9
$TILEMODE
 70
     1
  9
$MAXACTVP
 70
    16
  9
$PINSBASE
 10
0.0
 20
0.0
 30
0.0
  9
$PLIMCHECK
 70
     0
  9
$PEXTMIN
 10
1.000000E+20
 20
1.000000E+20
 30
1.000000E+20
  9
$PEXTMAX
 10
-1.000000E+20
 20
-1.000000E+20
 30
-1.000000E+20
  9
$PLIMMIN
 10
0.0
 20
0.0
  9
$PLIMMAX
 10
840.0
 20
594.0
  9
$UNITMODE
 70
     0
  9
$VISRETAIN
 70
     0
  9
$PLINEGEN
 70
     1
  9
$PSLTSCALE
 70
     0
  9
$TREEDEPTH
 70
  3020
  9
$DWGCODEPAGE
  3
dos850
  0
ENDSEC
  0
SECTION
  2
TABLES
  0
TABLE
  2
VPORT
 70
     1
  0
VPORT
  2
*ACTIVE
 70
     0
 10
0.0
 20
0.0
 11
1.0
 21
1.0
 12
420.0
 22
297.0
 13
0.0
 23
0.0
 14
1.0
 24
1.0
 15
0.0
 25
0.0
 16
0.0
 26
0.0
 36
1.0
 17
0.0
 27
0.0
 37
0.0
 40
594.0
 41
1.604229
 42
50.0
 43
0.0
 44
0.0
 50
0.0
 51
0.0
 71
     0
 72
   100
 73
     1
 74
     1
 75
     0
 76
     0
 77
     0
 78
     0
  0
ENDTAB
  0
TABLE
  2
LTYPE
 70
     2
  0
LTYPE
  2
CONTINUOUS
 70
    64
  3
Solid line
 72
    65
 73
     0
 40
0.0
  0
LTYPE
  2
DASHDOT
 70
    64
  3
__ . __ . __ . __ . __
 72
    65
 73
     4
 40
7.5
 49
5.0
 49
-1.25
 49
0.0
 49
-1.25
  0
ENDTAB
  0
TABLE
  2
LAYER
 70
    10
  0
LAYER
  2
0
 70
     0
 62
     7
  6
CONTINUOUS
  0
LAYER
  2
LC-INFO-1-2-MM-A3-0
 70
     1
 62
    -1
  6
CONTINUOUS
  0
LAYER
  2
LC-002-005-----0
 70
     0
 62
     2
  6
CONTINUOUS
  0
LAYER
  2
LC-004-003-MTH-0
 70
     0
 62
     2
  6
CONTINUOUS
  0
LAYER
  2
LC-005-003-MTG-0
 70
     0
 62
     2
  6
CONTINUOUS
  0
LAYER
  2
LC-003-003-----0
 70
     0
 62
     2
  6
CONTINUOUS
  0
LAYER
  2
LC-006-000-----0
 70
     0
 62
     7
  6
CONTINUOUS
  0
LAYER
  2
LC-001-002-----0
 70
     0
 62
     1
  6
CONTINUOUS
  0
LAYER
  2
LC-007-002-RND-0
 70
     0
 62
     1
  6
CONTINUOUS
  0
LAYER
  2
LC-000
 70
     0
 62
     7
  6
CONTINUOUS
  0
ENDTAB
  0
TABLE
  2
STYLE
 70
     3
  0
STYLE
  2
STANDARD
 70
     0
 40
0.0
 41
1.0
 50
0.0
 71
     0
 42
0.0
  3
txt
  4

  0
STYLE
  2
LC-TXTSTYLE-150-400-0-0-A1
 70
    64
 40
0.0
 41
1.0
 50
15.0
 71
     0
 42
3.5
  3
Arial
  4

  0
STYLE
  2
LC-STANDARD
 70
    64
 40
0.0
 41
1.0
 50
0.0
 71
     0
 42
3.5
  3
MONOTXT
  4

  0
ENDTAB
  0
TABLE
  2
VIEW
 70
     0
  0
ENDTAB
  0
TABLE
  2
UCS
 70
     0
  0
ENDTAB
  0
TABLE
  2
APPID
 70
     1
  0
APPID
  2
ACAD
 70
     0
  0
ENDTAB
  0
TABLE
  2
DIMSTYLE
 70
     3
  0
DIMSTYLE
  2
STANDARD
 70
     0
  3

  4

  5

  6

  7

 40
1.0
 41
0.18
 42
0.0625
 43
0.38
 44
0.18
 45
0.0
 46
0.0
 47
0.0
 48
0.0
 71
     0
 72
     0
 73
     1
 74
     1
 75
     0
 76
     0
 77
     0
 78
     0
140
0.18
141
0.09
142
0.0
143
25.4
144
1.0
145
0.0
146
1.0
147
0.09
170
     0
171
     2
172
     0
173
     0
174
     0
175
     0
176
     0
177
     0
178
     0
  0
DIMSTYLE
  2
LC-STANDARD
 70
     0
  3

  4

  5

  6

  7

 40
1.0
 41
3.5
 42
0.0
 43
7.5
 44
1.8
 45
0.0
 46
0.0
 47
0.0
 48
0.0
 71
     0
 72
     0
 73
     0
 74
     0
 75
     0
 76
     0
 77
     1
 78
     8
140
3.5
141
0.0
142
0.0
143
25.4
144
1.0
145
0.0
146
0.71
147
1.5
170
     0
171
     2
172
     1
173
     0
174
     0
175
     0
176
     0
177
     0
178
     3
  0
DIMSTYLE
  2
LC-DIM-L-0140-02-02
 70
     0
  3

  4

  5

  6

  7

 40
2.0
 41
3.5
 42
0.0
 43
7.5
 44
1.8
 45
0.0
 46
0.0
 47
0.0
 48
0.0
 71
     0
 72
     0
 73
     0
 74
     0
 75
     0
 76
     0
 77
     1
 78
     8
140
14.0
141
0.0
142
0.0
143
25.4
144
1.0
145
0.0
146
0.71
147
1.5
170
     0
171
     2
172
     0
173
     0
174
     0
175
     0
176
     2
177
     2
178
     8
  0
ENDTAB
  0
ENDSEC
  0
SECTION
  2
BLOCKS
  0
BLOCK
  8
0
  5
23
  2
*X0
 70
    65
 10
387.956765
 20
201.346968
 30
0.0
  3
*X0
  0
LINE
  8
LC-002-005-----0
  6
CONTINUOUS
  5
25
 10
418.256765
 20
404.815528
 30
0.0
 11
416.725326
 21
406.346968
 31
0.0
  0
LINE
  8
LC-002-005-----0
  6
CONTINUOUS
  5
26
 10
418.256765
 20
401.987101
 30
0.0
 11
413.896899
 21
406.346968
 31
0.0
  0
LINE
  8
LC-002-005-----0
  6
CONTINUOUS
  5
27
 10
418.256765
 20
399.158674
 30
0.0
 11
413.256765
 21
404.158674
 31
0.0
  0
LINE
  8
LC-002-005-----0
  6
CONTINUOUS
  5
28
 10
418.256765
 20
396.330247
 30
0.0
 11
413.240044
 21
401.346968
 31
0.0
  0
LINE
  8
LC-002-005-----0
  6
CONTINUOUS
  5
29
 10
418.256765
 20
393.50182
 30
0.0
 11
410.411617
 21
401.346968
 31
0.0
  0
LINE
  8
LC-002-005-----0
  6
CONTINUOUS
  5
2A
 10
416.08319
 20
392.846968
 30
0.0
 11
407.58319
 21
401.346968
 31
0.0
  0
LINE
  8
LC-002-005-----0
  6
CONTINUOUS
  5
2B
 10
413.254763
 20
392.846968
 30
0.0
 11
404.754763
 21
401.346968
 31
0.0
  0
LINE
  8
LC-002-005-----0
  6
CONTINUOUS
  5
2C
 10
410.426336
 20
392.846968
 30
0.0
 11
402.413307
 21
400.859996
 31
0.0
  0
LINE
  8
LC-002-005-----0
  6
CONTINUOUS
  5
2D
 10
407.597909
 20
392.846968
 30
0.0
 11
400.620158
 21
399.824719
 31
0.0
  0
LINE
  8
LC-002-005-----0
  6
CONTINUOUS
  5
2E
 10
404.769482
 20
392.846968
 30
0.0
 11
398.827008
 21
398.789441
 31
0.0
  0
LINE
  8
LC-002-005-----0
  6
CONTINUOUS
  5
2F
 10
401.941055
 20
392.846968
 30
0.0
 11
397.033859
 21
397.754163
 31
0.0
  0
LINE
  8
LC-002-005-----0
  6
CONTINUOUS
  5
30
 10
399.112627
 20
392.846968
 30
0.0
 11
395.240709
 21
396.718886
 31
0.0
  0
LINE
  8
LC-002-005-----0
  6
CONTINUOUS
  5
31
 10
396.2842
 20
392.846968
 30
0.0
 11
393.447559
 21
395.683608
 31
0.0
  0
LINE
  8
LC-002-005-----0
  6
CONTINUOUS
  5
32
 10
393.455773
 20
392.846968
 30
0.0
 11
390.955773
 21
395.346968
 31
0.0
  0
LINE
  8
LC-002-005-----0
  6
CONTINUOUS
  5
33
 10
393.256765
 20
390.217549
 30
0.0
 11
388.127346
 21
395.346968
 31
0.0
  0
LINE
  8
LC-002-005-----0
  6
CONTINUOUS
  5
34
 10
392.298919
 20
388.346968
 30
0.0
 11
387.956765
 21
392.689121
 31
0.0
  0
LINE
  8
LC-002-005-----0
  6
CONTINUOUS
  5
35
 10
390.756765
 20
387.060694
 30
0.0
 11
387.956765
 21
389.860694
 31
0.0
  0
LINE
  8
LC-002-005-----0
  6
CONTINUOUS
  5
36
 10
390.756765
 20
384.232267
 30
0.0
 11
387.956765
 21
387.032267
 31
0.0
  0
LINE
  8
LC-002-005-----0
  6
CONTINUOUS
  5
37
 10
390.756765
 20
381.40384
 30
0.0
 11
387.956765
 21
384.20384
 31
0.0
  0
LINE
  8
LC-002-005-----0
  6
CONTINUOUS
  5
38
 10
390.756765
 20
378.575413
 30
0.0
 11
387.956765
 21
381.375413
 31
0.0
  0
LINE
  8
LC-002-005-----0
  6
CONTINUOUS
  5
39
 10
390.756765
 20
375.746986
 30
0.0
 11
387.956765
 21
378.546986
 31
0.0
  0
LINE
  8
LC-002-005-----0
  6
CONTINUOUS
  5
3A
 10
390.756765
 20
372.918559
 30
0.0
 11
387.956765
 21
375.718559
 31
0.0
  0
LINE
  8
LC-002-005-----0
  6
CONTINUOUS
  5
3B
 10
390.756765
 20
370.090132
 30
0.0
 11
387.956765
 21
372.890132
 31
0.0
  0
LINE
  8
LC-002-005-----0
  6
CONTINUOUS
  5
3C
 10
390.756765
 20
367.261704
 30
0.0
 11
387.956765
 21
370.061704
 31
0.0
  0
LINE
  8
LC-002-005-----0
  6
CONTINUOUS
  5
3D
 10
390.756765
 20
364.433277
 30
0.0
 11
387.956765
 21
367.233277
 31
0.0
  0
LINE
  8
LC-002-005-----0
  6
CONTINUOUS
  5
3E
 10
390.756765
 20
361.60485
 30
0.0
 11
387.956765
 21
364.40485
 31
0.0
  0
LINE
  8
LC-002-005-----0
  6
CONTINUOUS
  5
3F
 10
390.756765
 20
358.776423
 30
0.0
 11
387.956765
 21
361.576423
 31
0.0
  0
LINE
  8
LC-002-005-----0
  6
CONTINUOUS
  5
40
 10
390.756765
 20
355.947996
 30
0.0
 11
387.956765
 21
358.747996
 31
0.0
  0
LINE
  8
LC-002-005-----0
  6
CONTINUOUS
  5
41
 10
390.756765
 20
353.119569
 30
0.0
 11
387.956765
 21
355.919569
 31
0.0
  0
LINE
  8
LC-002-005-----0
  6
CONTINUOUS
  5
42
 10
390.756765
 20
350.291142
 30
0.0
 11
387.956765
 21
353.091142
 31
0.0
  0
LINE
  8
LC-002-005-----0
  6
CONTINUOUS
  5
43
 10
390.756765
 20
347.462715
 30
0.0
 11
387.956765
 21
350.262715
 31
0.0
  0
LINE
  8
LC-002-005-----0
  6
CONTINUOUS
  5
44
 10
390.756765
 20
344.634287
 30
0.0
 11
387.956765
 21
347.434287
 31
0.0
  0
LINE
  8
LC-002-005-----0
  6
CONTINUOUS
  5
45
 10
390.756765
 20
341.80586
 30
0.0
 11
387.956765
 21
344.60586
 31
0.0
  0
LINE
  8
LC-002-005-----0
  6
CONTINUOUS
  5
46
 10
390.756765
 20
338.977433
 30
0.0
 11
387.956765
 21
341.777433
 31
0.0
  0
LINE
  8
LC-002-005-----0
  6
CONTINUOUS
  5
47
 10
390.756765
 20
336.149006
 30
0.0
 11
387.956765
 21
338.949006
 31
0.0
  0
LINE
  8
LC-002-005-----0
  6
CONTINUOUS
  5
48
 10
390.756765
 20
333.320579
 30
0.0
 11
387.956765
 21
336.120579
 31
0.0
  0
LINE
  8
LC-002-005-----0
  6
CONTINUOUS
  5
49
 10
390.756765
 20
330.492152
 30
0.0
 11
387.956765
 21
333.292152
 31
0.0
  0
LINE
  8
LC-002-005-----0
  6
CONTINUOUS
  5
4A
 10
390.756765
 20
327.663725
 30
0.0
 11
387.956765
 21
330.463725
 31
0.0
  0
LINE
  8
LC-002-005-----0
  6
CONTINUOUS
  5
4B
 10
390.756765
 20
324.835298
 30
0.0
 11
387.956765
 21
327.635298
 31
0.0
  0
LINE
  8
LC-002-005-----0
  6
CONTINUOUS
  5
4C
 10
390.756765
 20
322.00687
 30
0.0
 11
387.956765
 21
324.80687
 31
0.0
  0
LINE
  8
LC-002-005-----0
  6
CONTINUOUS
  5
4D
 10
390.756765
 20
319.178443
 30
0.0
 11
387.956765
 21
321.978443
 31
0.0
  0
LINE
  8
LC-002-005-----0
  6
CONTINUOUS
  5
4E
 10
390.756765
 20
316.350016
 30
0.0
 11
387.956765
 21
319.150016
 31
0.0
  0
LINE
  8
LC-002-005-----0
  6
CONTINUOUS
  5
4F
 10
390.756765
 20
313.521589
 30
0.0
 11
387.956765
 21
316.321589
 31
0.0
  0
LINE
  8
LC-002-005-----0
  6
CONTINUOUS
  5
50
 10
390.756765
 20
310.693162
 30
0.0
 11
387.956765
 21
313.493162
 31
0.0
  0
LINE
  8
LC-002-005-----0
  6
CONTINUOUS
  5
51
 10
390.756765
 20
307.864735
 30
0.0
 11
387.956765
 21
310.664735
 31
0.0
  0
LINE
  8
LC-002-005-----0
  6
CONTINUOUS
  5
52
 10
390.756765
 20
305.036308
 30
0.0
 11
387.956765
 21
307.836308
 31
0.0
  0
LINE
  8
LC-002-005-----0
  6
CONTINUOUS
  5
53
 10
390.756765
 20
302.207881
 30
0.0
 11
387.956765
 21
305.007881
 31
0.0
  0
LINE
  8
LC-002-005-----0
  6
CONTINUOUS
  5
54
 10
390.756765
 20
299.379453
 30
0.0
 11
387.956765
 21
302.179453
 31
0.0
  0
LINE
  8
LC-002-005-----0
  6
CONTINUOUS
  5
55
 10
390.756765
 20
296.551026
 30
0.0
 11
387.956765
 21
299.351026
 31
0.0
  0
LINE
  8
LC-002-005-----0
  6
CONTINUOUS
  5
56
 10
390.756765
 20
293.722599
 30
0.0
 11
387.956765
 21
296.522599
 31
0.0
  0
LINE
  8
LC-002-005-----0
  6
CONTINUOUS
  5
57
 10
390.756765
 20
290.894172
 30
0.0
 11
387.956765
 21
293.694172
 31
0.0
  0
LINE
  8
LC-002-005-----0
  6
CONTINUOUS
  5
58
 10
390.756765
 20
288.065745
 30
0.0
 11
387.956765
 21
290.865745
 31
0.0
  0
LINE
  8
LC-002-005-----0
  6
CONTINUOUS
  5
59
 10
390.756765
 20
285.237318
 30
0.0
 11
387.956765
 21
288.037318
 31
0.0
  0
LINE
  8
LC-002-005-----0
  6
CONTINUOUS
  5
5A
 10
390.756765
 20
282.408891
 30
0.0
 11
387.956765
 21
285.208891
 31
0.0
  0
LINE
  8
LC-002-005-----0
  6
CONTINUOUS
  5
5B
 10
390.756765
 20
279.580464
 30
0.0
 11
387.956765
 21
282.380464
 31
0.0
  0
LINE
  8
LC-002-005-----0
  6
CONTINUOUS
  5
5C
 10
390.756765
 20
276.752036
 30
0.0
 11
387.956765
 21
279.552036
 31
0.0
  0
LINE
  8
LC-002-005-----0
  6
CONTINUOUS
  5
5D
 10
390.756765
 20
273.923609
 30
0.0
 11
387.956765
 21
276.723609
 31
0.0
  0
LINE
  8
LC-002-005-----0
  6
CONTINUOUS
  5
5E
 10
390.756765
 20
271.095182
 30
0.0
 11
387.956765
 21
273.895182
 31
0.0
  0
LINE
  8
LC-002-005-----0
  6
CONTINUOUS
  5
5F
 10
390.756765
 20
268.266755
 30
0.0
 11
387.956765
 21
271.066755
 31
0.0
  0
LINE
  8
LC-002-005-----0
  6
CONTINUOUS
  5
60
 10
390.756765
 20
265.438328
 30
0.0
 11
387.956765
 21
268.238328
 31
0.0
  0
LINE
  8
LC-002-005-----0
  6
CONTINUOUS
  5
61
 10
390.756765
 20
262.609901
 30
0.0
 11
387.956765
 21
265.409901
 31
0.0
  0
LINE
  8
LC-002-005-----0
  6
CONTINUOUS
  5
62
 10
390.756765
 20
259.781474
 30
0.0
 11
387.956765
 21
262.581474
 31
0.0
  0
LINE
  8
LC-002-005-----0
  6
CONTINUOUS
  5
63
 10
390.756765
 20
256.953047
 30
0.0
 11
387.956765
 21
259.753047
 31
0.0
  0
LINE
  8
LC-002-005-----0
  6
CONTINUOUS
  5
64
 10
390.756765
 20
254.124619
 30
0.0
 11
387.956765
 21
256.924619
 31
0.0
  0
LINE
  8
LC-002-005-----0
  6
CONTINUOUS
  5
65
 10
390.756765
 20
251.296192
 30
0.0
 11
387.956765
 21
254.096192
 31
0.0
  0
LINE
  8
LC-002-005-----0
  6
CONTINUOUS
  5
66
 10
390.756765
 20
248.467765
 30
0.0
 11
387.956765
 21
251.267765
 31
0.0
  0
LINE
  8
LC-002-005-----0
  6
CONTINUOUS
  5
67
 10
390.756765
 20
245.639338
 30
0.0
 11
387.956765
 21
248.439338
 31
0.0
  0
LINE
  8
LC-002-005-----0
  6
CONTINUOUS
  5
68
 10
390.756765
 20
242.810911
 30
0.0
 11
387.956765
 21
245.610911
 31
0.0
  0
LINE
  8
LC-002-005-----0
  6
CONTINUOUS
  5
69
 10
390.756765
 20
239.982484
 30
0.0
 11
387.956765
 21
242.782484
 31
0.0
  0
LINE
  8
LC-002-005-----0
  6
CONTINUOUS
  5
6A
 10
390.756765
 20
237.154057
 30
0.0
 11
387.956765
 21
239.954057
 31
0.0
  0
LINE
  8
LC-002-005-----0
  6
CONTINUOUS
  5
6B
 10
390.756765
 20
234.32563
 30
0.0
 11
387.956765
 21
237.12563
 31
0.0
  0
LINE
  8
LC-002-005-----0
  6
CONTINUOUS
  5
6C
 10
390.756765
 20
231.497202
 30
0.0
 11
387.956765
 21
234.297202
 31
0.0
  0
LINE
  8
LC-002-005-----0
  6
CONTINUOUS
  5
6D
 10
390.756765
 20
228.668775
 30
0.0
 11
387.956765
 21
231.468775
 31
0.0
  0
LINE
  8
LC-002-005-----0
  6
CONTINUOUS
  5
6E
 10
390.756765
 20
225.840348
 30
0.0
 11
387.956765
 21
228.640348
 31
0.0
  0
LINE
  8
LC-002-005-----0
  6
CONTINUOUS
  5
6F
 10
390.756765
 20
223.011921
 30
0.0
 11
387.956765
 21
225.811921
 31
0.0
  0
LINE
  8
LC-002-005-----0
  6
CONTINUOUS
  5
70
 10
390.756765
 20
220.183494
 30
0.0
 11
387.956765
 21
222.983494
 31
0.0
  0
LINE
  8
LC-002-005-----0
  6
CONTINUOUS
  5
71
 10
390.756765
 20
217.355067
 30
0.0
 11
387.956765
 21
220.155067
 31
0.0
  0
LINE
  8
LC-002-005-----0
  6
CONTINUOUS
  5
72
 10
390.756765
 20
214.52664
 30
0.0
 11
387.956765
 21
217.32664
 31
0.0
  0
LINE
  8
LC-002-005-----0
  6
CONTINUOUS
  5
73
 10
390.756765
 20
211.698213
 30
0.0
 11
387.956765
 21
214.498213
 31
0.0
  0
LINE
  8
LC-002-005-----0
  6
CONTINUOUS
  5
74
 10
390.756765
 20
208.869785
 30
0.0
 11
387.956765
 21
211.669785
 31
0.0
  0
LINE
  8
LC-002-005-----0
  6
CONTINUOUS
  5
75
 10
390.58652
 20
206.211604
 30
0.0
 11
387.956765
 21
208.841358
 31
0.0
  0
LINE
  8
LC-002-005-----0
  6
CONTINUOUS
  5
76
 10
389.988803
 20
203.980893
 30
0.0
 11
387.956765
 21
206.012931
 31
0.0
  0
LINE
  8
LC-002-005-----0
  6
CONTINUOUS
  5
77
 10
389.391086
 20
201.750183
 30
0.0
 11
387.956765
 21
203.184504
 31
0.0
  0
ENDBLK
  8
0
  5
78
  0
BLOCK
  8
0
  5
7A
  2
*X1
 70
    65
 10
218.256765
 20
201.346968
 30
0.0
  3
*X1
  0
LINE
  8
LC-002-005-----0
  6
CONTINUOUS
  5
7B
 10
248.556765
 20
393.496192
 30
0.0
 11
246.70599
 21
395.346968
 31
0.0
  0
LINE
  8
LC-002-005-----0
  6
CONTINUOUS
  5
7C
 10
248.556765
 20
390.667765
 30
0.0
 11
243.877563
 21
395.346968
 31
0.0
  0
LINE
  8
LC-002-005-----0
  6
CONTINUOUS
  5
7D
 10
248.556765
 20
387.839338
 30
0.0
 11
237.497571
 21
398.898532
 31
0.0
  0
LINE
  8
LC-002-005-----0
  6
CONTINUOUS
  5
7E
 10
248.556765
 20
385.010911
 30
0.0
 11
245.756765
 21
387.810911
 31
0.0
  0
LINE
  8
LC-002-005-----0
  6
CONTINUOUS
  5
7F
 10
245.220708
 20
388.346968
 30
0.0
 11
243.256765
 21
390.310911
 31
0.0
  0
LINE
  8
LC-002-005-----0
  6
CONTINUOUS
  5
80
 10
240.720708
 20
392.846968
 30
0.0
 11
232.220708
 21
401.346968
 31
0.0
  0
LINE
  8
LC-002-005-----0
  6
CONTINUOUS
  5
81
 10
248.556765
 20
382.182484
 30
0.0
 11
245.756765
 21
384.982484
 31
0.0
  0
LINE
  8
LC-002-005-----0
  6
CONTINUOUS
  5
82
 10
237.892281
 20
392.846968
 30
0.0
 11
229.392281
 21
401.346968
 31
0.0
  0
LINE
  8
LC-002-005-----0
  6
CONTINUOUS
  5
83
 10
248.556765
 20
379.354057
 30
0.0
 11
245.756765
 21
382.154057
 31
0.0
  0
LINE
  8
LC-002-005-----0
  6
CONTINUOUS
  5
84
 10
235.063854
 20
392.846968
 30
0.0
 11
226.563854
 21
401.346968
 31
0.0
  0
LINE
  8
LC-002-005-----0
  6
CONTINUOUS
  5
85
 10
223.256765
 20
404.654057
 30
0.0
 11
221.563854
 21
406.346968
 31
0.0
  0
LINE
  8
LC-002-005-----0
  6
CONTINUOUS
  5
86
 10
248.556765
 20
376.52563
 30
0.0
 11
245.756765
 21
379.32563
 31
0.0
  0
LINE
  8
LC-002-005-----0
  6
CONTINUOUS
  5
87
 10
232.235427
 20
392.846968
 30
0.0
 11
223.735427
 21
401.346968
 31
0.0
  0
LINE
  8
LC-002-005-----0
  6
CONTINUOUS
  5
88
 10
223.256765
 20
401.82563
 30
0.0
 11
218.735427
 21
406.346968
 31
0.0
  0
LINE
  8
LC-002-005-----0
  6
CONTINUOUS
  5
89
 10
248.556765
 20
373.697202
 30
0.0
 11
245.756765
 21
376.497202
 31
0.0
  0
LINE
  8
LC-002-005-----0
  6
CONTINUOUS
  5
8A
 10
229.407
 20
392.846968
 30
0.0
 11
218.256765
 21
403.997202
 31
0.0
  0
LINE
  8
LC-002-005-----0
  6
CONTINUOUS
  5
8B
 10
248.556765
 20
370.868775
 30
0.0
 11
245.756765
 21
373.668775
 31
0.0
  0
LINE
  8
LC-002-005-----0
  6
CONTINUOUS
  5
8C
 10
226.578573
 20
392.846968
 30
0.0
 11
218.256765
 21
401.168775
 31
0.0
  0
LINE
  8
LC-002-005-----0
  6
CONTINUOUS
  5
8D
 10
248.556765
 20
368.040348
 30
0.0
 11
245.756765
 21
370.840348
 31
0.0
  0
LINE
  8
LC-002-005-----0
  6
CONTINUOUS
  5
8E
 10
223.750146
 20
392.846968
 30
0.0
 11
218.256765
 21
398.340348
 31
0.0
  0
LINE
  8
LC-002-005-----0
  6
CONTINUOUS
  5
8F
 10
248.556765
 20
365.211921
 30
0.0
 11
245.756765
 21
368.011921
 31
0.0
  0
LINE
  8
LC-002-005-----0
  6
CONTINUOUS
  5
90
 10
220.921719
 20
392.846968
 30
0.0
 11
218.256765
 21
395.511921
 31
0.0
  0
LINE
  8
LC-002-005-----0
  6
CONTINUOUS
  5
91
 10
248.556765
 20
362.383494
 30
0.0
 11
245.756765
 21
365.183494
 31
0.0
  0
LINE
  8
LC-002-005-----0
  6
CONTINUOUS
  5
92
 10
248.556765
 20
359.555067
 30
0.0
 11
245.756765
 21
362.355067
 31
0.0
  0
LINE
  8
LC-002-005-----0
  6
CONTINUOUS
  5
93
 10
248.556765
 20
356.72664
 30
0.0
 11
245.756765
 21
359.52664
 31
0.0
  0
LINE
  8
LC-002-005-----0
  6
CONTINUOUS
  5
94
 10
248.556765
 20
353.898213
 30
0.0
 11
245.756765
 21
356.698213
 31
0.0
  0
LINE
  8
LC-002-005-----0
  6
CONTINUOUS
  5
95
 10
248.556765
 20
351.069785
 30
0.0
 11
245.756765
 21
353.869785
 31
0.0
  0
LINE
  8
LC-002-005-----0
  6
CONTINUOUS
  5
96
 10
248.556765
 20
348.241358
 30
0.0
 11
245.756765
 21
351.041358
 31
0.0
  0
LINE
  8
LC-002-005-----0
  6
CONTINUOUS
  5
97
 10
248.556765
 20
345.412931
 30
0.0
 11
245.756765
 21
348.212931
 31
0.0
  0
LINE
  8
LC-002-005-----0
  6
CONTINUOUS
  5
98
 10
248.556765
 20
342.584504
 30
0.0
 11
245.756765
 21
345.384504
 31
0.0
  0
LINE
  8
LC-002-005-----0
  6
CONTINUOUS
  5
99
 10
248.556765
 20
339.756077
 30
0.0
 11
245.756765
 21
342.556077
 31
0.0
  0
LINE
  8
LC-002-005-----0
  6
CONTINUOUS
  5
9A
 10
248.556765
 20
336.92765
 30
0.0
 11
245.756765
 21
339.72765
 31
0.0
  0
LINE
  8
LC-002-005-----0
  6
CONTINUOUS
  5
9B
 10
248.556765
 20
334.099223
 30
0.0
 11
245.756765
 21
336.899223
 31
0.0
  0
LINE
  8
LC-002-005-----0
  6
CONTINUOUS
  5
9C
 10
248.556765
 20
331.270796
 30
0.0
 11
245.756765
 21
334.070796
 31
0.0
  0
LINE
  8
LC-002-005-----0
  6
CONTINUOUS
  5
9D
 10
248.556765
 20
328.442368
 30
0.0
 11
245.756765
 21
331.242368
 31
0.0
  0
LINE
  8
LC-002-005-----0
  6
CONTINUOUS
  5
9E
 10
248.556765
 20
325.613941
 30
0.0
 11
245.756765
 21
328.413941
 31
0.0
  0
LINE
  8
LC-002-005-----0
  6
CONTINUOUS
  5
9F
 10
248.556765
 20
322.785514
 30
0.0
 11
245.756765
 21
325.585514
 31
0.0
  0
LINE
  8
LC-002-005-----0
  6
CONTINUOUS
  5
A0
 10
248.556765
 20
319.957087
 30
0.0
 11
245.756765
 21
322.757087
 31
0.0
  0
LINE
  8
LC-002-005-----0
  6
CONTINUOUS
  5
A1
 10
248.556765
 20
317.12866
 30
0.0
 11
245.756765
 21
319.92866
 31
0.0
  0
LINE
  8
LC-002-005-----0
  6
CONTINUOUS
  5
A2
 10
248.556765
 20
314.300233
 30
0.0
 11
245.756765
 21
317.100233
 31
0.0
  0
LINE
  8
LC-002-005-----0
  6
CONTINUOUS
  5
A3
 10
248.556765
 20
311.471806
 30
0.0
 11
245.756765
 21
314.271806
 31
0.0
  0
LINE
  8
LC-002-005-----0
  6
CONTINUOUS
  5
A4
 10
248.556765
 20
308.643379
 30
0.0
 11
245.756765
 21
311.443379
 31
0.0
  0
LINE
  8
LC-002-005-----0
  6
CONTINUOUS
  5
A5
 10
248.556765
 20
305.814951
 30
0.0
 11
245.756765
 21
308.614951
 31
0.0
  0
LINE
  8
LC-002-005-----0
  6
CONTINUOUS
  5
A6
 10
248.556765
 20
302.986524
 30
0.0
 11
245.756765
 21
305.786524
 31
0.0
  0
LINE
  8
LC-002-005-----0
  6
CONTINUOUS
  5
A7
 10
248.556765
 20
300.158097
 30
0.0
 11
245.756765
 21
302.958097
 31
0.0
  0
LINE
  8
LC-002-005-----0
  6
CONTINUOUS
  5
A8
 10
248.556765
 20
297.32967
 30
0.0
 11
245.756765
 21
300.12967
 31
0.0
  0
LINE
  8
LC-002-005-----0
  6
CONTINUOUS
  5
A9
 10
248.556765
 20
294.501243
 30
0.0
 11
245.756765
 21
297.301243
 31
0.0
  0
LINE
  8
LC-002-005-----0
  6
CONTINUOUS
  5
AA
 10
248.556765
 20
291.672816
 30
0.0
 11
245.756765
 21
294.472816
 31
0.0
  0
LINE
  8
LC-002-005-----0
  6
CONTINUOUS
  5
AB
 10
248.556765
 20
288.844389
 30
0.0
 11
245.756765
 21
291.644389
 31
0.0
  0
LINE
  8
LC-002-005-----0
  6
CONTINUOUS
  5
AC
 10
248.556765
 20
286.015962
 30
0.0
 11
245.756765
 21
288.815962
 31
0.0
  0
LINE
  8
LC-002-005-----0
  6
CONTINUOUS
  5
AD
 10
248.556765
 20
283.187534
 30
0.0
 11
245.756765
 21
285.987534
 31
0.0
  0
LINE
  8
LC-002-005-----0
  6
CONTINUOUS
  5
AE
 10
248.556765
 20
280.359107
 30
0.0
 11
245.756765
 21
283.159107
 31
0.0
  0
LINE
  8
LC-002-005-----0
  6
CONTINUOUS
  5
AF
 10
248.556765
 20
277.53068
 30
0.0
 11
245.756765
 21
280.33068
 31
0.0
  0
LINE
  8
LC-002-005-----0
  6
CONTINUOUS
  5
B0
 10
248.556765
 20
274.702253
 30
0.0
 11
245.756765
 21
277.502253
 31
0.0
  0
LINE
  8
LC-002-005-----0
  6
CONTINUOUS
  5
B1
 10
248.556765
 20
271.873826
 30
0.0
 11
245.756765
 21
274.673826
 31
0.0
  0
LINE
  8
LC-002-005-----0
  6
CONTINUOUS
  5
B2
 10
248.556765
 20
269.045399
 30
0.0
 11
245.756765
 21
271.845399
 31
0.0
  0
LINE
  8
LC-002-005-----0
  6
CONTINUOUS
  5
B3
 10
248.556765
 20
266.216972
 30
0.0
 11
245.756765
 21
269.016972
 31
0.0
  0
LINE
  8
LC-002-005-----0
  6
CONTINUOUS
  5
B4
 10
248.556765
 20
263.388545
 30
0.0
 11
245.756765
 21
266.188545
 31
0.0
  0
LINE
  8
LC-002-005-----0
  6
CONTINUOUS
  5
B5
 10
248.556765
 20
260.560117
 30
0.0
 11
245.756765
 21
263.360117
 31
0.0
  0
LINE
  8
LC-002-005-----0
  6
CONTINUOUS
  5
B6
 10
248.556765
 20
257.73169
 30
0.0
 11
245.756765
 21
260.53169
 31
0.0
  0
LINE
  8
LC-002-005-----0
  6
CONTINUOUS
  5
B7
 10
248.556765
 20
254.903263
 30
0.0
 11
245.756765
 21
257.703263
 31
0.0
  0
LINE
  8
LC-002-005-----0
  6
CONTINUOUS
  5
B8
 10
248.556765
 20
252.074836
 30
0.0
 11
245.756765
 21
254.874836
 31
0.0
  0
LINE
  8
LC-002-005-----0
  6
CONTINUOUS
  5
B9
 10
248.556765
 20
249.246409
 30
0.0
 11
245.756765
 21
252.046409
 31
0.0
  0
LINE
  8
LC-002-005-----0
  6
CONTINUOUS
  5
BA
 10
248.556765
 20
246.417982
 30
0.0
 11
245.756765
 21
249.217982
 31
0.0
  0
LINE
  8
LC-002-005-----0
  6
CONTINUOUS
  5
BB
 10
248.556765
 20
243.589555
 30
0.0
 11
245.756765
 21
246.389555
 31
0.0
  0
LINE
  8
LC-002-005-----0
  6
CONTINUOUS
  5
BC
 10
248.556765
 20
240.761128
 30
0.0
 11
245.756765
 21
243.561128
 31
0.0
  0
LINE
  8
LC-002-005-----0
  6
CONTINUOUS
  5
BD
 10
248.556765
 20
237.9327
 30
0.0
 11
245.756765
 21
240.7327
 31
0.0
  0
LINE
  8
LC-002-005-----0
  6
CONTINUOUS
  5
BE
 10
248.556765
 20
235.104273
 30
0.0
 11
245.756765
 21
237.904273
 31
0.0
  0
LINE
  8
LC-002-005-----0
  6
CONTINUOUS
  5
BF
 10
248.556765
 20
232.275846
 30
0.0
 11
245.756765
 21
235.075846
 31
0.0
  0
LINE
  8
LC-002-005-----0
  6
CONTINUOUS
  5
C0
 10
248.556765
 20
229.447419
 30
0.0
 11
245.756765
 21
232.247419
 31
0.0
  0
LINE
  8
LC-002-005-----0
  6
CONTINUOUS
  5
C1
 10
248.556765
 20
226.618992
 30
0.0
 11
245.756765
 21
229.418992
 31
0.0
  0
LINE
  8
LC-002-005-----0
  6
CONTINUOUS
  5
C2
 10
248.556765
 20
223.790565
 30
0.0
 11
245.756765
 21
226.590565
 31
0.0
  0
LINE
  8
LC-002-005-----0
  6
CONTINUOUS
  5
C3
 10
248.556765
 20
220.962138
 30
0.0
 11
245.756765
 21
223.762138
 31
0.0
  0
LINE
  8
LC-002-005-----0
  6
CONTINUOUS
  5
C4
 10
248.556765
 20
218.133711
 30
0.0
 11
245.756765
 21
220.933711
 31
0.0
  0
LINE
  8
LC-002-005-----0
  6
CONTINUOUS
  5
C5
 10
248.556765
 20
215.305283
 30
0.0
 11
245.756765
 21
218.105283
 31
0.0
  0
LINE
  8
LC-002-005-----0
  6
CONTINUOUS
  5
C6
 10
248.556765
 20
212.476856
 30
0.0
 11
245.756765
 21
215.276856
 31
0.0
  0
LINE
  8
LC-002-005-----0
  6
CONTINUOUS
  5
C7
 10
248.556765
 20
209.648429
 30
0.0
 11
245.756765
 21
212.448429
 31
0.0
  0
LINE
  8
LC-002-005-----0
  6
CONTINUOUS
  5
C8
 10
248.556765
 20
206.820002
 30
0.0
 11
245.756765
 21
209.620002
 31
0.0
  0
LINE
  8
LC-002-005-----0
  6
CONTINUOUS
  5
C9
 10
248.556765
 20
203.991575
 30
0.0
 11
245.77704
 21
206.7713
 31
0.0
  0
LINE
  8
LC-002-005-----0
  6
CONTINUOUS
  5
CA
 10
248.372945
 20
201.346968
 30
0.0
 11
246.812316
 21
202.907597
 31
0.0
  0
ENDBLK
  8
0
  5
CB
  0
BLOCK
  8
0
  5
CD
  2
*D2
 70
    65
 10
0.0
 20
0.0
 30
0.0
  3
*D2
  0
LINE
  8
LC-004-003-MTH-0
  6
CONTINUOUS
  5
CF
 10
245.756765
 20
206.846968
 30
0.0
 11
245.756765
 21
140.0
 31
0.0
  0
LINE
  8
LC-004-003-MTH-0
  6
CONTINUOUS
  5
D0
 10
390.756765
 20
206.846968
 30
0.0
 11
390.756765
 21
140.0
 31
0.0
  0
LINE
  8
LC-005-003-MTG-0
  6
CONTINUOUS
  5
D2
 10
245.756765
 20
156.8
 30
0.0
 11
390.756765
 21
156.8
 31
0.0
  0
LINE
  8
LC-003-003-----0
  6
CONTINUOUS
  5
D4
 10
273.517221
 20
160.454733
 30
0.0
 11
245.756765
 21
156.8
 31
0.0
  0
LINE
  8
LC-003-003-----0
  6
CONTINUOUS
  5
D5
 10
245.756765
 20
156.8
 30
0.0
 11
273.517221
 21
153.145267
 31
0.0
  0
LINE
  8
LC-003-003-----0
  6
CONTINUOUS
  5
D6
 10
273.517221
 20
153.145267
 30
0.0
 11
273.517221
 21
160.454733
 31
0.0
  0
LINE
  8
LC-003-003-----0
  6
CONTINUOUS
  5
D7
 10
273.579503
 20
159.504503
 30
0.0
 11
253.036765
 21
156.8
 31
0.0
  0
LINE
  8
LC-003-003-----0
  6
CONTINUOUS
  5
D8
 10
253.036765
 20
156.8
 30
0.0
 11
273.579503
 21
154.095497
 31
0.0
  0
LINE
  8
LC-003-003-----0
  6
CONTINUOUS
  5
D9
 10
273.641784
 20
158.554272
 30
0.0
 11
260.316765
 21
156.8
 31
0.0
  0
LINE
  8
LC-003-003-----0
  6
CONTINUOUS
  5
DA
 10
260.316765
 20
156.8
 30
0.0
 11
273.641784
 21
155.045728
 31
0.0
  0
LINE
  8
LC-003-003-----0
  6
CONTINUOUS
  5
DB
 10
273.704065
 20
157.604041
 30
0.0
 11
267.596765
 21
156.8
 31
0.0
  0
LINE
  8
LC-003-003-----0
  6
CONTINUOUS
  5
DC
 10
267.596765
 20
156.8
 30
0.0
 11
273.704065
 21
155.995959
 31
0.0
  0
LINE
  8
LC-003-003-----0
  6
CONTINUOUS
  5
DD
 10
362.996309
 20
153.145267
 30
0.0
 11
390.756765
 21
156.8
 31
0.0
  0
LINE
  8
LC-003-003-----0
  6
CONTINUOUS
  5
DE
 10
390.756765
 20
156.8
 30
0.0
 11
362.996309
 21
160.454733
 31
0.0
  0
LINE
  8
LC-003-003-----0
  6
CONTINUOUS
  5
DF
 10
362.996309
 20
160.454733
 30
0.0
 11
362.996309
 21
153.145267
 31
0.0
  0
LINE
  8
LC-003-003-----0
  6
CONTINUOUS
  5
E0
 10
362.934027
 20
154.095497
 30
0.0
 11
383.476765
 21
156.8
 31
0.0
  0
LINE
  8
LC-003-003-----0
  6
CONTINUOUS
  5
E1
 10
383.476765
 20
156.8
 30
0.0
 11
362.934027
 21
159.504503
 31
0.0
  0
LINE
  8
LC-003-003-----0
  6
CONTINUOUS
  5
E2
 10
362.871746
 20
155.045728
 30
0.0
 11
376.196765
 21
156.8
 31
0.0
  0
LINE
  8
LC-003-003-----0
  6
CONTINUOUS
  5
E3
 10
376.196765
 20
156.8
 30
0.0
 11
362.871746
 21
158.554272
 31
0.0
  0
LINE
  8
LC-003-003-----0
  6
CONTINUOUS
  5
E4
 10
362.809465
 20
155.995959
 30
0.0
 11
368.916765
 21
156.8
 31
0.0
  0
LINE
  8
LC-003-003-----0
  6
CONTINUOUS
  5
E5
 10
368.916765
 20
156.8
 30
0.0
 11
362.809465
 21
157.604041
 31
0.0
  0
TEXT
  8
LC-003-003-----0
  6
CONTINUOUS
 62
     8
  5
E6
 10
284.333475
 20
164.627554
 30
0.0
 40
28.0
  1
Ø145
 41
0.9
 51
15.0
  7
LC-TXTSTYLE-150-400-0-0-A0
 72
     1
 11
322.604925
 21
164.627554
 31
0.0
  0
ENDBLK
  8
0
  5
E7
  0
BLOCK
  8
0
  5
E9
  2
BLK1
 70
    64
 10
0.0
 20
0.0
 30
0.0
  3
BLK1
  0
ENDBLK
  8
0
  5
EA
  0
BLOCK
  8
0
  5
EC
  2
BLK2
 70
    64
 10
0.0
 20
0.0
 30
0.0
  3
BLK2
  0
ENDBLK
  8
0
  5
ED
  0
BLOCK
  8
0
  5
EF
  2
BLK3
 70
    64
 10
0.0
 20
0.0
 30
0.0
  3
BLK3
  0
ENDBLK
  8
0
  5
F0
  0
BLOCK
  8
0
  5
F2
  2
BLK4
 70
    64
 10
0.0
 20
0.0
 30
0.0
  3
BLK4
  0
ENDBLK
  8
0
  5
F3
  0
BLOCK
  8
0
  5
F5
  2
BLK5
 70
    64
 10
0.0
 20
0.0
 30
0.0
  3
BLK5
  0
ENDBLK
  8
0
  5
F6
  0
BLOCK
  8
0
  5
F8
  2
BLK6
 70
    64
 10
0.0
 20
0.0
 30
0.0
  3
BLK6
  0
ENDBLK
  8
0
  5
F9
  0
BLOCK
  8
0
  5
FB
  2
BLK7
 70
    64
 10
0.0
 20
0.0
 30
0.0
  3
BLK7
  0
ENDBLK
  8
0
  5
FC
  0
BLOCK
  8
0
  5
FE
  2
BLK8
 70
    64
 10
0.0
 20
0.0
 30
0.0
  3
BLK8
  0
ENDBLK
  8
0
  5
FF
  0
BLOCK
  8
0
  5
101
  2
BLK9
 70
    64
 10
0.0
 20
0.0
 30
0.0
  3
BLK9
  0
ENDBLK
  8
0
  5
102
  0
BLOCK
  8
0
  5
104
  2
BLK10
 70
    64
 10
0.0
 20
0.0
 30
0.0
  3
BLK10
  0
ENDBLK
  8
0
  5
105
  0
BLOCK
  8
0
  5
107
  2
BLK11
 70
    64
 10
0.0
 20
0.0
 30
0.0
  3
BLK11
  0
ENDBLK
  8
0
  5
108
  0
BLOCK
  8
0
  5
10A
  2
BLK12
 70
    64
 10
0.0
 20
0.0
 30
0.0
  3
BLK12
  0
ENDBLK
  8
0
  5
10B
  0
BLOCK
  8
0
  5
10D
  2
BLK13
 70
    64
 10
0.0
 20
0.0
 30
0.0
  3
BLK13
  0
ENDBLK
  8
0
  5
10E
  0
BLOCK
  8
0
  5
110
  2
BLK14
 70
    64
 10
0.0
 20
0.0
 30
0.0
  3
BLK14
  0
ENDBLK
  8
0
  5
111
  0
BLOCK
  8
0
  5
113
  2
BLK15
 70
    64
 10
0.0
 20
0.0
 30
0.0
  3
BLK15
  0
ENDBLK
  8
0
  5
114
  0
BLOCK
  8
0
  5
116
  2
BLK16
 70
    64
 10
0.0
 20
0.0
 30
0.0
  3
BLK16
  0
ENDBLK
  8
0
  5
117
  0
BLOCK
  8
0
  5
119
  2
BLK17
 70
    64
 10
0.0
 20
0.0
 30
0.0
  3
BLK17
  0
ENDBLK
  8
0
  5
11A
  0
BLOCK
  8
0
  5
11C
  2
BLK18
 70
    64
 10
0.0
 20
0.0
 30
0.0
  3
BLK18
  0
ENDBLK
  8
0
  5
11D
  0
BLOCK
  8
0
  5
11F
  2
BLK19
 70
    64
 10
0.0
 20
0.0
 30
0.0
  3
BLK19
  0
ENDBLK
  8
0
  5
120
  0
BLOCK
  8
0
  5
122
  2
BLK20
 70
    64
 10
0.0
 20
0.0
 30
0.0
  3
BLK20
  0
ENDBLK
  8
0
  5
123
  0
BLOCK
  8
0
  5
125
  2
BLK21
 70
    64
 10
0.0
 20
0.0
 30
0.0
  3
BLK21
  0
ENDBLK
  8
0
  5
126
  0
BLOCK
  8
0
  5
128
  2
BLK22
 70
    64
 10
0.0
 20
0.0
 30
0.0
  3
BLK22
  0
ENDBLK
  8
0
  5
129
  0
BLOCK
  8
0
  5
12B
  2
BLK23
 70
    64
 10
0.0
 20
0.0
 30
0.0
  3
BLK23
  0
ENDBLK
  8
0
  5
12C
  0
BLOCK
  8
0
  5
12E
  2
BLK24
 70
    64
 10
0.0
 20
0.0
 30
0.0
  3
BLK24
  0
ENDBLK
  8
0
  5
12F
  0
BLOCK
  8
0
  5
131
  2
BLK25
 70
    64
 10
0.0
 20
0.0
 30
0.0
  3
BLK25
  0
ENDBLK
  8
0
  5
132
  0
BLOCK
  8
0
  5
134
  2
BLK26
 70
    64
 10
0.0
 20
0.0
 30
0.0
  3
BLK26
  0
ENDBLK
  8
0
  5
135
  0
BLOCK
  8
0
  5
137
  2
BLK27
 70
    64
 10
0.0
 20
0.0
 30
0.0
  3
BLK27
  0
ENDBLK
  8
0
  5
138
  0
BLOCK
  8
0
  5
13A
  2
BLK28
 70
    64
 10
0.0
 20
0.0
 30
0.0
  3
BLK28
  0
ENDBLK
  8
0
  5
13B
  0
BLOCK
  8
0
  5
13D
  2
BLK29
 70
    64
 10
0.0
 20
0.0
 30
0.0
  3
BLK29
  0
ENDBLK
  8
0
  5
13E
  0
BLOCK
  8
0
  5
140
  2
BLK30
 70
    64
 10
0.0
 20
0.0
 30
0.0
  3
BLK30
  0
ENDBLK
  8
0
  5
141
  0
BLOCK
  8
0
  5
143
  2
BLK31
 70
    64
 10
0.0
 20
0.0
 30
0.0
  3
BLK31
  0
ENDBLK
  8
0
  5
144
  0
BLOCK
  8
0
  5
146
  2
BLK32
 70
    64
 10
0.0
 20
0.0
 30
0.0
  3
BLK32
  0
ENDBLK
  8
0
  5
147
  0
BLOCK
  8
0
  5
149
  2
BLK33
 70
    64
 10
0.0
 20
0.0
 30
0.0
  3
BLK33
  0
ENDBLK
  8
0
  5
14A
  0
BLOCK
  8
0
  5
14C
  2
*X36
 70
    65
 10
302.256971
 20
401.346968
 30
0.0
  3
*X36
  0
LINE
  8
LC-002-005-----0
  6
CONTINUOUS
  5
14D
 10
316.494154
 20
401.346968
 30
0.0
 11
318.256765
 21
403.109579
 31
0.0
  0
LINE
  8
LC-002-005-----0
  6
CONTINUOUS
  5
14E
 10
313.665727
 20
401.346968
 30
0.0
 11
318.256765
 21
405.938006
 31
0.0
  0
LINE
  8
LC-002-005-----0
  6
CONTINUOUS
  5
14F
 10
310.8373
 20
401.346968
 30
0.0
 11
315.8373
 21
406.346968
 31
0.0
  0
LINE
  8
LC-002-005-----0
  6
CONTINUOUS
  5
150
 10
308.008872
 20
401.346968
 30
0.0
 11
313.008872
 21
406.346968
 31
0.0
  0
LINE
  8
LC-002-005-----0
  6
CONTINUOUS
  5
151
 10
305.180445
 20
401.346968
 30
0.0
 11
310.180445
 21
406.346968
 31
0.0
  0
LINE
  8
LC-002-005-----0
  6
CONTINUOUS
  5
152
 10
302.352018
 20
401.346968
 30
0.0
 11
307.352018
 21
406.346968
 31
0.0
  0
LINE
  8
LC-002-005-----0
  6
CONTINUOUS
  5
153
 10
302.256971
 20
404.080348
 30
0.0
 11
304.523591
 21
406.346968
 31
0.0
  0
ENDBLK
  8
0
  5
154
  0
BLOCK
  8
0
  5
156
  2
*X37
 70
    65
 10
284.256982
 20
401.346968
 30
0.0
  3
*X37
  0
LINE
  8
LC-002-005-----0
  6
CONTINUOUS
  5
157
 10
293.866737
 20
401.346968
 30
0.0
 11
294.256971
 21
401.737202
 31
0.0
  0
LINE
  8
LC-002-005-----0
  6
CONTINUOUS
  5
158
 10
291.03831
 20
401.346968
 30
0.0
 11
294.256971
 21
404.565629
 31
0.0
  0
LINE
  8
LC-002-005-----0
  6
CONTINUOUS
  5
159
 10
288.209883
 20
401.346968
 30
0.0
 11
293.209883
 21
406.346968
 31
0.0
  0
LINE
  8
LC-002-005-----0
  6
CONTINUOUS
  5
15A
 10
285.381455
 20
401.346968
 30
0.0
 11
290.381455
 21
406.346968
 31
0.0
  0
LINE
  8
LC-002-005-----0
  6
CONTINUOUS
  5
15B
 10
284.256982
 20
403.050921
 30
0.0
 11
287.553028
 21
406.346968
 31
0.0
  0
LINE
  8
LC-002-005-----0
  6
CONTINUOUS
  5
15C
 10
284.256982
 20
405.879348
 30
0.0
 11
284.724601
 21
406.346968
 31
0.0
  0
ENDBLK
  8
0
  5
15D
  0
BLOCK
  8
0
  5
15F
  2
*X38
 70
    65
 10
266.256992
 20
401.346968
 30
0.0
  3
*X38
  0
LINE
  8
LC-002-005-----0
  6
CONTINUOUS
  5
160
 10
274.067747
 20
401.346968
 30
0.0
 11
276.256982
 21
403.536202
 31
0.0
  0
LINE
  8
LC-002-005-----0
  6
CONTINUOUS
  5
161
 10
271.23932
 20
401.346968
 30
0.0
 11
276.23932
 21
406.346968
 31
0.0
  0
LINE
  8
LC-002-005-----0
  6
CONTINUOUS
  5
162
 10
268.410893
 20
401.346968
 30
0.0
 11
273.410893
 21
406.346968
 31
0.0
  0
LINE
  8
LC-002-005-----0
  6
CONTINUOUS
  5
163
 10
266.256992
 20
402.021494
 30
0.0
 11
270.582466
 21
406.346968
 31
0.0
  0
LINE
  8
LC-002-005-----0
  6
CONTINUOUS
  5
164
 10
266.256992
 20
404.849921
 30
0.0
 11
267.754038
 21
406.346968
 31
0.0
  0
ENDBLK
  8
0
  5
165
  0
BLOCK
  8
0
  5
167
  2
*X39
 70
    65
 10
247.257003
 20
401.346968
 30
0.0
  3
*X39
  0
LINE
  8
LC-002-005-----0
  6
CONTINUOUS
  5
168
 10
257.097184
 20
401.346968
 30
0.0
 11
258.256992
 21
402.506776
 31
0.0
  0
LINE
  8
LC-002-005-----0
  6
CONTINUOUS
  5
169
 10
254.268757
 20
401.346968
 30
0.0
 11
258.256992
 21
405.335203
 31
0.0
  0
LINE
  8
LC-002-005-----0
  6
CONTINUOUS
  5
16A
 10
251.44033
 20
401.346968
 30
0.0
 11
256.44033
 21
406.346968
 31
0.0
  0
LINE
  8
LC-002-005-----0
  6
CONTINUOUS
  5
16B
 10
248.611903
 20
401.346968
 30
0.0
 11
253.611903
 21
406.346968
 31
0.0
  0
LINE
  8
LC-002-005-----0
  6
CONTINUOUS
  5
16C
 10
247.257003
 20
402.820495
 30
0.0
 11
250.783476
 21
406.346968
 31
0.0
  0
LINE
  8
LC-002-005-----0
  6
CONTINUOUS
  5
16D
 10
247.257003
 20
405.648922
 30
0.0
 11
247.955049
 21
406.346968
 31
0.0
  0
ENDBLK
  8
0
  5
16E
  0
BLOCK
  8
0
  5
170
  2
*X40
 70
    65
 10
223.256765
 20
401.346968
 30
0.0
  3
*X40
  0
LINE
  8
LC-002-005-----0
  6
CONTINUOUS
  5
171
 10
237.298194
 20
401.346968
 30
0.0
 11
239.257003
 21
403.305776
 31
0.0
  0
LINE
  8
LC-002-005-----0
  6
CONTINUOUS
  5
172
 10
234.469767
 20
401.346968
 30
0.0
 11
239.257003
 21
406.134203
 31
0.0
  0
LINE
  8
LC-002-005-----0
  6
CONTINUOUS
  5
173
 10
231.64134
 20
401.346968
 30
0.0
 11
236.64134
 21
406.346968
 31
0.0
  0
LINE
  8
LC-002-005-----0
  6
CONTINUOUS
  5
174
 10
228.812913
 20
401.346968
 30
0.0
 11
233.812913
 21
406.346968
 31
0.0
  0
LINE
  8
LC-002-005-----0
  6
CONTINUOUS
  5
175
 10
225.984486
 20
401.346968
 30
0.0
 11
230.984486
 21
406.346968
 31
0.0
  0
LINE
  8
LC-002-005-----0
  6
CONTINUOUS
  5
176
 10
223.256765
 20
401.447674
 30
0.0
 11
228.156059
 21
406.346968
 31
0.0
  0
LINE
  8
LC-002-005-----0
  6
CONTINUOUS
  5
177
 10
223.256765
 20
404.276101
 30
0.0
 11
225.327632
 21
406.346968
 31
0.0
  0
ENDBLK
  8
0
  5
178
  0
BLOCK
  8
0
  5
17A
  2
*X41
 70
    65
 10
318.256765
 20
401.346968
 30
0.0
  3
*X41
  0
LINE
  8
LC-002-005-----0
  6
CONTINUOUS
  5
17B
 10
333.464717
 20
401.346968
 30
0.0
 11
334.256559
 21
402.13881
 31
0.0
  0
LINE
  8
LC-002-005-----0
  6
CONTINUOUS
  5
17C
 10
330.636289
 20
401.346968
 30
0.0
 11
334.256559
 21
404.967237
 31
0.0
  0
LINE
  8
LC-002-005-----0
  6
CONTINUOUS
  5
17D
 10
327.807862
 20
401.346968
 30
0.0
 11
332.807862
 21
406.346968
 31
0.0
  0
LINE
  8
LC-002-005-----0
  6
CONTINUOUS
  5
17E
 10
324.979435
 20
401.346968
 30
0.0
 11
329.979435
 21
406.346968
 31
0.0
  0
LINE
  8
LC-002-005-----0
  6
CONTINUOUS
  5
17F
 10
322.151008
 20
401.346968
 30
0.0
 11
327.151008
 21
406.346968
 31
0.0
  0
LINE
  8
LC-002-005-----0
  6
CONTINUOUS
  5
180
 10
319.322581
 20
401.346968
 30
0.0
 11
324.322581
 21
406.346968
 31
0.0
  0
LINE
  8
LC-002-005-----0
  6
CONTINUOUS
  5
181
 10
318.256765
 20
403.109579
 30
0.0
 11
321.494154
 21
406.346968
 31
0.0
  0
LINE
  8
LC-002-005-----0
  6
CONTINUOUS
  5
182
 10
318.256765
 20
405.938006
 30
0.0
 11
318.665727
 21
406.346968
 31
0.0
  0
ENDBLK
  8
0
  5
183
  0
BLOCK
  8
0
  5
185
  2
*X42
 70
    65
 10
342.256559
 20
401.346968
 30
0.0
  3
*X42
  0
LINE
  8
LC-002-005-----0
  6
CONTINUOUS
  5
186
 10
350.435279
 20
401.346968
 30
0.0
 11
352.256548
 21
403.168236
 31
0.0
  0
LINE
  8
LC-002-005-----0
  6
CONTINUOUS
  5
187
 10
347.606852
 20
401.346968
 30
0.0
 11
352.256548
 21
405.996664
 31
0.0
  0
LINE
  8
LC-002-005-----0
  6
CONTINUOUS
  5
188
 10
344.778425
 20
401.346968
 30
0.0
 11
349.778425
 21
406.346968
 31
0.0
  0
LINE
  8
LC-002-005-----0
  6
CONTINUOUS
  5
189
 10
342.256559
 20
401.653528
 30
0.0
 11
346.949998
 21
406.346968
 31
0.0
  0
LINE
  8
LC-002-005-----0
  6
CONTINUOUS
  5
18A
 10
342.256559
 20
404.481955
 30
0.0
 11
344.121571
 21
406.346968
 31
0.0
  0
ENDBLK
  8
0
  5
18B
  0
BLOCK
  8
0
  5
18D
  2
*X43
 70
    65
 10
360.256548
 20
401.346968
 30
0.0
  3
*X43
  0
LINE
  8
LC-002-005-----0
  6
CONTINUOUS
  5
18E
 10
370.234269
 20
401.346968
 30
0.0
 11
370.256538
 21
401.369236
 31
0.0
  0
LINE
  8
LC-002-005-----0
  6
CONTINUOUS
  5
18F
 10
367.405842
 20
401.346968
 30
0.0
 11
370.256538
 21
404.197663
 31
0.0
  0
LINE
  8
LC-002-005-----0
  6
CONTINUOUS
  5
190
 10
364.577415
 20
401.346968
 30
0.0
 11
369.577415
 21
406.346968
 31
0.0
  0
LINE
  8
LC-002-005-----0
  6
CONTINUOUS
  5
191
 10
361.748988
 20
401.346968
 30
0.0
 11
366.748988
 21
406.346968
 31
0.0
  0
LINE
  8
LC-002-005-----0
  6
CONTINUOUS
  5
192
 10
360.256548
 20
402.682955
 30
0.0
 11
363.920561
 21
406.346968
 31
0.0
  0
LINE
  8
LC-002-005-----0
  6
CONTINUOUS
  5
193
 10
360.256548
 20
405.511382
 30
0.0
 11
361.092134
 21
406.346968
 31
0.0
  0
ENDBLK
  8
0
  5
194
  0
BLOCK
  8
0
  5
196
  2
*X44
 70
    65
 10
378.256538
 20
401.346968
 30
0.0
  3
*X44
  0
LINE
  8
LC-002-005-----0
  6
CONTINUOUS
  5
197
 10
387.204832
 20
401.346968
 30
0.0
 11
389.256527
 21
403.398663
 31
0.0
  0
LINE
  8
LC-002-005-----0
  6
CONTINUOUS
  5
198
 10
384.376405
 20
401.346968
 30
0.0
 11
389.256527
 21
406.22709
 31
0.0
  0
LINE
  8
LC-002-005-----0
  6
CONTINUOUS
  5
199
 10
381.547978
 20
401.346968
 30
0.0
 11
386.547978
 21
406.346968
 31
0.0
  0
LINE
  8
LC-002-005-----0
  6
CONTINUOUS
  5
19A
 10
378.719551
 20
401.346968
 30
0.0
 11
383.719551
 21
406.346968
 31
0.0
  0
LINE
  8
LC-002-005-----0
  6
CONTINUOUS
  5
19B
 10
378.256538
 20
403.712382
 30
0.0
 11
380.891123
 21
406.346968
 31
0.0
  0
ENDBLK
  8
0
  5
19C
  0
BLOCK
  8
0
  5
19E
  2
*X45
 70
    65
 10
397.256527
 20
401.346968
 30
0.0
  3
*X45
  0
LINE
  8
LC-002-005-----0
  6
CONTINUOUS
  5
19F
 10
412.660676
 20
401.346968
 30
0.0
 11
413.256765
 21
401.943057
 31
0.0
  0
LINE
  8
LC-002-005-----0
  6
CONTINUOUS
  5
1A0
 10
409.832249
 20
401.346968
 30
0.0
 11
413.256765
 21
404.771484
 31
0.0
  0
LINE
  8
LC-002-005-----0
  6
CONTINUOUS
  5
1A1
 10
407.003822
 20
401.346968
 30
0.0
 11
412.003822
 21
406.346968
 31
0.0
  0
LINE
  8
LC-002-005-----0
  6
CONTINUOUS
  5
1A2
 10
404.175395
 20
401.346968
 30
0.0
 11
409.175395
 21
406.346968
 31
0.0
  0
LINE
  8
LC-002-005-----0
  6
CONTINUOUS
  5
1A3
 10
401.346968
 20
401.346968
 30
0.0
 11
406.346968
 21
406.346968
 31
0.0
  0
LINE
  8
LC-002-005-----0
  6
CONTINUOUS
  5
1A4
 10
398.51854
 20
401.346968
 30
0.0
 11
403.51854
 21
406.346968
 31
0.0
  0
LINE
  8
LC-002-005-----0
  6
CONTINUOUS
  5
1A5
 10
397.256527
 20
402.913381
 30
0.0
 11
400.690113
 21
406.346968
 31
0.0
  0
LINE
  8
LC-002-005-----0
  6
CONTINUOUS
  5
1A6
 10
397.256527
 20
405.741809
 30
0.0
 11
397.861686
 21
406.346968
 31
0.0
  0
ENDBLK
  8
0
  5
1A7
  0
BLOCK
  8
0
  5
1A9
  2
*D46
 70
    65
 10
0.0
 20
0.0
 30
0.0
  3
*D46
  0
LINE
  8
LC-004-003-MTH-0
  6
CONTINUOUS
  5
1AA
 10
218.256765
 20
406.346968
 30
0.0
 11
218.256765
 21
448.0
 31
0.0
  0
LINE
  8
LC-004-003-MTH-0
  6
CONTINUOUS
  5
1AB
 10
418.256765
 20
406.346968
 30
0.0
 11
418.256765
 21
448.0
 31
0.0
  0
LINE
  8
LC-005-003-MTG-0
  6
CONTINUOUS
  5
1AC
 10
218.256765
 20
431.2
 30
0.0
 11
418.256765
 21
431.2
 31
0.0
  0
LINE
  8
LC-003-003-----0
  6
CONTINUOUS
  5
1AD
 10
246.017221
 20
434.854733
 30
0.0
 11
218.256765
 21
431.2
 31
0.0
  0
LINE
  8
LC-003-003-----0
  6
CONTINUOUS
  5
1AE
 10
218.256765
 20
431.2
 30
0.0
 11
246.017221
 21
427.545267
 31
0.0
  0
LINE
  8
LC-003-003-----0
  6
CONTINUOUS
  5
1AF
 10
246.017221
 20
427.545267
 30
0.0
 11
246.017221
 21
434.854733
 31
0.0
  0
LINE
  8
LC-003-003-----0
  6
CONTINUOUS
  5
1B0
 10
246.079503
 20
433.904503
 30
0.0
 11
225.536765
 21
431.2
 31
0.0
  0
LINE
  8
LC-003-003-----0
  6
CONTINUOUS
  5
1B1
 10
225.536765
 20
431.2
 30
0.0
 11
246.079503
 21
428.495497
 31
0.0
  0
LINE
  8
LC-003-003-----0
  6
CONTINUOUS
  5
1B2
 10
246.141784
 20
432.954272
 30
0.0
 11
232.816765
 21
431.2
 31
0.0
  0
LINE
  8
LC-003-003-----0
  6
CONTINUOUS
  5
1B3
 10
232.816765
 20
431.2
 30
0.0
 11
246.141784
 21
429.445728
 31
0.0
  0
LINE
  8
LC-003-003-----0
  6
CONTINUOUS
  5
1B4
 10
246.204065
 20
432.004041
 30
0.0
 11
240.096765
 21
431.2
 31
0.0
  0
LINE
  8
LC-003-003-----0
  6
CONTINUOUS
  5
1B5
 10
240.096765
 20
431.2
 30
0.0
 11
246.204065
 21
430.395959
 31
0.0
  0
LINE
  8
LC-003-003-----0
  6
CONTINUOUS
  5
1B6
 10
390.496309
 20
427.545267
 30
0.0
 11
418.256765
 21
431.2
 31
0.0
  0
LINE
  8
LC-003-003-----0
  6
CONTINUOUS
  5
1B7
 10
418.256765
 20
431.2
 30
0.0
 11
390.496309
 21
434.854733
 31
0.0
  0
LINE
  8
LC-003-003-----0
  6
CONTINUOUS
  5
1B8
 10
390.496309
 20
434.854733
 30
0.0
 11
390.496309
 21
427.545267
 31
0.0
  0
LINE
  8
LC-003-003-----0
  6
CONTINUOUS
  5
1B9
 10
390.434027
 20
428.495497
 30
0.0
 11
410.976765
 21
431.2
 31
0.0
  0
LINE
  8
LC-003-003-----0
  6
CONTINUOUS
  5
1BA
 10
410.976765
 20
431.2
 30
0.0
 11
390.434027
 21
433.904503
 31
0.0
  0
LINE
  8
LC-003-003-----0
  6
CONTINUOUS
  5
1BB
 10
390.371746
 20
429.445728
 30
0.0
 11
403.696765
 21
431.2
 31
0.0
  0
LINE
  8
LC-003-003-----0
  6
CONTINUOUS
  5
1BC
 10
403.696765
 20
431.2
 30
0.0
 11
390.371746
 21
432.954272
 31
0.0
  0
LINE
  8
LC-003-003-----0
  6
CONTINUOUS
  5
1BD
 10
390.309465
 20
430.395959
 30
0.0
 11
396.416765
 21
431.2
 31
0.0
  0
LINE
  8
LC-003-003-----0
  6
CONTINUOUS
  5
1BE
 10
396.416765
 20
431.2
 30
0.0
 11
390.309465
 21
432.004041
 31
0.0
  0
TEXT
  8
LC-003-003-----0
  6
CONTINUOUS
 62
     8
  5
1BF
 10
296.201625
 20
439.027554
 30
0.0
 40
28.0
  1
200
 41
0.9
 51
15.0
  7
LC-TXTSTYLE-150-400-0-0-A0
 72
     1
 11
322.604925
 21
439.027554
 31
0.0
  0
ENDBLK
  8
0
  5
1C0
  0
BLOCK
  8
0
  5
1C2
  2
*D47
 70
    65
 10
0.0
 20
0.0
 30
0.0
  3
*D47
  0
LINE
  8
LC-004-003-MTH-0
  6
CONTINUOUS
  5
1C3
 10
218.256765
 20
392.846968
 30
0.0
 11
179.2
 21
392.846968
 31
0.0
  0
LINE
  8
LC-004-003-MTH-0
  6
CONTINUOUS
  5
1C4
 10
218.256765
 20
406.346968
 30
0.0
 11
179.2
 21
406.346968
 31
0.0
  0
LINE
  8
LC-003-003-----0
  6
CONTINUOUS
  5
1C5
 10
199.654733
 20
365.086511
 30
0.0
 11
196.0
 21
392.846968
 31
0.0
  0
LINE
  8
LC-003-003-----0
  6
CONTINUOUS
  5
1C6
 10
196.0
 20
392.846968
 30
0.0
 11
192.345267
 21
365.086511
 31
0.0
  0
LINE
  8
LC-003-003-----0
  6
CONTINUOUS
  5
1C7
 10
192.345267
 20
365.086511
 30
0.0
 11
199.654733
 21
365.086511
 31
0.0
  0
LINE
  8
LC-003-003-----0
  6
CONTINUOUS
  5
1C8
 10
198.704503
 20
365.02423
 30
0.0
 11
196.0
 21
385.566968
 31
0.0
  0
LINE
  8
LC-003-003-----0
  6
CONTINUOUS
  5
1C9
 10
196.0
 20
385.566968
 30
0.0
 11
193.295497
 21
365.02423
 31
0.0
  0
LINE
  8
LC-003-003-----0
  6
CONTINUOUS
  5
1CA
 10
197.754272
 20
364.961949
 30
0.0
 11
196.0
 21
378.286968
 31
0.0
  0
LINE
  8
LC-003-003-----0
  6
CONTINUOUS
  5
1CB
 10
196.0
 20
378.286968
 30
0.0
 11
194.245728
 21
364.961949
 31
0.0
  0
LINE
  8
LC-003-003-----0
  6
CONTINUOUS
  5
1CC
 10
196.804041
 20
364.899667
 30
0.0
 11
196.0
 21
371.006968
 31
0.0
  0
LINE
  8
LC-003-003-----0
  6
CONTINUOUS
  5
1CD
 10
196.0
 20
371.006968
 30
0.0
 11
195.195959
 21
364.899667
 31
0.0
  0
LINE
  8
LC-003-003-----0
  6
CONTINUOUS
  5
1CE
 10
192.345267
 20
434.107424
 30
0.0
 11
196.0
 21
406.346968
 31
0.0
  0
LINE
  8
LC-003-003-----0
  6
CONTINUOUS
  5
1CF
 10
196.0
 20
406.346968
 30
0.0
 11
199.654733
 21
434.107424
 31
0.0
  0
LINE
  8
LC-003-003-----0
  6
CONTINUOUS
  5
1D0
 10
199.654733
 20
434.107424
 30
0.0
 11
192.345267
 21
434.107424
 31
0.0
  0
LINE
  8
LC-003-003-----0
  6
CONTINUOUS
  5
1D1
 10
193.295497
 20
434.169705
 30
0.0
 11
196.0
 21
413.626968
 31
0.0
  0
LINE
  8
LC-003-003-----0
  6
CONTINUOUS
  5
1D2
 10
196.0
 20
413.626968
 30
0.0
 11
198.704503
 21
434.169705
 31
0.0
  0
LINE
  8
LC-003-003-----0
  6
CONTINUOUS
  5
1D3
 10
194.245728
 20
434.231986
 30
0.0
 11
196.0
 21
420.906968
 31
0.0
  0
LINE
  8
LC-003-003-----0
  6
CONTINUOUS
  5
1D4
 10
196.0
 20
420.906968
 30
0.0
 11
197.754272
 21
434.231986
 31
0.0
  0
LINE
  8
LC-003-003-----0
  6
CONTINUOUS
  5
1D5
 10
195.195959
 20
434.294268
 30
0.0
 11
196.0
 21
428.186968
 31
0.0
  0
LINE
  8
LC-003-003-----0
  6
CONTINUOUS
  5
1D6
 10
196.0
 20
428.186968
 30
0.0
 11
196.804041
 21
434.294268
 31
0.0
  0
LINE
  8
LC-005-003-MTG-0
  6
CONTINUOUS
  5
1D7
 10
196.0
 20
309.482568
 30
0.0
 11
196.0
 21
445.546968
 31
0.0
  0
TEXT
  8
LC-003-003-----0
  6
CONTINUOUS
 62
     8
  5
1D8
 10
193.772446
 20
323.910727
 30
0.0
 40
28.0
  1
14
 50
90.0
 41
0.9
 51
15.0
  7
LC-TXTSTYLE-150-400-0-0-A0
 72
     2
 11
193.772446
 21
359.115127
 31
0.0
  0
ENDBLK
  8
0
  5
1D9
  0
BLOCK
  8
0
  5
1DB
  2
*X48
 70
    65
 10
393.756765
 20
198.346963
 30
0.0
  3
*X48
  0
LINE
  8
LC-002-005-----0
  6
CONTINUOUS
  5
1DC
 10
393.756765
 20
200.212931
 30
0.0
 11
394.556465
 21
199.413231
 31
0.0
  0
LINE
  8
LC-002-005-----0
  6
CONTINUOUS
  5
1DD
 10
393.756765
 20
203.041358
 30
0.0
 11
395.768647
 21
201.029476
 31
0.0
  0
LINE
  8
LC-002-005-----0
  6
CONTINUOUS
  5
1DE
 10
393.756765
 20
205.869785
 30
0.0
 11
396.756765
 21
202.869785
 31
0.0
  0
LINE
  8
LC-002-005-----0
  6
CONTINUOUS
  5
1DF
 10
393.756765
 20
208.698213
 30
0.0
 11
396.756765
 21
205.698213
 31
0.0
  0
LINE
  8
LC-002-005-----0
  6
CONTINUOUS
  5
1E0
 10
393.756765
 20
211.52664
 30
0.0
 11
396.756765
 21
208.52664
 31
0.0
  0
LINE
  8
LC-002-005-----0
  6
CONTINUOUS
  5
1E1
 10
393.756765
 20
214.355067
 30
0.0
 11
396.756765
 21
211.355067
 31
0.0
  0
LINE
  8
LC-002-005-----0
  6
CONTINUOUS
  5
1E2
 10
394.094138
 20
216.84612
 30
0.0
 11
396.756765
 21
214.183494
 31
0.0
  0
ENDBLK
  8
0
  5
1E3
  0
BLOCK
  8
0
  5
1E5
  2
*X49
 70
    65
 10
239.756765
 20
198.346963
 30
0.0
  3
*X49
  0
LINE
  8
LC-002-005-----0
  6
CONTINUOUS
  5
1E6
 10
242.364056
 20
198.870575
 30
0.0
 11
242.756765
 21
198.477866
 31
0.0
  0
LINE
  8
LC-002-005-----0
  6
CONTINUOUS
  5
1E7
 10
239.756765
 20
204.306294
 30
0.0
 11
242.756765
 21
201.306294
 31
0.0
  0
LINE
  8
LC-002-005-----0
  6
CONTINUOUS
  5
1E8
 10
239.756765
 20
207.134721
 30
0.0
 11
242.756765
 21
204.134721
 31
0.0
  0
LINE
  8
LC-002-005-----0
  6
CONTINUOUS
  5
1E9
 10
239.756765
 20
209.963148
 30
0.0
 11
242.756765
 21
206.963148
 31
0.0
  0
LINE
  8
LC-002-005-----0
  6
CONTINUOUS
  5
1EA
 10
239.756765
 20
212.791575
 30
0.0
 11
242.756765
 21
209.791575
 31
0.0
  0
LINE
  8
LC-002-005-----0
  6
CONTINUOUS
  5
1EB
 10
239.756765
 20
215.620002
 30
0.0
 11
242.756765
 21
212.620002
 31
0.0
  0
LINE
  8
LC-002-005-----0
  6
CONTINUOUS
  5
1EC
 10
241.359074
 20
216.84612
 30
0.0
 11
242.756765
 21
215.448429
 31
0.0
  0
ENDBLK
  8
0
  5
1ED
  0
BLOCK
  8
0
  5
1EF
  2
BLK34
 70
    64
 10
0.0
 20
0.0
 30
0.0
  3
BLK34
  0
ENDBLK
  8
0
  5
1F0
  0
BLOCK
  8
0
  5
1F2
  2
*D51
 70
    65
 10
0.0
 20
0.0
 30
0.0
  3
*D51
  0
LINE
  8
LC-004-003-MTH-0
  6
CONTINUOUS
  5
1F3
 10
387.956765
 20
201.346968
 30
0.0
 11
436.8
 21
201.346968
 31
0.0
  0
LINE
  8
LC-004-003-MTH-0
  6
CONTINUOUS
  5
1F4
 10
390.756765
 20
227.346968
 30
0.0
 11
436.8
 21
227.346968
 31
0.0
  0
LINE
  8
LC-003-003-----0
  6
CONTINUOUS
  5
1F5
 10
423.654733
 20
173.586511
 30
0.0
 11
420.0
 21
201.346968
 31
0.0
  0
LINE
  8
LC-003-003-----0
  6
CONTINUOUS
  5
1F6
 10
420.0
 20
201.346968
 30
0.0
 11
416.345267
 21
173.586511
 31
0.0
  0
LINE
  8
LC-003-003-----0
  6
CONTINUOUS
  5
1F7
 10
416.345267
 20
173.586511
 30
0.0
 11
423.654733
 21
173.586511
 31
0.0
  0
LINE
  8
LC-003-003-----0
  6
CONTINUOUS
  5
1F8
 10
422.704503
 20
173.52423
 30
0.0
 11
420.0
 21
194.066968
 31
0.0
  0
LINE
  8
LC-003-003-----0
  6
CONTINUOUS
  5
1F9
 10
420.0
 20
194.066968
 30
0.0
 11
417.295497
 21
173.52423
 31
0.0
  0
LINE
  8
LC-003-003-----0
  6
CONTINUOUS
  5
1FA
 10
421.754272
 20
173.461949
 30
0.0
 11
420.0
 21
186.786968
 31
0.0
  0
LINE
  8
LC-003-003-----0
  6
CONTINUOUS
  5
1FB
 10
420.0
 20
186.786968
 30
0.0
 11
418.245728
 21
173.461949
 31
0.0
  0
LINE
  8
LC-003-003-----0
  6
CONTINUOUS
  5
1FC
 10
420.804041
 20
173.399667
 30
0.0
 11
420.0
 21
179.506968
 31
0.0
  0
LINE
  8
LC-003-003-----0
  6
CONTINUOUS
  5
1FD
 10
420.0
 20
179.506968
 30
0.0
 11
419.195959
 21
173.399667
 31
0.0
  0
LINE
  8
LC-003-003-----0
  6
CONTINUOUS
  5
1FE
 10
416.345267
 20
255.107424
 30
0.0
 11
420.0
 21
227.346968
 31
0.0
  0
LINE
  8
LC-003-003-----0
  6
CONTINUOUS
  5
1FF
 10
420.0
 20
227.346968
 30
0.0
 11
423.654733
 21
255.107424
 31
0.0
  0
LINE
  8
LC-003-003-----0
  6
CONTINUOUS
  5
200
 10
423.654733
 20
255.107424
 30
0.0
 11
416.345267
 21
255.107424
 31
0.0
  0
LINE
  8
LC-003-003-----0
  6
CONTINUOUS
  5
201
 10
417.295497
 20
255.169705
 30
0.0
 11
420.0
 21
234.626968
 31
0.0
  0
LINE
  8
LC-003-003-----0
  6
CONTINUOUS
  5
202
 10
420.0
 20
234.626968
 30
0.0
 11
422.704503
 21
255.169705
 31
0.0
  0
LINE
  8
LC-003-003-----0
  6
CONTINUOUS
  5
203
 10
418.245728
 20
255.231986
 30
0.0
 11
420.0
 21
241.906968
 31
0.0
  0
LINE
  8
LC-003-003-----0
  6
CONTINUOUS
  5
204
 10
420.0
 20
241.906968
 30
0.0
 11
421.754272
 21
255.231986
 31
0.0
  0
LINE
  8
LC-003-003-----0
  6
CONTINUOUS
  5
205
 10
419.195959
 20
255.294268
 30
0.0
 11
420.0
 21
249.186968
 31
0.0
  0
LINE
  8
LC-003-003-----0
  6
CONTINUOUS
  5
206
 10
420.0
 20
249.186968
 30
0.0
 11
420.804041
 21
255.294268
 31
0.0
  0
LINE
  8
LC-005-003-MTG-0
  6
CONTINUOUS
  5
207
 10
420.0
 20
162.146968
 30
0.0
 11
420.0
 21
310.711368
 31
0.0
  0
TEXT
  8
LC-003-003-----0
  6
CONTINUOUS
 62
     8
  5
208
 10
417.772446
 20
269.775127
 30
0.0
 40
28.0
  1
23
 50
90.0
 41
0.9
 51
15.0
  7
LC-TXTSTYLE-150-400-0-0-A0
  0
ENDBLK
  8
0
  5
209
  0
BLOCK
  8
0
  5
20B
  2
*D52
 70
    65
 10
0.0
 20
0.0
 30
0.0
  3
*D52
  0
LINE
  8
LC-004-003-MTH-0
  6
CONTINUOUS
  5
20C
 10
390.756765
 20
227.346968
 30
0.0
 11
487.2
 21
227.346968
 31
0.0
  0
LINE
  8
LC-004-003-MTH-0
  6
CONTINUOUS
  5
20D
 10
418.256765
 20
406.346968
 30
0.0
 11
487.2
 21
406.346968
 31
0.0
  0
LINE
  8
LC-005-003-MTG-0
  6
CONTINUOUS
  5
20E
 10
470.4
 20
227.346968
 30
0.0
 11
470.4
 21
406.346968
 31
0.0
  0
LINE
  8
LC-003-003-----0
  6
CONTINUOUS
  5
20F
 10
466.745267
 20
255.107424
 30
0.0
 11
470.4
 21
227.346968
 31
0.0
  0
LINE
  8
LC-003-003-----0
  6
CONTINUOUS
  5
210
 10
470.4
 20
227.346968
 30
0.0
 11
474.054733
 21
255.107424
 31
0.0
  0
LINE
  8
LC-003-003-----0
  6
CONTINUOUS
  5
211
 10
474.054733
 20
255.107424
 30
0.0
 11
466.745267
 21
255.107424
 31
0.0
  0
LINE
  8
LC-003-003-----0
  6
CONTINUOUS
  5
212
 10
467.695497
 20
255.169705
 30
0.0
 11
470.4
 21
234.626968
 31
0.0
  0
LINE
  8
LC-003-003-----0
  6
CONTINUOUS
  5
213
 10
470.4
 20
234.626968
 30
0.0
 11
473.104503
 21
255.169705
 31
0.0
  0
LINE
  8
LC-003-003-----0
  6
CONTINUOUS
  5
214
 10
468.645728
 20
255.231986
 30
0.0
 11
470.4
 21
241.906968
 31
0.0
  0
LINE
  8
LC-003-003-----0
  6
CONTINUOUS
  5
215
 10
470.4
 20
241.906968
 30
0.0
 11
472.154272
 21
255.231986
 31
0.0
  0
LINE
  8
LC-003-003-----0
  6
CONTINUOUS
  5
216
 10
469.595959
 20
255.294268
 30
0.0
 11
470.4
 21
249.186968
 31
0.0
  0
LINE
  8
LC-003-003-----0
  6
CONTINUOUS
  5
217
 10
470.4
 20
249.186968
 30
0.0
 11
471.204041
 21
255.294268
 31
0.0
  0
LINE
  8
LC-003-003-----0
  6
CONTINUOUS
  5
218
 10
474.054733
 20
378.586511
 30
0.0
 11
470.4
 21
406.346968
 31
0.0
  0
LINE
  8
LC-003-003-----0
  6
CONTINUOUS
  5
219
 10
470.4
 20
406.346968
 30
0.0
 11
466.745267
 21
378.586511
 31
0.0
  0
LINE
  8
LC-003-003-----0
  6
CONTINUOUS
  5
21A
 10
466.745267
 20
378.586511
 30
0.0
 11
474.054733
 21
378.586511
 31
0.0
  0
LINE
  8
LC-003-003-----0
  6
CONTINUOUS
  5
21B
 10
473.104503
 20
378.52423
 30
0.0
 11
470.4
 21
399.066968
 31
0.0
  0
LINE
  8
LC-003-003-----0
  6
CONTINUOUS
  5
21C
 10
470.4
 20
399.066968
 30
0.0
 11
467.695497
 21
378.52423
 31
0.0
  0
LINE
  8
LC-003-003-----0
  6
CONTINUOUS
  5
21D
 10
472.154272
 20
378.461949
 30
0.0
 11
470.4
 21
391.786968
 31
0.0
  0
LINE
  8
LC-003-003-----0
  6
CONTINUOUS
  5
21E
 10
470.4
 20
391.786968
 30
0.0
 11
468.645728
 21
378.461949
 31
0.0
  0
LINE
  8
LC-003-003-----0
  6
CONTINUOUS
  5
21F
 10
471.204041
 20
378.399667
 30
0.0
 11
470.4
 21
384.506968
 31
0.0
  0
LINE
  8
LC-003-003-----0
  6
CONTINUOUS
  5
220
 10
470.4
 20
384.506968
 30
0.0
 11
469.595959
 21
378.399667
 31
0.0
  0
TEXT
  8
LC-003-003-----0
  6
CONTINUOUS
 62
     8
  5
221
 10
462.572446
 20
269.775127
 30
0.0
 40
28.0
  1
29-182
 50
90.0
 41
0.9
 51
15.0
  7
LC-TXTSTYLE-150-400-0-0-A0
  0
ENDBLK
  8
0
  5
222
  0
BLOCK
  8
0
  5
224
  2
*X53
 70
    65
 10
248.556765
 20
201.346968
 30
0.0
  3
*X53
  0
LINE
  8
LC-002-005-----0
  6
CONTINUOUS
  5
225
 10
314.484053
 20
201.346968
 30
0.0
 11
318.256765
 21
205.11968
 31
0.0
  0
LINE
  8
LC-002-005-----0
  6
CONTINUOUS
  5
226
 10
308.827198
 20
201.346968
 30
0.0
 11
318.256765
 21
210.776534
 31
0.0
  0
LINE
  8
LC-002-005-----0
  6
CONTINUOUS
  5
227
 10
303.170344
 20
201.346968
 30
0.0
 11
318.256765
 21
216.433389
 31
0.0
  0
LINE
  8
LC-002-005-----0
  6
CONTINUOUS
  5
228
 10
297.51349
 20
201.346968
 30
0.0
 11
318.256765
 21
222.090243
 31
0.0
  0
LINE
  8
LC-002-005-----0
  6
CONTINUOUS
  5
229
 10
291.856636
 20
201.346968
 30
0.0
 11
317.856636
 21
227.346968
 31
0.0
  0
LINE
  8
LC-002-005-----0
  6
CONTINUOUS
  5
22A
 10
286.199781
 20
201.346968
 30
0.0
 11
312.199781
 21
227.346968
 31
0.0
  0
LINE
  8
LC-002-005-----0
  6
CONTINUOUS
  5
22B
 10
280.542927
 20
201.346968
 30
0.0
 11
306.542927
 21
227.346968
 31
0.0
  0
LINE
  8
LC-002-005-----0
  6
CONTINUOUS
  5
22C
 10
274.886073
 20
201.346968
 30
0.0
 11
300.886073
 21
227.346968
 31
0.0
  0
LINE
  8
LC-002-005-----0
  6
CONTINUOUS
  5
22D
 10
269.229219
 20
201.346968
 30
0.0
 11
295.229219
 21
227.346968
 31
0.0
  0
LINE
  8
LC-002-005-----0
  6
CONTINUOUS
  5
22E
 10
263.572364
 20
201.346968
 30
0.0
 11
289.572364
 21
227.346968
 31
0.0
  0
LINE
  8
LC-002-005-----0
  6
CONTINUOUS
  5
22F
 10
257.91551
 20
201.346968
 30
0.0
 11
283.91551
 21
227.346968
 31
0.0
  0
LINE
  8
LC-002-005-----0
  6
CONTINUOUS
  5
230
 10
252.258656
 20
201.346968
 30
0.0
 11
278.258656
 21
227.346968
 31
0.0
  0
LINE
  8
LC-002-005-----0
  6
CONTINUOUS
  5
231
 10
248.556765
 20
203.301931
 30
0.0
 11
272.601802
 21
227.346968
 31
0.0
  0
LINE
  8
LC-002-005-----0
  6
CONTINUOUS
  5
232
 10
248.556765
 20
208.958785
 30
0.0
 11
266.944947
 21
227.346968
 31
0.0
  0
LINE
  8
LC-002-005-----0
  6
CONTINUOUS
  5
233
 10
248.556765
 20
214.61564
 30
0.0
 11
261.288093
 21
227.346968
 31
0.0
  0
LINE
  8
LC-002-005-----0
  6
CONTINUOUS
  5
234
 10
248.556765
 20
220.272494
 30
0.0
 11
255.631239
 21
227.346968
 31
0.0
  0
LINE
  8
LC-002-005-----0
  6
CONTINUOUS
  5
235
 10
248.556765
 20
225.929348
 30
0.0
 11
249.974385
 21
227.346968
 31
0.0
  0
LINE
  8
LC-002-005-----0
  6
CONTINUOUS
  5
236
 10
318.256765
 20
224.801243
 30
0.0
 11
315.71104
 21
227.346968
 31
0.0
  0
LINE
  8
LC-002-005-----0
  6
CONTINUOUS
  5
237
 10
318.256765
 20
219.144389
 30
0.0
 11
310.054186
 21
227.346968
 31
0.0
  0
LINE
  8
LC-002-005-----0
  6
CONTINUOUS
  5
238
 10
318.256765
 20
213.487534
 30
0.0
 11
304.397332
 21
227.346968
 31
0.0
  0
LINE
  8
LC-002-005-----0
  6
CONTINUOUS
  5
239
 10
318.256765
 20
207.83068
 30
0.0
 11
298.740478
 21
227.346968
 31
0.0
  0
LINE
  8
LC-002-005-----0
  6
CONTINUOUS
  5
23A
 10
318.256765
 20
202.173826
 30
0.0
 11
293.083623
 21
227.346968
 31
0.0
  0
LINE
  8
LC-002-005-----0
  6
CONTINUOUS
  5
23B
 10
313.426769
 20
201.346968
 30
0.0
 11
287.426769
 21
227.346968
 31
0.0
  0
LINE
  8
LC-002-005-----0
  6
CONTINUOUS
  5
23C
 10
307.769915
 20
201.346968
 30
0.0
 11
281.769915
 21
227.346968
 31
0.0
  0
LINE
  8
LC-002-005-----0
  6
CONTINUOUS
  5
23D
 10
302.113061
 20
201.346968
 30
0.0
 11
276.113061
 21
227.346968
 31
0.0
  0
LINE
  8
LC-002-005-----0
  6
CONTINUOUS
  5
23E
 10
296.456206
 20
201.346968
 30
0.0
 11
270.456206
 21
227.346968
 31
0.0
  0
LINE
  8
LC-002-005-----0
  6
CONTINUOUS
  5
23F
 10
290.799352
 20
201.346968
 30
0.0
 11
264.799352
 21
227.346968
 31
0.0
  0
LINE
  8
LC-002-005-----0
  6
CONTINUOUS
  5
240
 10
285.142498
 20
201.346968
 30
0.0
 11
259.142498
 21
227.346968
 31
0.0
  0
LINE
  8
LC-002-005-----0
  6
CONTINUOUS
  5
241
 10
279.485644
 20
201.346968
 30
0.0
 11
253.485644
 21
227.346968
 31
0.0
  0
LINE
  8
LC-002-005-----0
  6
CONTINUOUS
  5
242
 10
273.828789
 20
201.346968
 30
0.0
 11
248.556765
 21
226.618992
 31
0.0
  0
LINE
  8
LC-002-005-----0
  6
CONTINUOUS
  5
243
 10
268.171935
 20
201.346968
 30
0.0
 11
248.556765
 21
220.962138
 31
0.0
  0
LINE
  8
LC-002-005-----0
  6
CONTINUOUS
  5
244
 10
262.515081
 20
201.346968
 30
0.0
 11
248.556765
 21
215.305283
 31
0.0
  0
LINE
  8
LC-002-005-----0
  6
CONTINUOUS
  5
245
 10
256.858227
 20
201.346968
 30
0.0
 11
248.556765
 21
209.648429
 31
0.0
  0
LINE
  8
LC-002-005-----0
  6
CONTINUOUS
  5
246
 10
251.201372
 20
201.346968
 30
0.0
 11
248.556765
 21
203.991575
 31
0.0
  0
ENDBLK
  8
0
  5
247
  0
BLOCK
  8
0
  5
249
  2
*X54
 70
    65
 10
318.256765
 20
201.346968
 30
0.0
  3
*X54
  0
LINE
  8
LC-002-005-----0
  6
CONTINUOUS
  5
24A
 10
382.366304
 20
201.346968
 30
0.0
 11
387.956765
 21
206.937429
 31
0.0
  0
LINE
  8
LC-002-005-----0
  6
CONTINUOUS
  5
24B
 10
376.709449
 20
201.346968
 30
0.0
 11
387.956765
 21
212.594283
 31
0.0
  0
LINE
  8
LC-002-005-----0
  6
CONTINUOUS
  5
24C
 10
371.052595
 20
201.346968
 30
0.0
 11
387.956765
 21
218.251138
 31
0.0
  0
LINE
  8
LC-002-005-----0
  6
CONTINUOUS
  5
24D
 10
365.395741
 20
201.346968
 30
0.0
 11
387.956765
 21
223.907992
 31
0.0
  0
LINE
  8
LC-002-005-----0
  6
CONTINUOUS
  5
24E
 10
359.738887
 20
201.346968
 30
0.0
 11
385.738887
 21
227.346968
 31
0.0
  0
LINE
  8
LC-002-005-----0
  6
CONTINUOUS
  5
24F
 10
354.082032
 20
201.346968
 30
0.0
 11
380.082032
 21
227.346968
 31
0.0
  0
LINE
  8
LC-002-005-----0
  6
CONTINUOUS
  5
250
 10
348.425178
 20
201.346968
 30
0.0
 11
374.425178
 21
227.346968
 31
0.0
  0
LINE
  8
LC-002-005-----0
  6
CONTINUOUS
  5
251
 10
342.768324
 20
201.346968
 30
0.0
 11
368.768324
 21
227.346968
 31
0.0
  0
LINE
  8
LC-002-005-----0
  6
CONTINUOUS
  5
252
 10
337.11147
 20
201.346968
 30
0.0
 11
363.11147
 21
227.346968
 31
0.0
  0
LINE
  8
LC-002-005-----0
  6
CONTINUOUS
  5
253
 10
331.454615
 20
201.346968
 30
0.0
 11
357.454615
 21
227.346968
 31
0.0
  0
LINE
  8
LC-002-005-----0
  6
CONTINUOUS
  5
254
 10
325.797761
 20
201.346968
 30
0.0
 11
351.797761
 21
227.346968
 31
0.0
  0
LINE
  8
LC-002-005-----0
  6
CONTINUOUS
  5
255
 10
320.140907
 20
201.346968
 30
0.0
 11
346.140907
 21
227.346968
 31
0.0
  0
LINE
  8
LC-002-005-----0
  6
CONTINUOUS
  5
256
 10
318.256765
 20
205.11968
 30
0.0
 11
340.484053
 21
227.346968
 31
0.0
  0
LINE
  8
LC-002-005-----0
  6
CONTINUOUS
  5
257
 10
318.256765
 20
210.776534
 30
0.0
 11
334.827198
 21
227.346968
 31
0.0
  0
LINE
  8
LC-002-005-----0
  6
CONTINUOUS
  5
258
 10
318.256765
 20
216.433389
 30
0.0
 11
329.170344
 21
227.346968
 31
0.0
  0
LINE
  8
LC-002-005-----0
  6
CONTINUOUS
  5
259
 10
318.256765
 20
222.090243
 30
0.0
 11
323.51349
 21
227.346968
 31
0.0
  0
LINE
  8
LC-002-005-----0
  6
CONTINUOUS
  5
25A
 10
387.956765
 20
222.983494
 30
0.0
 11
383.593291
 21
227.346968
 31
0.0
  0
LINE
  8
LC-002-005-----0
  6
CONTINUOUS
  5
25B
 10
387.956765
 20
217.32664
 30
0.0
 11
377.936437
 21
227.346968
 31
0.0
  0
LINE
  8
LC-002-005-----0
  6
CONTINUOUS
  5
25C
 10
387.956765
 20
211.669785
 30
0.0
 11
372.279583
 21
227.346968
 31
0.0
  0
LINE
  8
LC-002-005-----0
  6
CONTINUOUS
  5
25D
 10
387.956765
 20
206.012931
 30
0.0
 11
366.622729
 21
227.346968
 31
0.0
  0
LINE
  8
LC-002-005-----0
  6
CONTINUOUS
  5
25E
 10
386.965874
 20
201.346968
 30
0.0
 11
360.965874
 21
227.346968
 31
0.0
  0
LINE
  8
LC-002-005-----0
  6
CONTINUOUS
  5
25F
 10
381.30902
 20
201.346968
 30
0.0
 11
355.30902
 21
227.346968
 31
0.0
  0
LINE
  8
LC-002-005-----0
  6
CONTINUOUS
  5
260
 10
375.652166
 20
201.346968
 30
0.0
 11
349.652166
 21
227.346968
 31
0.0
  0
LINE
  8
LC-002-005-----0
  6
CONTINUOUS
  5
261
 10
369.995312
 20
201.346968
 30
0.0
 11
343.995312
 21
227.346968
 31
0.0
  0
LINE
  8
LC-002-005-----0
  6
CONTINUOUS
  5
262
 10
364.338457
 20
201.346968
 30
0.0
 11
338.338457
 21
227.346968
 31
0.0
  0
LINE
  8
LC-002-005-----0
  6
CONTINUOUS
  5
263
 10
358.681603
 20
201.346968
 30
0.0
 11
332.681603
 21
227.346968
 31
0.0
  0
LINE
  8
LC-002-005-----0
  6
CONTINUOUS
  5
264
 10
353.024749
 20
201.346968
 30
0.0
 11
327.024749
 21
227.346968
 31
0.0
  0
LINE
  8
LC-002-005-----0
  6
CONTINUOUS
  5
265
 10
347.367895
 20
201.346968
 30
0.0
 11
321.367895
 21
227.346968
 31
0.0
  0
LINE
  8
LC-002-005-----0
  6
CONTINUOUS
  5
266
 10
341.71104
 20
201.346968
 30
0.0
 11
318.256765
 21
224.801243
 31
0.0
  0
LINE
  8
LC-002-005-----0
  6
CONTINUOUS
  5
267
 10
336.054186
 20
201.346968
 30
0.0
 11
318.256765
 21
219.144389
 31
0.0
  0
LINE
  8
LC-002-005-----0
  6
CONTINUOUS
  5
268
 10
330.397332
 20
201.346968
 30
0.0
 11
318.256765
 21
213.487534
 31
0.0
  0
LINE
  8
LC-002-005-----0
  6
CONTINUOUS
  5
269
 10
324.740478
 20
201.346968
 30
0.0
 11
318.256765
 21
207.83068
 31
0.0
  0
LINE
  8
LC-002-005-----0
  6
CONTINUOUS
  5
26A
 10
319.083623
 20
201.346968
 30
0.0
 11
318.256765
 21
202.173826
 31
0.0
  0
ENDBLK
  8
0
  5
26B
  0
ENDSEC
  0
SECTION
  2
ENTITIES
  0
VIEWPORT
  8
LC-000
  5
365
 67
     1
 68
     1
 10
420.0
 20
297.0
 30
0.0
 40
840.0
 41
594.0
 69
     1
1001
ACAD
1000
MVIEW
1002
{
1070
    16
1010
0.0
1020
0.0
1030
0.0
1010
0.0
1020
0.0
1030
1.0
1040
0.0
1040
594.0
1040
420.0
1040
297.0
1040
50.0
1040
0.0
1040
0.0
1070
     0
1070
   100
1070
     1
1070
     1
1070
     0
1070
     0
1070
     0
1070
     0
1040
0.0
1040
0.0
1040
0.0
1040
1.0
1040
1.0
1040
0.0
1040
0.0
1070
     0
1002
{
1002
}
1002
}
  0
VIEWPORT
  8
0
  5
366
 67
     1
 68
     1
 10
0.0
 20
0.0
 30
0.0
 40
0.0
 41
0.0
 69
     1
1001
ACAD
1000
MVIEW
1002
{
1070
    16
1010
0.0
1020
0.0
1030
0.0
1010
0.0
1020
0.0
1030
1.0
1040
0.0
1040
594.0
1040
0.0
1040
0.0
1040
50.0
1040
0.0
1040
0.0
1070
     0
1070
   100
1070
     0
1070
     1
1070
     0
1070
     0
1070
     0
1070
     0
1040
0.0
1040
0.0
1040
0.0
1040
0.5
1040
0.5
1040
0.5
1040
0.5
1070
     0
1002
{
1002
}
1002
}
  0
INSERT
  8
LC-002-005-----0
  6
CONTINUOUS
  5
26C
  2
*X0
 10
387.956765
 20
201.346968
 30
0.0
  0
INSERT
  8
LC-002-005-----0
  6
CONTINUOUS
  5
26D
  2
*X1
 10
218.256765
 20
201.346968
 30
0.0
  0
DIMENSION
  8
LC-003-003-----0
  6
CONTINUOUS
  5
26E
  2
*D2
 10
318.256765
 20
156.8
 30
0.0
 11
318.256765
 21
156.8
 31
0.0
  1
%%c<>
 13
245.756765
 23
206.846968
 33
0.0
 14
390.756765
 24
206.846968
 34
0.0
  3
LC-DIM-L-0140-02-02
  0
INSERT
  8
LC-006-000-----0
  5
270
  2
BLK1
 10
0.0
 20
0.0
 30
0.0
  0
INSERT
  8
LC-006-000-----0
  5
271
  2
BLK2
 10
0.0
 20
0.0
 30
0.0
  0
INSERT
  8
LC-006-000-----0
  5
272
  2
BLK3
 10
0.0
 20
0.0
 30
0.0
  0
INSERT
  8
LC-006-000-----0
  5
273
  2
BLK4
 10
0.0
 20
0.0
 30
0.0
  0
INSERT
  8
LC-006-000-----0
  5
274
  2
BLK5
 10
0.0
 20
0.0
 30
0.0
  0
INSERT
  8
LC-006-000-----0
  5
275
  2
BLK6
 10
0.0
 20
0.0
 30
0.0
  0
INSERT
  8
LC-006-000-----0
  5
276
  2
BLK7
 10
0.0
 20
0.0
 30
0.0
  0
INSERT
  8
LC-006-000-----0
  5
277
  2
BLK8
 10
0.0
 20
0.0
 30
0.0
  0
INSERT
  8
LC-006-000-----0
  5
278
  2
BLK9
 10
0.0
 20
0.0
 30
0.0
  0
INSERT
  8
LC-006-000-----0
  5
279
  2
BLK10
 10
0.0
 20
0.0
 30
0.0
  0
INSERT
  8
LC-006-000-----0
  5
27A
  2
BLK11
 10
0.0
 20
0.0
 30
0.0
  0
INSERT
  8
LC-006-000-----0
  5
27B
  2
BLK12
 10
0.0
 20
0.0
 30
0.0
  0
INSERT
  8
LC-006-000-----0
  5
27C
  2
BLK13
 10
0.0
 20
0.0
 30
0.0
  0
INSERT
  8
LC-006-000-----0
  5
27D
  2
BLK14
 10
0.0
 20
0.0
 30
0.0
  0
INSERT
  8
LC-006-000-----0
  5
27E
  2
BLK15
 10
0.0
 20
0.0
 30
0.0
  0
INSERT
  8
LC-006-000-----0
  5
27F
  2
BLK16
 10
0.0
 20
0.0
 30
0.0
  0
INSERT
  8
LC-006-000-----0
  5
280
  2
BLK17
 10
0.0
 20
0.0
 30
0.0
  0
INSERT
  8
LC-006-000-----0
  5
281
  2
BLK18
 10
0.0
 20
0.0
 30
0.0
  0
INSERT
  8
LC-006-000-----0
  5
282
  2
BLK19
 10
0.0
 20
0.0
 30
0.0
  0
INSERT
  8
LC-006-000-----0
  5
283
  2
BLK20
 10
0.0
 20
0.0
 30
0.0
  0
INSERT
  8
LC-006-000-----0
  5
284
  2
BLK21
 10
0.0
 20
0.0
 30
0.0
  0
INSERT
  8
LC-006-000-----0
  5
285
  2
BLK22
 10
0.0
 20
0.0
 30
0.0
  0
INSERT
  8
LC-006-000-----0
  5
286
  2
BLK23
 10
0.0
 20
0.0
 30
0.0
  0
INSERT
  8
LC-006-000-----0
  5
287
  2
BLK24
 10
0.0
 20
0.0
 30
0.0
  0
INSERT
  8
LC-006-000-----0
  5
288
  2
BLK25
 10
0.0
 20
0.0
 30
0.0
  0
INSERT
  8
LC-006-000-----0
  5
289
  2
BLK26
 10
0.0
 20
0.0
 30
0.0
  0
INSERT
  8
LC-006-000-----0
  5
28A
  2
BLK27
 10
0.0
 20
0.0
 30
0.0
  0
INSERT
  8
LC-006-000-----0
  5
28B
  2
BLK28
 10
0.0
 20
0.0
 30
0.0
  0
INSERT
  8
LC-006-000-----0
  5
28C
  2
BLK29
 10
0.0
 20
0.0
 30
0.0
  0
INSERT
  8
LC-006-000-----0
  5
28D
  2
BLK30
 10
0.0
 20
0.0
 30
0.0
  0
INSERT
  8
LC-006-000-----0
  5
28E
  2
BLK31
 10
0.0
 20
0.0
 30
0.0
  0
INSERT
  8
LC-006-000-----0
  5
28F
  2
BLK32
 10
0.0
 20
0.0
 30
0.0
  0
INSERT
  8
LC-006-000-----0
  5
290
  2
BLK33
 10
0.0
 20
0.0
 30
0.0
  0
INSERT
  8
LC-002-005-----0
  6
CONTINUOUS
  5
291
  2
*X36
 10
302.256971
 20
401.346968
 30
0.0
  0
INSERT
  8
LC-002-005-----0
  6
CONTINUOUS
  5
292
  2
*X37
 10
284.256982
 20
401.346968
 30
0.0
  0
INSERT
  8
LC-002-005-----0
  6
CONTINUOUS
  5
293
  2
*X38
 10
266.256992
 20
401.346968
 30
0.0
  0
INSERT
  8
LC-002-005-----0
  6
CONTINUOUS
  5
294
  2
*X39
 10
247.257003
 20
401.346968
 30
0.0
  0
INSERT
  8
LC-002-005-----0
  6
CONTINUOUS
  5
295
  2
*X40
 10
223.256765
 20
401.346968
 30
0.0
  0
INSERT
  8
LC-002-005-----0
  6
CONTINUOUS
  5
296
  2
*X41
 10
318.256765
 20
401.346968
 30
0.0
  0
INSERT
  8
LC-002-005-----0
  6
CONTINUOUS
  5
297
  2
*X42
 10
342.256559
 20
401.346968
 30
0.0
  0
INSERT
  8
LC-002-005-----0
  6
CONTINUOUS
  5
298
  2
*X43
 10
360.256548
 20
401.346968
 30
0.0
  0
INSERT
  8
LC-002-005-----0
  6
CONTINUOUS
  5
299
  2
*X44
 10
378.256538
 20
401.346968
 30
0.0
  0
INSERT
  8
LC-002-005-----0
  6
CONTINUOUS
  5
29A
  2
*X45
 10
397.256527
 20
401.346968
 30
0.0
  0
DIMENSION
  8
LC-003-003-----0
  6
CONTINUOUS
  5
29B
  2
*D46
 10
318.256765
 20
431.2
 30
0.0
 11
318.256765
 21
431.2
 31
0.0
 13
218.256765
 23
406.346968
 33
0.0
 14
418.256765
 24
406.346968
 34
0.0
  3
LC-DIM-L-0140-02-02
  0
DIMENSION
  8
LC-003-003-----0
  6
CONTINUOUS
  5
29C
  2
*D47
 10
196.0
 20
351.648
 30
0.0
 11
196.0
 21
351.648
 31
0.0
  1
14
 13
218.256765
 23
406.346968
 33
0.0
 14
218.256765
 24
392.846968
 34
0.0
 50
90.0
  3
LC-DIM-L-0140-02-02
  0
INSERT
  8
LC-002-005-----0
  6
CONTINUOUS
  5
29D
  2
*X48
 10
393.756765
 20
198.346963
 30
0.0
  0
INSERT
  8
LC-002-005-----0
  6
CONTINUOUS
  5
29E
  2
*X49
 10
239.756765
 20
198.346963
 30
0.0
  0
INSERT
  8
LC-006-000-----0
  5
29F
  2
BLK34
 10
0.0
 20
0.0
 30
0.0
  0
DIMENSION
  8
LC-003-003-----0
  6
CONTINUOUS
  5
2A0
  2
*D51
 10
420.0
 20
214.346968
 30
0.0
 11
420.0
 21
214.346968
 31
0.0
  1
23
 13
387.956765
 23
201.346968
 33
0.0
 14
390.756765
 24
227.346968
 34
0.0
 50
90.0
  3
LC-DIM-L-0140-02-02
  0
DIMENSION
  8
LC-003-003-----0
  6
CONTINUOUS
  5
2A1
  2
*D52
 10
470.4
 20
253.638
 30
0.0
 11
470.4
 21
253.638
 31
0.0
  1
29-182
 13
390.756765
 23
227.346968
 33
0.0
 14
418.256765
 24
406.346968
 34
0.0
 50
90.0
  3
LC-DIM-L-0140-02-02
  0
INSERT
  8
LC-002-005-----0
  6
CONTINUOUS
  5
2A2
  2
*X53
 10
248.556765
 20
201.346968
 30
0.0
  0
INSERT
  8
LC-002-005-----0
  6
CONTINUOUS
  5
2A3
  2
*X54
 10
318.256765
 20
201.346968
 30
0.0
  0
LINE
  8
LC-001-002-----0
  6
CONTINUOUS
  5
2A5
 10
387.956765
 20
395.346968
 30
0.0
 11
387.956765
 21
201.346968
 31
0.0
  0
LINE
  8
LC-001-002-----0
  6
CONTINUOUS
  5
2A6
 10
245.756765
 20
388.346968
 30
0.0
 11
245.756765
 21
206.846968
 31
0.0
  0
LINE
  8
LC-001-002-----0
  6
CONTINUOUS
  5
2A7
 10
245.756765
 20
206.846968
 30
0.0
 11
247.230486
 21
201.346968
 31
0.0
  0
LINE
  8
LC-001-002-----0
  6
CONTINUOUS
  5
2A8
 10
248.556765
 20
395.346968
 30
0.0
 11
248.556765
 21
201.346968
 31
0.0
  0
LINE
  8
LC-001-002-----0
  6
CONTINUOUS
  5
2A9
 10
390.756765
 20
388.346968
 30
0.0
 11
390.756765
 21
206.846968
 31
0.0
  0
LINE
  8
LC-001-002-----0
  6
CONTINUOUS
  5
2AA
 10
223.256765
 20
406.346968
 30
0.0
 11
413.257011
 21
406.346968
 31
0.0
  0
LINE
  8
LC-001-002-----0
  6
CONTINUOUS
  5
2AB
 10
390.756765
 20
206.846968
 30
0.0
 11
389.283044
 21
201.346968
 31
0.0
  0
LINE
  8
LC-001-002-----0
  6
CONTINUOUS
  5
2AC
 10
413.256765
 20
401.346968
 30
0.0
 11
413.256765
 21
404.346968
 31
0.0
  0
LINE
  8
LC-001-002-----0
  6
DASHDOT
 62
     2
  5
2AE
 10
318.256765
 20
201.346968
 30
0.0
 11
318.256765
 21
406.346968
 31
0.0
  0
LINE
  8
LC-001-002-----0
  6
CONTINUOUS
  5
2AF
 10
418.256765
 20
404.346968
 30
0.0
 11
418.256765
 21
392.846968
 31
0.0
  0
LINE
  8
LC-001-002-----0
  6
CONTINUOUS
  5
2B0
 10
418.256765
 20
392.846968
 30
0.0
 11
393.256765
 21
392.846968
 31
0.0
  0
LINE
  8
LC-001-002-----0
  6
CONTINUOUS
  5
2B1
 10
393.256765
 20
392.846968
 30
0.0
 11
393.256765
 21
388.346968
 31
0.0
  0
LINE
  8
LC-001-002-----0
  6
CONTINUOUS
  5
2B2
 10
393.256765
 20
388.346968
 30
0.0
 11
390.756765
 21
388.346968
 31
0.0
  0
LINE
  8
LC-001-002-----0
  6
CONTINUOUS
  5
2B3
 10
392.864481
 20
395.346968
 30
0.0
 11
387.956765
 21
395.346968
 31
0.0
  0
LINE
  8
LC-001-002-----0
  6
CONTINUOUS
  5
2B4
 10
403.256765
 20
401.346968
 30
0.0
 11
392.864481
 21
395.346968
 31
0.0
  0
LINE
  8
LC-001-002-----0
  6
CONTINUOUS
  5
2B5
 10
490.756765
 20
301.346968
 30
0.0
 11
490.756765
 21
401.346968
 31
0.0
  0
LINE
  8
LC-001-002-----0
  6
CONTINUOUS
  5
2B6
 10
418.256765
 20
404.346968
 30
0.0
 11
418.256765
 21
406.346968
 31
0.0
  0
LINE
  8
LC-001-002-----0
  6
CONTINUOUS
  5
2B7
 10
413.256765
 20
406.346968
 30
0.0
 11
413.256765
 21
404.346968
 31
0.0
  0
LINE
  8
LC-001-002-----0
  6
CONTINUOUS
  5
2B8
 10
418.256765
 20
406.346968
 30
0.0
 11
413.256765
 21
406.346968
 31
0.0
  0
LINE
  8
LC-001-002-----0
  6
CONTINUOUS
  5
2B9
 10
490.756765
 20
401.346968
 30
0.0
 11
690.756765
 21
401.346968
 31
0.0
  0
LINE
  8
LC-001-002-----0
  6
CONTINUOUS
  5
2BA
 10
690.756765
 20
401.346968
 30
0.0
 11
690.756765
 21
201.346968
 31
0.0
  0
LINE
  8
LC-001-002-----0
  6
CONTINUOUS
  5
2BB
 10
690.756765
 20
201.346968
 30
0.0
 11
490.756765
 21
201.346968
 31
0.0
  0
LINE
  8
LC-001-002-----0
  6
CONTINUOUS
  5
2BC
 10
490.756765
 20
201.346968
 30
0.0
 11
490.756765
 21
301.346968
 31
0.0
  0
LINE
  8
LC-001-002-----0
  6
CONTINUOUS
  5
2BD
 10
495.756765
 20
301.346968
 30
0.0
 11
495.756765
 21
396.346968
 31
0.0
  0
LINE
  8
LC-001-002-----0
  6
CONTINUOUS
  5
2BE
 10
495.756765
 20
396.346968
 30
0.0
 11
685.756765
 21
396.346968
 31
0.0
  0
LINE
  8
LC-001-002-----0
  6
CONTINUOUS
  5
2BF
 10
685.756765
 20
396.346968
 30
0.0
 11
685.756765
 21
206.346968
 31
0.0
  0
LINE
  8
LC-001-002-----0
  6
CONTINUOUS
  5
2C0
 10
685.756765
 20
206.346968
 30
0.0
 11
495.756765
 21
206.346968
 31
0.0
  0
LINE
  8
LC-001-002-----0
  6
CONTINUOUS
  5
2C1
 10
495.756765
 20
206.346968
 30
0.0
 11
495.756765
 21
301.346968
 31
0.0
  0
ARC
  8
LC-001-002-----0
  6
CONTINUOUS
  5
2C2
 10
646.756765
 20
341.346968
 30
0.0
 40
4.0
 50
0.0
 51
179.999829
  0
ARC
  8
LC-001-002-----0
  6
CONTINUOUS
  5
2C3
 10
665.756765
 20
357.346968
 30
0.0
 40
4.0
 50
0.0
 51
179.999829
  0
ARC
  8
LC-001-002-----0
  6
CONTINUOUS
  5
2C4
 10
610.756765
 20
309.346968
 30
0.0
 40
4.0
 50
0.0
 51
179.999829
  0
ARC
  8
LC-001-002-----0
  6
CONTINUOUS
  5
2C5
 10
628.756765
 20
325.346968
 30
0.0
 40
4.0
 50
0.0
 51
179.999829
  0
LINE
  8
LC-001-002-----0
  6
CONTINUOUS
  5
2C6
 10
661.756765
 20
357.346968
 30
0.0
 11
661.756765
 21
301.346968
 31
0.0
  0
LINE
  8
LC-001-002-----0
  6
CONTINUOUS
  5
2C7
 10
669.756765
 20
357.346968
 30
0.0
 11
669.756765
 21
301.346968
 31
0.0
  0
LINE
  8
LC-001-002-----0
  6
CONTINUOUS
  5
2C8
 10
642.756765
 20
341.346968
 30
0.0
 11
642.756765
 21
301.346968
 31
0.0
  0
LINE
  8
LC-001-002-----0
  6
CONTINUOUS
 62
     2
  5
2C9
 10
289.078401
 20
458.293304
 30
0.0
 11
289.078401
 21
443.293304
 31
0.0
  0
LINE
  8
LC-001-002-----0
  6
CONTINUOUS
  5
2CA
 10
387.956765
 20
395.346968
 30
0.0
 11
248.556765
 21
395.346968
 31
0.0
  0
LINE
  8
LC-001-002-----0
  6
CONTINUOUS
  5
2CB
 10
223.256765
 20
401.346968
 30
0.0
 11
223.256765
 21
404.346968
 31
0.0
  0
LINE
  8
LC-001-002-----0
  6
CONTINUOUS
  5
2CC
 10
218.256765
 20
404.346968
 30
0.0
 11
218.256765
 21
392.846968
 31
0.0
  0
LINE
  8
LC-001-002-----0
  6
CONTINUOUS
  5
2CD
 10
218.256765
 20
392.846968
 30
0.0
 11
243.256765
 21
392.846968
 31
0.0
  0
LINE
  8
LC-001-002-----0
  6
CONTINUOUS
  5
2CE
 10
243.256765
 20
392.846968
 30
0.0
 11
243.256765
 21
388.346968
 31
0.0
  0
LINE
  8
LC-001-002-----0
  6
CONTINUOUS
  5
2CF
 10
243.256765
 20
388.346968
 30
0.0
 11
245.756765
 21
388.346968
 31
0.0
  0
LINE
  8
LC-001-002-----0
  6
CONTINUOUS
  5
2D0
 10
243.649049
 20
395.346968
 30
0.0
 11
248.556765
 21
395.346968
 31
0.0
  0
LINE
  8
LC-001-002-----0
  6
CONTINUOUS
  5
2D1
 10
223.256765
 20
401.346968
 30
0.0
 11
413.256765
 21
401.346968
 31
0.0
  0
LINE
  8
LC-001-002-----0
  6
CONTINUOUS
  5
2D2
 10
233.256765
 20
401.346968
 30
0.0
 11
243.649049
 21
395.346968
 31
0.0
  0
LINE
  8
LC-001-002-----0
  6
CONTINUOUS
  5
2D3
 10
218.256765
 20
404.346968
 30
0.0
 11
218.256765
 21
406.346968
 31
0.0
  0
LINE
  8
LC-001-002-----0
  6
CONTINUOUS
  5
2D4
 10
223.256765
 20
406.346968
 30
0.0
 11
223.256765
 21
404.346968
 31
0.0
  0
LINE
  8
LC-001-002-----0
  6
CONTINUOUS
  5
2D5
 10
218.256765
 20
406.346968
 30
0.0
 11
223.256765
 21
406.346968
 31
0.0
  0
LINE
  8
LC-001-002-----0
  6
CONTINUOUS
  5
2D6
 10
239.753978
 20
202.350684
 30
0.0
 11
239.753978
 21
216.84612
 31
0.0
  0
LINE
  8
LC-001-002-----0
  6
CONTINUOUS
  5
2D7
 10
650.756765
 20
341.346968
 30
0.0
 11
650.756765
 21
301.346968
 31
0.0
  0
LINE
  8
LC-001-002-----0
  6
CONTINUOUS
  5
2D8
 10
239.257003
 20
401.346968
 30
0.0
 11
239.257003
 21
406.346968
 31
0.0
  0
LINE
  8
LC-001-002-----0
  6
CONTINUOUS
  5
2D9
 10
624.756765
 20
325.346968
 30
0.0
 11
624.756765
 21
301.346968
 31
0.0
  0
LINE
  8
LC-001-002-----0
  6
CONTINUOUS
  5
2DA
 10
632.756765
 20
325.346968
 30
0.0
 11
632.756765
 21
301.346968
 31
0.0
  0
LINE
  8
LC-001-002-----0
  6
CONTINUOUS
  5
2DB
 10
606.756765
 20
309.346968
 30
0.0
 11
606.756765
 21
301.346968
 31
0.0
  0
LINE
  8
LC-001-002-----0
  6
CONTINUOUS
  5
2DC
 10
614.756765
 20
309.346968
 30
0.0
 11
614.756765
 21
301.346968
 31
0.0
  0
ARC
  8
LC-001-002-----0
  6
CONTINUOUS
  5
2DD
 10
646.754919
 20
261.343674
 30
0.0
 40
4.0
 50
179.999925
 51
359.999696
  0
ARC
  8
LC-001-002-----0
  6
CONTINUOUS
  5
2DE
 10
665.754834
 20
245.343573
 30
0.0
 40
4.0
 50
179.999925
 51
359.999696
  0
ARC
  8
LC-001-002-----0
  6
CONTINUOUS
  5
2DF
 10
610.755089
 20
293.343865
 30
0.0
 40
4.0
 50
179.999925
 51
359.999696
  0
ARC
  8
LC-001-002-----0
  6
CONTINUOUS
  5
2E0
 10
628.755004
 20
277.34377
 30
0.0
 40
4.0
 50
179.999925
 51
359.999696
  0
LINE
  8
LC-001-002-----0
  6
CONTINUOUS
  5
2E1
 10
661.754834
 20
245.343595
 30
0.0
 11
661.755132
 21
301.343595
 31
0.0
  0
LINE
  8
LC-001-002-----0
  6
CONTINUOUS
  5
2E2
 10
669.754834
 20
245.343552
 30
0.0
 11
669.755132
 21
301.343552
 31
0.0
  0
LINE
  8
LC-001-002-----0
  6
CONTINUOUS
  5
2E3
 10
642.754919
 20
261.343695
 30
0.0
 11
642.755132
 21
301.343695
 31
0.0
  0
LINE
  8
LC-001-002-----0
  6
CONTINUOUS
  5
2E4
 10
650.754919
 20
261.343653
 30
0.0
 11
650.755132
 21
301.343653
 31
0.0
  0
LINE
  8
LC-001-002-----0
  6
CONTINUOUS
  5
2E5
 10
624.755004
 20
277.343791
 30
0.0
 11
624.755132
 21
301.343791
 31
0.0
  0
LINE
  8
LC-001-002-----0
  6
CONTINUOUS
  5
2E6
 10
632.755004
 20
277.343748
 30
0.0
 11
632.755132
 21
301.343748
 31
0.0
  0
LINE
  8
LC-001-002-----0
  6
CONTINUOUS
  5
2E7
 10
606.755089
 20
293.343886
 30
0.0
 11
606.755132
 21
301.343886
 31
0.0
  0
LINE
  8
LC-001-002-----0
  6
CONTINUOUS
  5
2E8
 10
614.755089
 20
293.343844
 30
0.0
 11
614.755132
 21
301.343844
 31
0.0
  0
ARC
  8
LC-001-002-----0
  6
CONTINUOUS
  5
2E9
 10
534.756992
 20
341.347373
 30
0.0
 40
4.0
 50
0.000115
 51
179.999963
  0
ARC
  8
LC-001-002-----0
  6
CONTINUOUS
  5
2EA
 10
515.757003
 20
357.347386
 30
0.0
 40
4.0
 50
0.000115
 51
179.999963
  0
ARC
  8
LC-001-002-----0
  6
CONTINUOUS
  5
2EB
 10
570.756971
 20
309.34735
 30
0.0
 40
4.0
 50
0.000115
 51
179.999963
  0
ARC
  8
LC-001-002-----0
  6
CONTINUOUS
  5
2EC
 10
552.756982
 20
325.347361
 30
0.0
 40
4.0
 50
0.000115
 51
179.999963
  0
LINE
  8
LC-001-002-----0
  6
CONTINUOUS
  5
2ED
 10
519.757003
 20
357.347383
 30
0.0
 11
519.756966
 21
301.347383
 31
0.0
  0
LINE
  8
LC-001-002-----0
  6
CONTINUOUS
  5
2EE
 10
511.757003
 20
357.347388
 30
0.0
 11
511.756966
 21
301.347388
 31
0.0
  0
LINE
  8
LC-001-002-----0
  6
CONTINUOUS
  5
2EF
 10
538.756992
 20
341.347371
 30
0.0
 11
538.756966
 21
301.347371
 31
0.0
  0
LINE
  8
LC-001-002-----0
  6
CONTINUOUS
  5
2F0
 10
530.756992
 20
341.347376
 30
0.0
 11
530.756966
 21
301.347376
 31
0.0
  0
LINE
  8
LC-001-002-----0
  6
CONTINUOUS
  5
2F1
 10
556.756982
 20
325.347359
 30
0.0
 11
556.756966
 21
301.347359
 31
0.0
  0
LINE
  8
LC-001-002-----0
  6
CONTINUOUS
  5
2F2
 10
548.756982
 20
325.347364
 30
0.0
 11
548.756966
 21
301.347364
 31
0.0
  0
LINE
  8
LC-001-002-----0
  6
CONTINUOUS
  5
2F3
 10
574.756971
 20
309.347347
 30
0.0
 11
574.756966
 21
301.347347
 31
0.0
  0
LINE
  8
LC-001-002-----0
  6
CONTINUOUS
  5
2F4
 10
566.756971
 20
309.347352
 30
0.0
 11
566.756966
 21
301.347352
 31
0.0
  0
ARC
  8
LC-001-002-----0
  6
CONTINUOUS
  5
2F5
 10
534.758786
 20
261.34408
 30
0.0
 40
4.0
 50
180.000267
 51
359.999944
  0
ARC
  8
LC-001-002-----0
  6
CONTINUOUS
  5
2F6
 10
515.75886
 20
245.343991
 30
0.0
 40
4.0
 50
180.000267
 51
359.999944
  0
ARC
  8
LC-001-002-----0
  6
CONTINUOUS
  5
2F7
 10
570.758637
 20
293.344247
 30
0.0
 40
4.0
 50
180.000267
 51
359.999944
  0
ARC
  8
LC-001-002-----0
  6
CONTINUOUS
  5
2F8
 10
552.758711
 20
277.344164
 30
0.0
 40
4.0
 50
180.000267
 51
359.999944
  0
LINE
  8
LC-001-002-----0
  6
CONTINUOUS
  5
2F9
 10
519.75886
 20
245.34401
 30
0.0
 11
519.7586
 21
301.34401
 31
0.0
  0
LINE
  8
LC-001-002-----0
  6
CONTINUOUS
  5
2FA
 10
511.75886
 20
245.343973
 30
0.0
 11
511.7586
 21
301.343973
 31
0.0
  0
LINE
  8
LC-001-002-----0
  6
CONTINUOUS
  5
2FB
 10
538.758786
 20
261.344098
 30
0.0
 11
538.7586
 21
301.344098
 31
0.0
  0
LINE
  8
LC-001-002-----0
  6
CONTINUOUS
  5
2FC
 10
530.758786
 20
261.344061
 30
0.0
 11
530.7586
 21
301.344061
 31
0.0
  0
LINE
  8
LC-001-002-----0
  6
CONTINUOUS
  5
2FD
 10
556.758711
 20
277.344182
 30
0.0
 11
556.7586
 21
301.344182
 31
0.0
  0
LINE
  8
LC-001-002-----0
  6
CONTINUOUS
  5
2FE
 10
548.758711
 20
277.344145
 30
0.0
 11
548.7586
 21
301.344145
 31
0.0
  0
LINE
  8
LC-001-002-----0
  6
CONTINUOUS
  5
2FF
 10
574.758637
 20
293.344266
 30
0.0
 11
574.7586
 21
301.344266
 31
0.0
  0
LINE
  8
LC-001-002-----0
  6
CONTINUOUS
  5
300
 10
566.758637
 20
293.344229
 30
0.0
 11
566.7586
 21
301.344229
 31
0.0
  0
ARC
  8
LC-001-002-----0
  6
CONTINUOUS
  5
301
 10
550.756839
 20
357.347021
 30
0.0
 40
4.0
 50
89.999924
 51
269.999753
  0
ARC
  8
LC-001-002-----0
  6
CONTINUOUS
  5
302
 10
534.756865
 20
376.347042
 30
0.0
 40
4.0
 50
89.999924
 51
269.999753
  0
ARC
  8
LC-001-002-----0
  6
CONTINUOUS
  5
303
 10
582.756792
 20
321.346978
 30
0.0
 40
4.0
 50
89.999924
 51
269.999753
  0
ARC
  8
LC-001-002-----0
  6
CONTINUOUS
  5
304
 10
566.756815
 20
339.346999
 30
0.0
 40
4.0
 50
89.999924
 51
269.999753
  0
LINE
  8
LC-001-002-----0
  6
CONTINUOUS
  5
305
 10
534.756859
 20
372.347042
 30
0.0
 11
590.756859
 21
372.346968
 31
0.0
  0
LINE
  8
LC-001-002-----0
  6
CONTINUOUS
  5
306
 10
534.75687
 20
380.347042
 30
0.0
 11
590.75687
 21
380.346968
 31
0.0
  0
LINE
  8
LC-001-002-----0
  6
CONTINUOUS
  5
307
 10
550.756834
 20
353.347021
 30
0.0
 11
590.756834
 21
353.346968
 31
0.0
  0
LINE
  8
LC-001-002-----0
  6
CONTINUOUS
  5
308
 10
550.756845
 20
361.347021
 30
0.0
 11
590.756845
 21
361.346968
 31
0.0
  0
LINE
  8
LC-001-002-----0
  6
CONTINUOUS
  5
309
 10
566.75681
 20
335.346999
 30
0.0
 11
590.75681
 21
335.346968
 31
0.0
  0
LINE
  8
LC-001-002-----0
  6
CONTINUOUS
  5
30A
 10
566.756821
 20
343.346999
 30
0.0
 11
590.756821
 21
343.346968
 31
0.0
  0
LINE
  8
LC-001-002-----0
  6
CONTINUOUS
  5
30B
 10
582.756786
 20
317.346978
 30
0.0
 11
590.756786
 21
317.346968
 31
0.0
  0
LINE
  8
LC-001-002-----0
  6
CONTINUOUS
  5
30C
 10
582.756797
 20
325.346978
 30
0.0
 11
590.756797
 21
325.346968
 31
0.0
  0
ARC
  8
LC-001-002-----0
  6
CONTINUOUS
  5
30D
 10
630.760133
 20
357.345069
 30
0.0
 40
4.0
 50
269.999791
 51
89.99962
  0
ARC
  8
LC-001-002-----0
  6
CONTINUOUS
  5
30E
 10
646.760259
 20
376.344963
 30
0.0
 40
4.0
 50
269.999791
 51
89.99962
  0
ARC
  8
LC-001-002-----0
  6
CONTINUOUS
  5
30F
 10
598.759894
 20
321.345281
 30
0.0
 40
4.0
 50
269.999791
 51
89.99962
  0
ARC
  8
LC-001-002-----0
  6
CONTINUOUS
  5
310
 10
614.760013
 20
339.345175
 30
0.0
 40
4.0
 50
269.999791
 51
89.99962
  0
LINE
  8
LC-001-002-----0
  6
CONTINUOUS
  5
311
 10
646.760232
 20
372.344963
 30
0.0
 11
590.760232
 21
372.345334
 31
0.0
  0
LINE
  8
LC-001-002-----0
  6
CONTINUOUS
  5
312
 10
646.760285
 20
380.344963
 30
0.0
 11
590.760285
 21
380.345334
 31
0.0
  0
LINE
  8
LC-001-002-----0
  6
CONTINUOUS
  5
313
 10
630.760106
 20
353.345069
 30
0.0
 11
590.760106
 21
353.345334
 31
0.0
  0
LINE
  8
LC-001-002-----0
  6
CONTINUOUS
  5
314
 10
630.760159
 20
361.345069
 30
0.0
 11
590.760159
 21
361.345334
 31
0.0
  0
LINE
  8
LC-001-002-----0
  6
CONTINUOUS
  5
315
 10
614.759987
 20
335.345175
 30
0.0
 11
590.759987
 21
335.345334
 31
0.0
  0
LINE
  8
LC-001-002-----0
  6
CONTINUOUS
  5
316
 10
614.76004
 20
343.345175
 30
0.0
 11
590.76004
 21
343.345334
 31
0.0
  0
LINE
  8
LC-001-002-----0
  6
CONTINUOUS
  5
317
 10
598.759867
 20
317.345281
 30
0.0
 11
590.759867
 21
317.345334
 31
0.0
  0
LINE
  8
LC-001-002-----0
  6
CONTINUOUS
  5
318
 10
598.75992
 20
325.345281
 30
0.0
 11
590.75992
 21
325.345334
 31
0.0
  0
ARC
  8
LC-001-002-----0
  6
CONTINUOUS
  5
319
 10
630.759578
 20
245.348935
 30
0.0
 40
4.0
 50
270.000191
 51
90.000078
  0
ARC
  8
LC-001-002-----0
  6
CONTINUOUS
  5
31A
 10
646.759642
 20
226.348988
 30
0.0
 40
4.0
 50
270.000191
 51
90.000078
  0
ARC
  8
LC-001-002-----0
  6
CONTINUOUS
  5
31B
 10
598.759459
 20
281.348829
 30
0.0
 40
4.0
 50
270.000191
 51
90.000078
  0
ARC
  8
LC-001-002-----0
  6
CONTINUOUS
  5
31C
 10
614.759519
 20
263.348882
 30
0.0
 40
4.0
 50
270.000191
 51
90.000078
  0
LINE
  8
LC-001-002-----0
  6
CONTINUOUS
  5
31D
 10
646.759628
 20
230.348988
 30
0.0
 11
590.759628
 21
230.348802
 31
0.0
  0
LINE
  8
LC-001-002-----0
  6
CONTINUOUS
  5
31E
 10
646.759655
 20
222.348988
 30
0.0
 11
590.759655
 21
222.348802
 31
0.0
  0
LINE
  8
LC-001-002-----0
  6
CONTINUOUS
  5
31F
 10
630.759565
 20
249.348935
 30
0.0
 11
590.759565
 21
249.348802
 31
0.0
  0
LINE
  8
LC-001-002-----0
  6
CONTINUOUS
  5
320
 10
630.759592
 20
241.348935
 30
0.0
 11
590.759592
 21
241.348802
 31
0.0
  0
LINE
  8
LC-001-002-----0
  6
CONTINUOUS
  5
321
 10
614.759505
 20
267.348882
 30
0.0
 11
590.759505
 21
267.348802
 31
0.0
  0
LINE
  8
LC-001-002-----0
  6
CONTINUOUS
  5
322
 10
614.759532
 20
259.348882
 30
0.0
 11
590.759532
 21
259.348802
 31
0.0
  0
LINE
  8
LC-001-002-----0
  6
CONTINUOUS
  5
323
 10
598.759445
 20
285.348829
 30
0.0
 11
590.759445
 21
285.348802
 31
0.0
  0
LINE
  8
LC-001-002-----0
  6
CONTINUOUS
  5
324
 10
598.759472
 20
277.348829
 30
0.0
 11
590.759472
 21
277.348802
 31
0.0
  0
ARC
  8
LC-001-002-----0
  6
CONTINUOUS
  5
325
 10
550.756285
 20
245.347248
 30
0.0
 40
4.0
 50
89.999905
 51
269.999887
  0
ARC
  8
LC-001-002-----0
  6
CONTINUOUS
  5
326
 10
566.756321
 20
263.347216
 30
0.0
 40
4.0
 50
89.999905
 51
269.999887
  0
LINE
  8
LC-001-002-----0
  6
CONTINUOUS
  5
327
 10
534.756255
 20
230.34728
 30
0.0
 11
590.756255
 21
230.347169
 31
0.0
  0
LINE
  8
LC-001-002-----0
  6
CONTINUOUS
  5
328
 10
534.75624
 20
222.34728
 30
0.0
 11
590.75624
 21
222.347169
 31
0.0
  0
LINE
  8
LC-001-002-----0
  6
CONTINUOUS
  5
329
 10
550.756293
 20
249.347248
 30
0.0
 11
590.756293
 21
249.347169
 31
0.0
  0
LINE
  8
LC-001-002-----0
  6
CONTINUOUS
  5
32A
 10
550.756277
 20
241.347248
 30
0.0
 11
590.756277
 21
241.347169
 31
0.0
  0
LINE
  8
LC-001-002-----0
  6
CONTINUOUS
  5
32B
 10
566.756329
 20
267.347216
 30
0.0
 11
590.756329
 21
267.347169
 31
0.0
  0
LINE
  8
LC-001-002-----0
  6
CONTINUOUS
  5
32C
 10
566.756313
 20
259.347216
 30
0.0
 11
590.756313
 21
259.347169
 31
0.0
  0
ARC
  8
LC-001-002-----0
  6
CONTINUOUS
  5
32D
 10
582.756356
 20
281.347185
 30
0.0
 40
4.0
 50
89.999905
 51
269.999887
  0
LINE
  8
LC-001-002-----0
  6
CONTINUOUS
  5
32E
 10
582.756364
 20
285.347185
 30
0.0
 11
590.756364
 21
285.347169
 31
0.0
  0
LINE
  8
LC-001-002-----0
  6
CONTINUOUS
  5
32F
 10
582.756348
 20
277.347185
 30
0.0
 11
590.756348
 21
277.347169
 31
0.0
  0
ARC
  8
LC-001-002-----0
  6
CONTINUOUS
  5
330
 10
534.756247
 20
226.34728
 30
0.0
 40
4.0
 50
89.999905
 51
269.999887
  0
CIRCLE
  8
LC-001-002-----0
  6
CONTINUOUS
  5
331
 10
671.756765
 20
382.346968
 30
0.0
 40
5.5
  0
LINE
  8
LC-001-002-----0
  6
CONTINUOUS
  5
332
 10
675.292299
 20
386.589608
 30
0.0
 11
667.514124
 21
378.811434
 31
0.0
  0
LINE
  8
LC-001-002-----0
  6
CONTINUOUS
  5
333
 10
668.221231
 20
378.104327
 30
0.0
 11
675.999406
 21
385.882501
 31
0.0
  0
CIRCLE
  8
LC-001-002-----0
  6
CONTINUOUS
  5
334
 10
509.757019
 20
382.347389
 30
0.0
 40
5.5
  0
LINE
  8
LC-001-002-----0
  6
CONTINUOUS
  5
335
 10
506.221488
 20
386.590032
 30
0.0
 11
513.999657
 21
378.811853
 31
0.0
  0
LINE
  8
LC-001-002-----0
  6
CONTINUOUS
  5
336
 10
513.29255
 20
378.104746
 30
0.0
 11
505.514381
 21
385.882926
 31
0.0
  0
CIRCLE
  8
LC-001-002-----0
  6
CONTINUOUS
  5
337
 10
671.754702
 20
220.343542
 30
0.0
 40
5.5
  0
LINE
  8
LC-001-002-----0
  6
CONTINUOUS
  5
338
 10
675.290213
 20
216.100882
 30
0.0
 11
667.51208
 21
223.879098
 31
0.0
  0
LINE
  8
LC-001-002-----0
  6
CONTINUOUS
  5
339
 10
668.21919
 20
224.586201
 30
0.0
 11
675.997324
 21
216.807985
 31
0.0
  0
CIRCLE
  8
LC-001-002-----0
  6
CONTINUOUS
  5
33A
 10
509.754956
 20
220.343979
 30
0.0
 40
5.5
  0
LINE
  8
LC-001-002-----0
  6
CONTINUOUS
  5
33B
 10
506.219402
 20
216.101355
 30
0.0
 11
513.997613
 21
223.879494
 31
0.0
  0
LINE
  8
LC-001-002-----0
  6
CONTINUOUS
  5
33C
 10
513.290509
 20
224.586604
 30
0.0
 11
505.512299
 21
216.808465
 31
0.0
  0
LINE
  8
LC-001-002-----0
  6
CONTINUOUS
  5
33D
 10
396.759552
 20
202.350684
 30
0.0
 11
396.759552
 21
216.84612
 31
0.0
  0
LINE
  8
LC-001-002-----0
  6
CONTINUOUS
  5
33E
 10
247.257003
 20
401.346968
 30
0.0
 11
247.257003
 21
406.346968
 31
0.0
  0
LINE
  8
LC-001-002-----0
  6
CONTINUOUS
  5
33F
 10
393.756765
 20
216.84612
 30
0.0
 11
396.756765
 21
216.84612
 31
0.0
  0
LINE
  8
LC-001-002-----0
  6
CONTINUOUS
  5
340
 10
258.256992
 20
401.346968
 30
0.0
 11
258.256992
 21
406.346968
 31
0.0
  0
LINE
  8
LC-001-002-----0
  6
CONTINUOUS
  5
341
 10
266.256992
 20
401.346968
 30
0.0
 11
266.256992
 21
406.346968
 31
0.0
  0
LINE
  8
LC-001-002-----0
  6
CONTINUOUS
  5
342
 10
276.256982
 20
401.346968
 30
0.0
 11
276.256982
 21
406.346968
 31
0.0
  0
LINE
  8
LC-001-002-----0
  6
CONTINUOUS
  5
343
 10
284.256982
 20
401.346968
 30
0.0
 11
284.256982
 21
406.346968
 31
0.0
  0
LINE
  8
LC-001-002-----0
  6
CONTINUOUS
  5
344
 10
294.256971
 20
401.346968
 30
0.0
 11
294.256971
 21
406.346968
 31
0.0
  0
LINE
  8
LC-001-002-----0
  6
CONTINUOUS
  5
345
 10
302.256971
 20
401.346968
 30
0.0
 11
302.256971
 21
406.346968
 31
0.0
  0
LINE
  8
LC-001-002-----0
  6
CONTINUOUS
  5
346
 10
334.256559
 20
401.346968
 30
0.0
 11
334.256559
 21
406.346968
 31
0.0
  0
LINE
  8
LC-001-002-----0
  6
CONTINUOUS
  5
347
 10
342.256559
 20
401.346968
 30
0.0
 11
342.256559
 21
406.346968
 31
0.0
  0
LINE
  8
LC-001-002-----0
  6
CONTINUOUS
  5
348
 10
352.256548
 20
401.346968
 30
0.0
 11
352.256548
 21
406.346968
 31
0.0
  0
LINE
  8
LC-001-002-----0
  6
CONTINUOUS
  5
349
 10
360.256548
 20
401.346968
 30
0.0
 11
360.256548
 21
406.346968
 31
0.0
  0
LINE
  8
LC-001-002-----0
  6
CONTINUOUS
  5
34A
 10
370.256538
 20
401.346968
 30
0.0
 11
370.256538
 21
406.346968
 31
0.0
  0
LINE
  8
LC-001-002-----0
  6
CONTINUOUS
  5
34B
 10
378.256538
 20
401.346968
 30
0.0
 11
378.256538
 21
406.346968
 31
0.0
  0
LINE
  8
LC-001-002-----0
  6
CONTINUOUS
  5
34C
 10
389.256527
 20
401.346968
 30
0.0
 11
389.256527
 21
406.346968
 31
0.0
  0
LINE
  8
LC-001-002-----0
  6
CONTINUOUS
  5
34D
 10
397.256527
 20
401.346968
 30
0.0
 11
397.256527
 21
406.346968
 31
0.0
  0
ARC
  8
LC-007-002-RND-0
  6
CONTINUOUS
  5
34F
 10
393.756765
 20
213.84612
 30
0.0
 40
3.0
 50
90.0
 51
180.0
  0
LINE
  8
LC-001-002-----0
  6
CONTINUOUS
 62
     2
  5
350
 10
274.078401
 20
443.293304
 30
0.0
 11
289.078401
 21
443.293304
 31
0.0
  0
LINE
  8
LC-001-002-----0
  6
CONTINUOUS
 62
     2
  5
351
 10
274.078401
 20
458.293304
 30
0.0
 11
274.078401
 21
443.293304
 31
0.0
  0
LINE
  8
LC-001-002-----0
  6
CONTINUOUS
  5
352
 10
390.756765
 20
213.84612
 30
0.0
 11
390.756765
 21
201.346968
 31
0.0
  0
LINE
  8
LC-001-002-----0
  6
CONTINUOUS
  5
353
 10
386.756765
 20
201.346968
 30
0.0
 11
390.756765
 21
201.346968
 31
0.0
  0
LINE
  8
LC-001-002-----0
  6
CONTINUOUS
  5
354
 10
386.756765
 20
201.346968
 30
0.0
 11
386.756765
 21
198.346968
 31
0.0
  0
LINE
  8
LC-001-002-----0
  6
CONTINUOUS
  5
355
 10
393.756765
 20
198.346963
 30
0.0
 11
386.756765
 21
198.346963
 31
0.0
  0
LINE
  8
LC-001-002-----0
  6
CONTINUOUS
  5
356
 10
393.756765
 20
198.346968
 30
0.0
 11
393.756765
 21
216.84612
 31
0.0
  0
LINE
  8
LC-001-002-----0
  6
CONTINUOUS
  5
357
 10
396.756765
 20
202.346968
 30
0.0
 11
393.756765
 21
198.346963
 31
0.0
  0
LINE
  8
LC-001-002-----0
  6
CONTINUOUS
  5
358
 10
242.756765
 20
198.346963
 30
0.0
 11
386.756765
 21
198.346963
 31
0.0
  0
LINE
  8
LC-001-002-----0
  6
CONTINUOUS
  5
359
 10
242.756765
 20
216.84612
 30
0.0
 11
239.756765
 21
216.84612
 31
0.0
  0
LINE
  8
LC-001-002-----0
  6
CONTINUOUS
  5
35A
 10
242.756765
 20
198.346968
 30
0.0
 11
242.756765
 21
216.84612
 31
0.0
  0
ARC
  8
LC-007-002-RND-0
  6
CONTINUOUS
  5
35B
 10
242.756765
 20
213.84612
 30
0.0
 40
3.0
 50
0.0
 51
90.0
  0
LINE
  8
LC-001-002-----0
  6
CONTINUOUS
  5
35C
 10
239.756765
 20
202.346968
 30
0.0
 11
242.756765
 21
198.346963
 31
0.0
  0
LINE
  8
LC-001-002-----0
  6
CONTINUOUS
  5
35D
 10
249.756765
 20
201.346968
 30
0.0
 11
249.756765
 21
198.346968
 31
0.0
  0
LINE
  8
LC-001-002-----0
  6
CONTINUOUS
  5
35E
 10
386.756765
 20
201.346968
 30
0.0
 11
245.756765
 21
201.346968
 31
0.0
  0
LINE
  8
LC-001-002-----0
  6
CONTINUOUS
  5
35F
 10
245.756765
 20
213.84612
 30
0.0
 11
245.756765
 21
201.346968
 31
0.0
  0
LINE
  8
LC-001-002-----0
  6
CONTINUOUS
  5
360
 10
247.031546
 20
201.346968
 30
0.0
 11
387.703634
 21
201.346968
 31
0.0
  0
LINE
  8
LC-001-002-----0
  6
CONTINUOUS
 62
     2
  5
361
 10
274.078401
 20
458.293304
 30
0.0
 11
289.078401
 21
458.293304
 31
0.0
  0
LINE
  8
LC-001-002-----0
  6
CONTINUOUS
  5
362
 10
389.23126
 20
201.348107
 30
0.0
 11
387.703634
 21
201.348108
 31
0.0
  0
LINE
  8
LC-001-002-----0
  6
CONTINUOUS
 62
     2
  5
363
 10
387.956765
 20
227.346968
 30
0.0
 11
248.556765
 21
227.346968
 31
0.0
  0
ENDSEC
  0
EOF
