  0
SECTION
  2
HEADER
  9
$ACADVER
  1
AC1015
  9
$ACADMAINTVER
 70
     6
  9
$DWGCODEPAGE
  3
ANSI_1252
  9
$INSBASE
 10
0.0
 20
0.0
 30
0.0
  9
$EXTMIN
 10
-55.716455
 20
-84.322141
 30
0.0
  9
$EXTMAX
 10
784.283545
 20
509.677859
 30
0.0
  9
$LIMMIN
 10
-55.716455
 20
-84.322141
  9
$LIMMAX
 10
784.283545
 20
509.677859
  9
$ORTHOMODE
 70
     0
  9
$REGENMODE
 70
     1
  9
$FILLMODE
 70
     1
  9
$QTEXTMODE
 70
     0
  9
$MIRRTEXT
 70
     1
  9
$LTSCALE
 40
2.0
  9
$ATTMODE
 70
     1
  9
$TEXTSIZE
 40
2.5
  9
$TRACEWID
 40
1.0
  9
$TEXTSTYLE
  7
Standard
  9
$CLAYER
  8
0
  9
$CELTYPE
  6
ByLayer
  9
$CECOLOR
 62
     7
  9
$CELTSCALE
 40
1.0
  9
$DISPSILH
 70
     0
  9
$DIMSCALE
 40
2.0
  9
$DIMASZ
 40
3.5
  9
$DIMEXO
 40
0.625
  9
$DIMDLI
 40
3.75
  9
$DIMRND
 40
0.0
  9
$DIMDLE
 40
0.0
  9
$DIMEXE
 40
1.25
  9
$DIMTP
 40
0.0
  9
$DIMTM
 40
0.0
  9
$DIMTXT
 40
3.5
  9
$DIMCEN
 40
2.5
  9
$DIMTSZ
 40
0.0
  9
$DIMTOL
 70
     0
  9
$DIMLIM
 70
     0
  9
$DIMTIH
 70
     0
  9
$DIMTOH
 70
     0
  9
$DIMSE1
 70
     0
  9
$DIMSE2
 70
     0
  9
$DIMTAD
 70
     1
  9
$DIMZIN
 70
     8
  9
$DIMBLK
  1

  9
$DIMASO
 70
     1
  9
$DIMSHO
 70
     1
  9
$DIMPOST
  1

  9
$DIMAPOST
  1

  9
$DIMALT
 70
     0
  9
$DIMALTD
 70
     3
  9
$DIMALTF
 40
0.03937
  9
$DIMLFAC
 40
1.0
  9
$DIMTOFL
 70
     1
  9
$DIMTVP
 40
0.0
  9
$DIMTIX
 70
     0
  9
$DIMSOXD
 70
     0
  9
$DIMSAH
 70
     0
  9
$DIMBLK1
  1

  9
$DIMBLK2
  1

  9
$DIMSTYLE
  2
ISO-25
  9
$DIMCLRD
 70
     0
  9
$DIMCLRE
 70
     0
  9
$DIMCLRT
 70
     0
  9
$DIMTFAC
 40
1.0
  9
$DIMGAP
 40
0.625
  9
$DIMJUST
 70
     0
  9
$DIMSD1
 70
     0
  9
$DIMSD2
 70
     0
  9
$DIMTOLJ
 70
     0
  9
$DIMTZIN
 70
     8
  9
$DIMALTZ
 70
     0
  9
$DIMALTTZ
 70
     0
  9
$DIMUPT
 70
     0
  9
$DIMDEC
 70
     2
  9
$DIMTDEC
 70
     2
  9
$DIMALTU
 70
     2
  9
$DIMALTTD
 70
     3
  9
$DIMTXSTY
  7
Standard
  9
$DIMAUNIT
 70
     0
  9
$DIMADEC
 70
     0
  9
$DIMALTRND
 40
0.0
  9
$DIMAZIN
 70
     0
  9
$DIMDSEP
 70
    44
  9
$DIMATFIT
 70
     3
  9
$DIMFRAC
 70
     0
  9
$DIMLDRBLK
  1

  9
$DIMLUNIT
 70
     2
  9
$DIMLWD
 70
    -2
  9
$DIMLWE
 70
    -2
  9
$DIMTMOVE
 70
     0
  9
$LUNITS
 70
     2
  9
$LUPREC
 70
     4
  9
$SKETCHINC
 40
1.0
  9
$FILLETRAD
 40
10.0
  9
$AUNITS
 70
     0
  9
$AUPREC
 70
     0
  9
$MENU
  1
.
  9
$ELEVATION
 40
0.0
  9
$PELEVATION
 40
0.0
  9
$THICKNESS
 40
0.0
  9
$LIMCHECK
 70
     0
  9
$CHAMFERA
 40
10.0
  9
$CHAMFERB
 40
10.0
  9
$CHAMFERC
 40
20.0
  9
$CHAMFERD
 40
0.0
  9
$SKPOLY
 70
     0
  9
$TDCREATE
 40
2455897.482747569
  9
$TDUCREATE
 40
2455897.441080903
  9
$TDUPDATE
 40
2455897.482747581
  9
$TDUUPDATE
 40
2455897.441080914
  9
$TDINDWG
 40
0.0000000116
  9
$TDUSRTIMER
 40
0.0000000116
  9
$USRTIMER
 70
     1
  9
$ANGBASE
 50
0.0
  9
$ANGDIR
 70
     0
  9
$PDMODE
 70
     0
  9
$PDSIZE
 40
0.0
  9
$PLINEWID
 40
0.0
  9
$SPLFRAME
 70
     0
  9
$SPLINETYPE
 70
     6
  9
$SPLINESEGS
 70
     8
  9
$HANDSEED
  5
738
  9
$SURFTAB1
 70
     6
  9
$SURFTAB2
 70
     6
  9
$SURFTYPE
 70
     6
  9
$SURFU
 70
     6
  9
$SURFV
 70
     6
  9
$UCSBASE
  2

  9
$UCSNAME
  2

  9
$UCSORG
 10
0.0
 20
0.0
 30
0.0
  9
$UCSXDIR
 10
1.0
 20
0.0
 30
0.0
  9
$UCSYDIR
 10
0.0
 20
1.0
 30
0.0
  9
$UCSORTHOREF
  2

  9
$UCSORTHOVIEW
 70
     0
  9
$UCSORGTOP
 10
0.0
 20
0.0
 30
0.0
  9
$UCSORGBOTTOM
 10
0.0
 20
0.0
 30
0.0
  9
$UCSORGLEFT
 10
0.0
 20
0.0
 30
0.0
  9
$UCSORGRIGHT
 10
0.0
 20
0.0
 30
0.0
  9
$UCSORGFRONT
 10
0.0
 20
0.0
 30
0.0
  9
$UCSORGBACK
 10
0.0
 20
0.0
 30
0.0
  9
$PUCSBASE
  2

  9
$PUCSNAME
  2

  9
$PUCSORG
 10
0.0
 20
0.0
 30
0.0
  9
$PUCSXDIR
 10
1.0
 20
0.0
 30
0.0
  9
$PUCSYDIR
 10
0.0
 20
1.0
 30
0.0
  9
$PUCSORTHOREF
  2

  9
$PUCSORTHOVIEW
 70
     0
  9
$PUCSORGTOP
 10
0.0
 20
0.0
 30
0.0
  9
$PUCSORGBOTTOM
 10
0.0
 20
0.0
 30
0.0
  9
$PUCSORGLEFT
 10
0.0
 20
0.0
 30
0.0
  9
$PUCSORGRIGHT
 10
0.0
 20
0.0
 30
0.0
  9
$PUCSORGFRONT
 10
0.0
 20
0.0
 30
0.0
  9
$PUCSORGBACK
 10
0.0
 20
0.0
 30
0.0
  9
$USERI1
 70
     0
  9
$USERI2
 70
     0
  9
$USERI3
 70
     0
  9
$USERI4
 70
     0
  9
$USERI5
 70
     0
  9
$USERR1
 40
0.0
  9
$USERR2
 40
0.0
  9
$USERR3
 40
0.0
  9
$USERR4
 40
0.0
  9
$USERR5
 40
0.0
  9
$WORLDVIEW
 70
     1
  9
$SHADEDGE
 70
     3
  9
$SHADEDIF
 70
    70
  9
$TILEMODE
 70
     1
  9
$MAXACTVP
 70
    64
  9
$PINSBASE
 10
0.0
 20
0.0
 30
0.0
  9
$PLIMCHECK
 70
     0
  9
$PEXTMIN
 10
-55.716455
 20
-84.322141
 30
0.0
  9
$PEXTMAX
 10
784.283545
 20
509.677859
 30
0.0
  9
$PLIMMIN
 10
-55.716455
 20
-84.322141
  9
$PLIMMAX
 10
784.283545
 20
509.677859
  9
$UNITMODE
 70
     0
  9
$VISRETAIN
 70
     1
  9
$PLINEGEN
 70
     0
  9
$PSLTSCALE
 70
     1
  9
$TREEDEPTH
 70
  3020
  9
$CMLSTYLE
  2
Standard
  9
$CMLJUST
 70
     0
  9
$CMLSCALE
 40
20.0
  9
$PROXYGRAPHICS
 70
     1
  9
$MEASUREMENT
 70
     1
  9
$CELWEIGHT
370
    -1
  9
$ENDCAPS
280
     0
  9
$JOINSTYLE
280
     0
  9
$LWDISPLAY
290
     0
  9
$INSUNITS
 70
     4
  9
$HYPERLINKBASE
  1

  9
$STYLESHEET
  1

  9
$XEDIT
290
     1
  9
$CEPSNTYPE
380
     0
  9
$PSTYLEMODE
290
     1
  9
$FINGERPRINTGUID
  2
{FAEB1C30-E019-11D5-929B-00C0DF256EC4}
  9
$VERSIONGUID
  2
{FAEB1C32-E019-11D5-929B-00C0DF256EC4}
  9
$EXTNAMES
290
     1
  9
$PSVPSCALE
 40
0.0
  9
$OLESTARTUP
290
     0
  0
ENDSEC
  0
SECTION
  2
CLASSES
  0
CLASS
  1
ACDBDICTIONARYWDFLT
  2
AcDbDictionaryWithDefault
  3
ObjectDBX Classes
 90
        0
280
     0
281
     0
  0
CLASS
  1
ACDBPLACEHOLDER
  2
AcDbPlaceHolder
  3
ObjectDBX Classes
 90
        0
280
     0
281
     0
  0
CLASS
  1
LAYOUT
  2
AcDbLayout
  3
ObjectDBX Classes
 90
        0
280
     0
281
     0
  0
ENDSEC
  0
SECTION
  2
TABLES
  0
TABLE
  2
VPORT
  5
8
330
0
100
AcDbSymbolTable
 70
     2
  0
VPORT
  5
29
330
8
100
AcDbSymbolTableRecord
100
AcDbViewportTableRecord
  2
*ACTIVE
 70
     0
 10
0.0
 20
0.0
 11
1.0
 21
1.0
 12
364.283545
 22
212.677859
 13
0.0
 23
0.0
 14
1.0
 24
1.0
 15
0.0
 25
0.0
 16
0.0
 26
0.0
 36
1.0
 17
0.0
 27
0.0
 37
0.0
 40
594.0
 41
1.414141
 42
50.0
 43
0.0
 44
0.0
 50
0.0
 51
0.0
 71
    16
 72
   100
 73
     1
 74
     0
 75
     0
 76
     0
 77
     0
 78
     0
281
     0
 65
     0
110
0.0
120
0.0
130
0.0
111
1.0
121
0.0
131
0.0
112
0.0
122
1.0
132
0.0
 79
     0
146
0.0
  0
ENDTAB
  0
TABLE
  2
LTYPE
  5
5
330
0
100
AcDbSymbolTable
 70
     3
  0
LTYPE
  5
14
330
5
100
AcDbSymbolTableRecord
100
AcDbLinetypeTableRecord
  2
ByBlock
 70
     0
  3

 72
    65
 73
     0
 40
0.0
  0
LTYPE
  5
15
330
5
100
AcDbSymbolTableRecord
100
AcDbLinetypeTableRecord
  2
ByLayer
 70
     0
  3

 72
    65
 73
     0
 40
0.0
  0
LTYPE
  5
16
330
5
100
AcDbSymbolTableRecord
100
AcDbLinetypeTableRecord
  2
Continuous
 70
     0
  3
Solid line
 72
    65
 73
     0
 40
0.0
  0
LTYPE
  5
2A
330
5
100
AcDbSymbolTableRecord
100
AcDbLinetypeTableRecord
  2
DASHED
 70
     0
  3
__ __ __ __ __
 72
    65
 73
     2
 40
6.25
 49
5.0
 74
     4
 75
     0
340
0
 46
1.0
 50
0.0
 44
0.0
 45
0.0
 49
-1.25
 74
     4
 75
     0
340
0
 46
1.0
 50
0.0
 44
0.0
 45
0.0
  0
LTYPE
  5
6F9
330
5
100
AcDbSymbolTableRecord
100
AcDbLinetypeTableRecord
  2
DASHDOT
 70
     0
  3
__ . __ . __ . __ . __
 72
    65
 73
     4
 40
7.5
 49
5.0
 74
     4
 75
     0
340
0
 46
1.0
 50
0.0
 44
0.0
 45
0.0
 49
-1.25
 74
     4
 75
     0
340
0
 46
1.0
 50
0.0
 44
0.0
 45
0.0
 49
0.0
 74
     4
 75
     0
340
0
 46
1.0
 50
0.0
 44
0.0
 45
0.0
 49
-1.25
 74
     4
 75
     0
340
0
 46
1.0
 50
0.0
 44
0.0
 45
0.0
  0
ENDTAB
  0
TABLE
  2
LAYER
  5
2
330
0
100
AcDbSymbolTable
 70
     8
  0
LAYER
  5
10
330
2
100
AcDbSymbolTableRecord
100
AcDbLayerTableRecord
  2
0
 70
     0
 62
     7
  6
Continuous
370
    -3
390
F
  0
LAYER
  5
2B
330
2
100
AcDbSymbolTableRecord
100
AcDbLayerTableRecord
  2
LC-INFO-1-2-mm-A3-0
 70
     1
 62
     7
  6
ByBlock
370
    -3
390
F
  0
LAYER
  5
2C
330
2
100
AcDbSymbolTableRecord
100
AcDbLayerTableRecord
  2
LC-CUT-HIDDEN
 70
     0
 62
     7
  6
DASHED
370
    -3
390
F
  0
LAYER
  5
2D
330
2
100
AcDbSymbolTableRecord
100
AcDbLayerTableRecord
  2
LC-VIEWPORT
 70
     0
 62
     7
  6
ByBlock
370
    -3
390
F
  0
LAYER
  5
2E
330
2
100
AcDbSymbolTableRecord
100
AcDbLayerTableRecord
  2
LC-3D-HIDDEN
 70
     0
 62
     9
  6
DASHED
370
    -3
390
F
  0
LAYER
  5
30
330
2
100
AcDbSymbolTableRecord
100
AcDbLayerTableRecord
  2
LC-001-100-D00-0
 70
     0
 62
     1
  6
ByBlock
370
    -3
390
F
  0
LAYER
  5
67F
330
2
100
AcDbSymbolTableRecord
100
AcDbLayerTableRecord
  2
Defpoints
 70
     0
 62
     7
  6
Continuous
290
     0
370
    -3
390
F
  0
LAYER
  5
71A
330
2
100
AcDbSymbolTableRecord
100
AcDbLayerTableRecord
  2
LC-002-003-----0
 70
     0
 62
     2
  6
ByBlock
370
    -3
390
F
  0
ENDTAB
  0
TABLE
  2
STYLE
  5
3
330
0
100
AcDbSymbolTable
 70
     3
  0
STYLE
  5
11
330
3
100
AcDbSymbolTableRecord
100
AcDbTextStyleTableRecord
  2
Standard
 70
     0
 40
0.0
 41
1.0
 50
0.0
 71
     0
 42
2.5
  3
txt
  4

  0
STYLE
  5
2F
330
3
100
AcDbSymbolTableRecord
100
AcDbTextStyleTableRecord
  2
LCTX15-400-0-0-Arial
 70
     0
 40
0.0
 41
0.8
 50
0.0
 71
     0
 42
3.5
  3

  4

1001
ACAD
1000
Arial
1071
 16777218
  0
STYLE
  5
67C
330
3
100
AcDbSymbolTableRecord
100
AcDbTextStyleTableRecord
  2
LCTX15-400-0-0pDIN-Schrift
 70
     0
 40
2.5
 41
0.8
 50
15.0
 71
     0
 42
3.5
  3
STANDARD
  4

  0
ENDTAB
  0
TABLE
  2
VIEW
  5
6
330
0
100
AcDbSymbolTable
 70
     0
  0
ENDTAB
  0
TABLE
  2
UCS
  5
7
330
0
100
AcDbSymbolTable
 70
     0
  0
ENDTAB
  0
TABLE
  2
APPID
  5
9
330
0
100
AcDbSymbolTable
 70
     1
  0
APPID
  5
12
330
9
100
AcDbSymbolTableRecord
100
AcDbRegAppTableRecord
  2
ACAD
 70
     0
  0
ENDTAB
  0
TABLE
  2
DIMSTYLE
  5
A
330
0
100
AcDbSymbolTable
 70
     2
100
AcDbDimStyleTable
  0
DIMSTYLE
105
27
330
A
100
AcDbSymbolTableRecord
100
AcDbDimStyleTableRecord
  2
ISO-25
 70
     0
 41
2.5
 42
0.625
 43
3.75
 44
1.25
 73
     0
 74
     0
 77
     1
 78
     8
140
2.5
141
2.5
143
0.03937
147
0.625
171
     3
172
     1
271
     2
272
     2
274
     3
278
    44
283
     0
284
     8
340
11
  0
DIMSTYLE
105
67D
102
{ACAD_REACTORS
330
67E
330
68D
330
69B
330
6A8
330
6B7
330
6C5
330
6D2
330
6DF
330
6EC
330
71B
330
729
102
}
330
A
100
AcDbSymbolTableRecord
100
AcDbDimStyleTableRecord
  2
LC-DIM-L-0140-02-02
 70
     0
 40
2.0
 41
14.0
 42
0.0
 43
7.5
 44
1.8
 73
     0
 74
     0
 77
     1
 78
     8
 79
     2
140
14.0
141
0.0
146
0.71
147
1.5
176
     2
177
     2
178
     2
179
     2
271
     2
278
    44
289
     1
340
67C
  0
ENDTAB
  0
TABLE
  2
BLOCK_RECORD
  5
1
330
0
100
AcDbSymbolTable
 70
    73
  0
BLOCK_RECORD
  5
1F
330
1
100
AcDbSymbolTableRecord
100
AcDbBlockTableRecord
  2
*Model_Space
340
22
  0
BLOCK_RECORD
  5
1B
330
1
100
AcDbSymbolTableRecord
100
AcDbBlockTableRecord
  2
*Paper_Space
340
1E
  0
BLOCK_RECORD
  5
23
330
1
100
AcDbSymbolTableRecord
100
AcDbBlockTableRecord
  2
*Paper_Space0
340
26
  0
BLOCK_RECORD
  5
37
330
1
100
AcDbSymbolTableRecord
100
AcDbBlockTableRecord
  2
KLON1
340
0
102
{BLKREFS
331
3C
102
}
  0
BLOCK_RECORD
  5
3D
330
1
100
AcDbSymbolTableRecord
100
AcDbBlockTableRecord
  2
KLON2
340
0
102
{BLKREFS
331
42
102
}
  0
BLOCK_RECORD
  5
43
330
1
100
AcDbSymbolTableRecord
100
AcDbBlockTableRecord
  2
KLON3
340
0
102
{BLKREFS
331
48
102
}
  0
BLOCK_RECORD
  5
49
330
1
100
AcDbSymbolTableRecord
100
AcDbBlockTableRecord
  2
KLON4
340
0
102
{BLKREFS
331
4E
102
}
  0
BLOCK_RECORD
  5
4F
330
1
100
AcDbSymbolTableRecord
100
AcDbBlockTableRecord
  2
KLON5
340
0
102
{BLKREFS
331
54
102
}
  0
BLOCK_RECORD
  5
55
330
1
100
AcDbSymbolTableRecord
100
AcDbBlockTableRecord
  2
KLON6
340
0
102
{BLKREFS
331
5A
102
}
  0
BLOCK_RECORD
  5
5B
330
1
100
AcDbSymbolTableRecord
100
AcDbBlockTableRecord
  2
KLON7
340
0
102
{BLKREFS
331
60
102
}
  0
BLOCK_RECORD
  5
61
330
1
100
AcDbSymbolTableRecord
100
AcDbBlockTableRecord
  2
KLON8
340
0
102
{BLKREFS
331
66
102
}
  0
BLOCK_RECORD
  5
E0
330
1
100
AcDbSymbolTableRecord
100
AcDbBlockTableRecord
  2
POLY1
340
0
102
{BLKREFS
331
EF
102
}
  0
BLOCK_RECORD
  5
F2
330
1
100
AcDbSymbolTableRecord
100
AcDbBlockTableRecord
  2
POLY2
340
0
102
{BLKREFS
331
101
102
}
  0
BLOCK_RECORD
  5
104
330
1
100
AcDbSymbolTableRecord
100
AcDbBlockTableRecord
  2
POLY3
340
0
102
{BLKREFS
331
113
102
}
  0
BLOCK_RECORD
  5
116
330
1
100
AcDbSymbolTableRecord
100
AcDbBlockTableRecord
  2
POLY4
340
0
102
{BLKREFS
331
125
102
}
  0
BLOCK_RECORD
  5
12C
330
1
100
AcDbSymbolTableRecord
100
AcDbBlockTableRecord
  2
POLY5
340
0
102
{BLKREFS
331
13B
102
}
  0
BLOCK_RECORD
  5
13C
330
1
100
AcDbSymbolTableRecord
100
AcDbBlockTableRecord
  2
POLY6
340
0
102
{BLKREFS
331
14B
102
}
  0
BLOCK_RECORD
  5
14C
330
1
100
AcDbSymbolTableRecord
100
AcDbBlockTableRecord
  2
POLY7
340
0
102
{BLKREFS
331
159
102
}
  0
BLOCK_RECORD
  5
15A
330
1
100
AcDbSymbolTableRecord
100
AcDbBlockTableRecord
  2
POLY8
340
0
102
{BLKREFS
331
165
102
}
  0
BLOCK_RECORD
  5
170
330
1
100
AcDbSymbolTableRecord
100
AcDbBlockTableRecord
  2
POLY9
340
0
102
{BLKREFS
331
17D
102
}
  0
BLOCK_RECORD
  5
17E
330
1
100
AcDbSymbolTableRecord
100
AcDbBlockTableRecord
  2
POLY10
340
0
102
{BLKREFS
331
18B
102
}
  0
BLOCK_RECORD
  5
18C
330
1
100
AcDbSymbolTableRecord
100
AcDbBlockTableRecord
  2
POLY11
340
0
102
{BLKREFS
331
199
102
}
  0
BLOCK_RECORD
  5
19A
330
1
100
AcDbSymbolTableRecord
100
AcDbBlockTableRecord
  2
POLY12
340
0
102
{BLKREFS
331
1A9
102
}
  0
BLOCK_RECORD
  5
1AA
330
1
100
AcDbSymbolTableRecord
100
AcDbBlockTableRecord
  2
POLY13
340
0
102
{BLKREFS
331
1B5
102
}
  0
BLOCK_RECORD
  5
1B9
330
1
100
AcDbSymbolTableRecord
100
AcDbBlockTableRecord
  2
POLY14
340
0
102
{BLKREFS
331
1C6
102
}
  0
BLOCK_RECORD
  5
1C8
330
1
100
AcDbSymbolTableRecord
100
AcDbBlockTableRecord
  2
POLY15
340
0
102
{BLKREFS
331
1D7
102
}
  0
BLOCK_RECORD
  5
1D8
330
1
100
AcDbSymbolTableRecord
100
AcDbBlockTableRecord
  2
POLY16
340
0
102
{BLKREFS
331
1E5
102
}
  0
BLOCK_RECORD
  5
1E6
330
1
100
AcDbSymbolTableRecord
100
AcDbBlockTableRecord
  2
POLY17
340
0
102
{BLKREFS
331
1F3
102
}
  0
BLOCK_RECORD
  5
1F4
330
1
100
AcDbSymbolTableRecord
100
AcDbBlockTableRecord
  2
POLY18
340
0
102
{BLKREFS
331
1FF
102
}
  0
BLOCK_RECORD
  5
227
330
1
100
AcDbSymbolTableRecord
100
AcDbBlockTableRecord
  2
POLY19
340
0
102
{BLKREFS
331
232
102
}
  0
BLOCK_RECORD
  5
2B3
330
1
100
AcDbSymbolTableRecord
100
AcDbBlockTableRecord
  2
POLY20
340
0
102
{BLKREFS
331
2C6
102
}
  0
BLOCK_RECORD
  5
2CD
330
1
100
AcDbSymbolTableRecord
100
AcDbBlockTableRecord
  2
POLY21
340
0
102
{BLKREFS
331
2DA
102
}
  0
BLOCK_RECORD
  5
2E0
330
1
100
AcDbSymbolTableRecord
100
AcDbBlockTableRecord
  2
POLY22
340
0
102
{BLKREFS
331
2F3
102
}
  0
BLOCK_RECORD
  5
2F5
330
1
100
AcDbSymbolTableRecord
100
AcDbBlockTableRecord
  2
POLY23
340
0
102
{BLKREFS
331
302
102
}
  0
BLOCK_RECORD
  5
306
330
1
100
AcDbSymbolTableRecord
100
AcDbBlockTableRecord
  2
POLY24
340
0
102
{BLKREFS
331
313
102
}
  0
BLOCK_RECORD
  5
314
330
1
100
AcDbSymbolTableRecord
100
AcDbBlockTableRecord
  2
POLY25
340
0
102
{BLKREFS
331
327
102
}
  0
BLOCK_RECORD
  5
3A9
330
1
100
AcDbSymbolTableRecord
100
AcDbBlockTableRecord
  2
POLY26
340
0
102
{BLKREFS
331
3B6
102
}
  0
BLOCK_RECORD
  5
498
330
1
100
AcDbSymbolTableRecord
100
AcDbBlockTableRecord
  2
POLY27
340
0
102
{BLKREFS
331
4AB
102
}
  0
BLOCK_RECORD
  5
4AD
330
1
100
AcDbSymbolTableRecord
100
AcDbBlockTableRecord
  2
POLY28
340
0
102
{BLKREFS
331
4B8
102
}
  0
BLOCK_RECORD
  5
4BC
330
1
100
AcDbSymbolTableRecord
100
AcDbBlockTableRecord
  2
POLY29
340
0
102
{BLKREFS
331
4CB
102
}
  0
BLOCK_RECORD
  5
4CF
330
1
100
AcDbSymbolTableRecord
100
AcDbBlockTableRecord
  2
POLY30
340
0
102
{BLKREFS
331
4DC
102
}
  0
BLOCK_RECORD
  5
4DF
330
1
100
AcDbSymbolTableRecord
100
AcDbBlockTableRecord
  2
POLY31
340
0
102
{BLKREFS
331
4EA
102
}
  0
BLOCK_RECORD
  5
4EF
330
1
100
AcDbSymbolTableRecord
100
AcDbBlockTableRecord
  2
POLY32
340
0
102
{BLKREFS
331
4FC
102
}
  0
BLOCK_RECORD
  5
501
330
1
100
AcDbSymbolTableRecord
100
AcDbBlockTableRecord
  2
POLY33
340
0
102
{BLKREFS
331
50E
102
}
  0
BLOCK_RECORD
  5
532
330
1
100
AcDbSymbolTableRecord
100
AcDbBlockTableRecord
  2
POLY34
340
0
102
{BLKREFS
331
541
102
}
  0
BLOCK_RECORD
  5
543
330
1
100
AcDbSymbolTableRecord
100
AcDbBlockTableRecord
  2
POLY35
340
0
102
{BLKREFS
331
54E
102
}
  0
BLOCK_RECORD
  5
550
330
1
100
AcDbSymbolTableRecord
100
AcDbBlockTableRecord
  2
POLY36
340
0
102
{BLKREFS
331
55F
102
}
  0
BLOCK_RECORD
  5
561
330
1
100
AcDbSymbolTableRecord
100
AcDbBlockTableRecord
  2
POLY37
340
0
102
{BLKREFS
331
570
102
}
  0
BLOCK_RECORD
  5
571
330
1
100
AcDbSymbolTableRecord
100
AcDbBlockTableRecord
  2
POLY38
340
0
102
{BLKREFS
331
580
102
}
  0
BLOCK_RECORD
  5
581
330
1
100
AcDbSymbolTableRecord
100
AcDbBlockTableRecord
  2
POLY39
340
0
102
{BLKREFS
331
590
102
}
  0
BLOCK_RECORD
  5
591
330
1
100
AcDbSymbolTableRecord
100
AcDbBlockTableRecord
  2
POLY40
340
0
102
{BLKREFS
331
5A0
102
}
  0
BLOCK_RECORD
  5
5A2
330
1
100
AcDbSymbolTableRecord
100
AcDbBlockTableRecord
  2
POLY41
340
0
102
{BLKREFS
331
5B1
102
}
  0
BLOCK_RECORD
  5
5B3
330
1
100
AcDbSymbolTableRecord
100
AcDbBlockTableRecord
  2
POLY42
340
0
102
{BLKREFS
331
5BE
102
}
  0
BLOCK_RECORD
  5
5D8
330
1
100
AcDbSymbolTableRecord
100
AcDbBlockTableRecord
  2
KLON9
340
0
102
{BLKREFS
331
5DD
102
}
  0
BLOCK_RECORD
  5
5DE
330
1
100
AcDbSymbolTableRecord
100
AcDbBlockTableRecord
  2
KLON10
340
0
102
{BLKREFS
331
5E3
102
}
  0
BLOCK_RECORD
  5
5E6
330
1
100
AcDbSymbolTableRecord
100
AcDbBlockTableRecord
  2
KLON11
340
0
102
{BLKREFS
331
5ED
102
}
  0
BLOCK_RECORD
  5
5EE
330
1
100
AcDbSymbolTableRecord
100
AcDbBlockTableRecord
  2
KLON12
340
0
102
{BLKREFS
331
5F5
102
}
  0
BLOCK_RECORD
  5
5F6
330
1
100
AcDbSymbolTableRecord
100
AcDbBlockTableRecord
  2
KLON13
340
0
102
{BLKREFS
331
5FD
102
}
  0
BLOCK_RECORD
  5
5FE
330
1
100
AcDbSymbolTableRecord
100
AcDbBlockTableRecord
  2
KLON14
340
0
102
{BLKREFS
331
607
102
}
  0
BLOCK_RECORD
  5
608
330
1
100
AcDbSymbolTableRecord
100
AcDbBlockTableRecord
  2
KLON15
340
0
102
{BLKREFS
331
612
102
}
  0
BLOCK_RECORD
  5
614
330
1
100
AcDbSymbolTableRecord
100
AcDbBlockTableRecord
  2
KLON16
340
0
102
{BLKREFS
331
63C
102
}
  0
BLOCK_RECORD
  5
63D
330
1
100
AcDbSymbolTableRecord
100
AcDbBlockTableRecord
  2
KLON17
340
0
102
{BLKREFS
331
661
102
}
  0
BLOCK_RECORD
  5
663
330
1
100
AcDbSymbolTableRecord
100
AcDbBlockTableRecord
  2
KLON18
340
0
102
{BLKREFS
331
670
102
}
  0
BLOCK_RECORD
  5
671
330
1
100
AcDbSymbolTableRecord
100
AcDbBlockTableRecord
  2
KLON19
340
0
102
{BLKREFS
331
67B
102
}
  0
BLOCK_RECORD
  5
680
330
1
100
AcDbSymbolTableRecord
100
AcDbBlockTableRecord
  2
*D62
340
0
  0
BLOCK_RECORD
  5
68E
330
1
100
AcDbSymbolTableRecord
100
AcDbBlockTableRecord
  2
*D63
340
0
  0
BLOCK_RECORD
  5
69C
330
1
100
AcDbSymbolTableRecord
100
AcDbBlockTableRecord
  2
*D64
340
0
  0
BLOCK_RECORD
  5
6A9
330
1
100
AcDbSymbolTableRecord
100
AcDbBlockTableRecord
  2
*D65
340
0
  0
BLOCK_RECORD
  5
6B8
330
1
100
AcDbSymbolTableRecord
100
AcDbBlockTableRecord
  2
*D66
340
0
  0
BLOCK_RECORD
  5
6C6
330
1
100
AcDbSymbolTableRecord
100
AcDbBlockTableRecord
  2
*D67
340
0
  0
BLOCK_RECORD
  5
6D3
330
1
100
AcDbSymbolTableRecord
100
AcDbBlockTableRecord
  2
*D68
340
0
  0
BLOCK_RECORD
  5
6E0
330
1
100
AcDbSymbolTableRecord
100
AcDbBlockTableRecord
  2
*D69
340
0
  0
BLOCK_RECORD
  5
6ED
330
1
100
AcDbSymbolTableRecord
100
AcDbBlockTableRecord
  2
*D70
340
0
  0
BLOCK_RECORD
  5
71C
330
1
100
AcDbSymbolTableRecord
100
AcDbBlockTableRecord
  2
*D71
340
0
  0
BLOCK_RECORD
  5
72A
330
1
100
AcDbSymbolTableRecord
100
AcDbBlockTableRecord
  2
*D72
340
0
  0
ENDTAB
  0
ENDSEC
  0
SECTION
  2
BLOCKS
  0
BLOCK
  5
20
330
1F
100
AcDbEntity
  8
0
100
AcDbBlockBegin
  2
*Model_Space
 70
     0
 71
     0
 10
0.0
 20
0.0
 30
0.0
  3
*Model_Space
  1

  0
ENDBLK
  5
21
330
1F
100
AcDbEntity
  8
0
100
AcDbBlockEnd
  0
BLOCK
  5
1C
330
1B
100
AcDbEntity
 67
     1
  8
0
100
AcDbBlockBegin
  2
*Paper_Space
 70
     0
 71
     0
 10
0.0
 20
0.0
 30
0.0
  3
*Paper_Space
  1

  0
ENDBLK
  5
1D
330
1B
100
AcDbEntity
 67
     1
  8
0
100
AcDbBlockEnd
  0
BLOCK
  5
24
330
23
100
AcDbEntity
  8
0
100
AcDbBlockBegin
  2
*Paper_Space0
 70
     0
 71
     0
 10
0.0
 20
0.0
 30
0.0
  3
*Paper_Space0
  1

  0
ENDBLK
  5
25
330
23
100
AcDbEntity
  8
0
100
AcDbBlockEnd
  0
BLOCK
  5
38
330
37
100
AcDbEntity
  8
0
100
AcDbBlockBegin
  2
KLON1
 70
     0
 71
     0
 10
0.0
 20
0.0
 30
0.0
  3
KLON1
  1

  4
KLON1
  0
LINE
  5
3A
330
37
100
AcDbEntity
  8
LC-001-100-D00-0
 62
     7
370
    15
100
AcDbLine
 10
364.493747
 20
-78.976141
 30
0.0
 11
364.318703
 21
-74.966977
 31
0.0
  0
LINE
  5
3B
330
37
100
AcDbEntity
  8
LC-001-100-D00-0
 62
     7
370
    15
100
AcDbLine
 10
364.318703
 20
-74.966977
 30
0.0
 11
363.993746
 21
-72.212267
 31
0.0
  0
ENDBLK
  5
39
330
37
100
AcDbEntity
  8
0
100
AcDbBlockEnd
  0
BLOCK
  5
3E
330
3D
100
AcDbEntity
  8
0
100
AcDbBlockBegin
  2
KLON2
 70
     0
 71
     0
 10
0.0
 20
0.0
 30
0.0
  3
KLON2
  1

  4
KLON2
  0
LINE
  5
40
330
3D
100
AcDbEntity
  8
LC-001-100-D00-0
 62
     7
370
    15
100
AcDbLine
 10
357.493746
 20
-54.58352
 30
0.0
 11
356.17474
 21
-52.591626
 31
0.0
  0
LINE
  5
41
330
3D
100
AcDbEntity
  8
LC-001-100-D00-0
 62
     7
370
    15
100
AcDbLine
 10
356.17474
 20
-52.591626
 30
0.0
 11
354.211677
 21
-49.98943
 31
0.0
  0
ENDBLK
  5
3F
330
3D
100
AcDbEntity
  8
0
100
AcDbBlockEnd
  0
BLOCK
  5
44
330
43
100
AcDbEntity
  8
0
100
AcDbBlockBegin
  2
KLON3
 70
     0
 71
     0
 10
0.0
 20
0.0
 30
0.0
  3
KLON3
  1

  4
KLON3
  0
LINE
  5
46
330
43
100
AcDbEntity
  8
LC-001-100-D00-0
 62
     7
370
    15
100
AcDbLine
 10
347.480456
 20
-43.258211
 30
0.0
 11
344.878262
 21
-41.295147
 31
0.0
  0
LINE
  5
47
330
43
100
AcDbEntity
  8
LC-001-100-D00-0
 62
     7
370
    15
100
AcDbLine
 10
344.878262
 20
-41.295147
 30
0.0
 11
342.886366
 21
-39.97614
 31
0.0
  0
ENDBLK
  5
45
330
43
100
AcDbEntity
  8
0
100
AcDbBlockEnd
  0
BLOCK
  5
4A
330
49
100
AcDbEntity
  8
0
100
AcDbBlockBegin
  2
KLON4
 70
     0
 71
     0
 10
0.0
 20
0.0
 30
0.0
  3
KLON4
  1

  4
KLON4
  0
LINE
  5
4C
330
49
100
AcDbEntity
  8
LC-001-100-D00-0
 62
     7
370
    15
100
AcDbLine
 10
325.25762
 20
-33.476142
 30
0.0
 11
322.50291
 21
-33.151185
 31
0.0
  0
LINE
  5
4D
330
49
100
AcDbEntity
  8
LC-001-100-D00-0
 62
     7
370
    15
100
AcDbLine
 10
322.50291
 20
-33.151185
 30
0.0
 11
318.493746
 21
-32.976141
 31
0.0
  0
ENDBLK
  5
4B
330
49
100
AcDbEntity
  8
0
100
AcDbBlockEnd
  0
BLOCK
  5
50
330
4F
100
AcDbEntity
  8
0
100
AcDbBlockBegin
  2
KLON5
 70
     0
 71
     0
 10
0.0
 20
0.0
 30
0.0
  3
KLON5
  1

  4
KLON5
  0
LINE
  5
52
330
4F
100
AcDbEntity
  8
LC-001-100-D00-0
 62
     7
370
    15
100
AcDbLine
 10
318.493746
 20
-32.976141
 30
0.0
 11
314.484581
 21
-33.151185
 31
0.0
  0
LINE
  5
53
330
4F
100
AcDbEntity
  8
LC-001-100-D00-0
 62
     7
370
    15
100
AcDbLine
 10
314.484581
 20
-33.151185
 30
0.0
 11
311.729871
 21
-33.476142
 31
0.0
  0
ENDBLK
  5
51
330
4F
100
AcDbEntity
  8
0
100
AcDbBlockEnd
  0
BLOCK
  5
56
330
55
100
AcDbEntity
  8
0
100
AcDbBlockBegin
  2
KLON6
 70
     0
 71
     0
 10
0.0
 20
0.0
 30
0.0
  3
KLON6
  1

  4
KLON6
  0
LINE
  5
58
330
55
100
AcDbEntity
  8
LC-001-100-D00-0
 62
     7
370
    15
100
AcDbLine
 10
294.101123
 20
-39.97614
 30
0.0
 11
292.109229
 21
-41.295147
 31
0.0
  0
LINE
  5
59
330
55
100
AcDbEntity
  8
LC-001-100-D00-0
 62
     7
370
    15
100
AcDbLine
 10
292.109229
 20
-41.295147
 30
0.0
 11
289.507036
 21
-43.258211
 31
0.0
  0
ENDBLK
  5
57
330
55
100
AcDbEntity
  8
0
100
AcDbBlockEnd
  0
BLOCK
  5
5C
330
5B
100
AcDbEntity
  8
0
100
AcDbBlockBegin
  2
KLON7
 70
     0
 71
     0
 10
0.0
 20
0.0
 30
0.0
  3
KLON7
  1

  4
KLON7
  0
LINE
  5
5E
330
5B
100
AcDbEntity
  8
LC-001-100-D00-0
 62
     7
370
    15
100
AcDbLine
 10
282.775812
 20
-49.98943
 30
0.0
 11
280.812752
 21
-52.591626
 31
0.0
  0
LINE
  5
5F
330
5B
100
AcDbEntity
  8
LC-001-100-D00-0
 62
     7
370
    15
100
AcDbLine
 10
280.812752
 20
-52.591626
 30
0.0
 11
279.493746
 21
-54.58352
 31
0.0
  0
ENDBLK
  5
5D
330
5B
100
AcDbEntity
  8
0
100
AcDbBlockEnd
  0
BLOCK
  5
62
330
61
100
AcDbEntity
  8
0
100
AcDbBlockBegin
  2
KLON8
 70
     0
 71
     0
 10
0.0
 20
0.0
 30
0.0
  3
KLON8
  1

  4
KLON8
  0
LINE
  5
64
330
61
100
AcDbEntity
  8
LC-001-100-D00-0
 62
     7
370
    15
100
AcDbLine
 10
272.993744
 20
-72.212267
 30
0.0
 11
272.668791
 21
-74.966977
 31
0.0
  0
LINE
  5
65
330
61
100
AcDbEntity
  8
LC-001-100-D00-0
 62
     7
370
    15
100
AcDbLine
 10
272.668791
 20
-74.966977
 30
0.0
 11
272.493747
 21
-78.976141
 31
0.0
  0
ENDBLK
  5
63
330
61
100
AcDbEntity
  8
0
100
AcDbBlockEnd
  0
BLOCK
  5
E1
330
E0
100
AcDbEntity
  8
0
100
AcDbBlockBegin
  2
POLY1
 70
     0
 71
     0
 10
0.0
 20
0.0
 30
0.0
  3
POLY1
  1

  4
POLY1
  0
LINE
  5
E3
330
E0
100
AcDbEntity
  8
LC-001-100-D00-0
 62
     7
370
    50
100
AcDbLine
 10
178.684138
 20
-63.722668
 30
0.0
 11
178.684138
 21
-63.722668
 31
0.0
  0
LINE
  5
E4
330
E0
100
AcDbEntity
  8
LC-001-100-D00-0
 62
     7
370
    50
100
AcDbLine
 10
178.684138
 20
-63.722668
 30
0.0
 11
179.03928
 21
-63.25791
 31
0.0
  0
LINE
  5
E5
330
E0
100
AcDbEntity
  8
LC-001-100-D00-0
 62
     7
370
    50
100
AcDbLine
 10
179.03928
 20
-63.25791
 30
0.0
 11
179.03928
 21
-63.25791
 31
0.0
  0
LINE
  5
E6
330
E0
100
AcDbEntity
  8
LC-001-100-D00-0
 62
     7
370
    50
100
AcDbLine
 10
179.03928
 20
-63.25791
 30
0.0
 11
179.74964
 21
-62.328293
 31
0.0
  0
LINE
  5
E7
330
E0
100
AcDbEntity
  8
LC-001-100-D00-0
 62
     7
370
    50
100
AcDbLine
 10
179.74964
 20
-62.328293
 30
0.0
 11
179.74964
 21
-62.328293
 31
0.0
  0
LINE
  5
E8
330
E0
100
AcDbEntity
  8
LC-001-100-D00-0
 62
     7
370
    50
100
AcDbLine
 10
179.74964
 20
-62.328293
 30
0.0
 11
180.14546
 21
-60.593226
 31
0.0
  0
LINE
  5
E9
330
E0
100
AcDbEntity
  8
LC-001-100-D00-0
 62
     7
370
    50
100
AcDbLine
 10
180.14546
 20
-60.593226
 30
0.0
 11
180.14546
 21
-60.593226
 31
0.0
  0
LINE
  5
EA
330
E0
100
AcDbEntity
  8
LC-001-100-D00-0
 62
     7
370
    50
100
AcDbLine
 10
180.14546
 20
-60.593226
 30
0.0
 11
180.022095
 21
-59.017384
 31
0.0
  0
LINE
  5
EB
330
E0
100
AcDbEntity
  8
LC-001-100-D00-0
 62
     7
370
    50
100
AcDbLine
 10
180.022095
 20
-59.017384
 30
0.0
 11
180.022095
 21
-59.017384
 31
0.0
  0
LINE
  5
EC
330
E0
100
AcDbEntity
  8
LC-001-100-D00-0
 62
     7
370
    50
100
AcDbLine
 10
180.022095
 20
-59.017384
 30
0.0
 11
179.62315
 21
-58.131305
 31
0.0
  0
LINE
  5
ED
330
E0
100
AcDbEntity
  8
LC-001-100-D00-0
 62
     7
370
    50
100
AcDbLine
 10
179.62315
 20
-58.131305
 30
0.0
 11
179.62315
 21
-58.131305
 31
0.0
  0
LINE
  5
EE
330
E0
100
AcDbEntity
  8
LC-001-100-D00-0
 62
     7
370
    50
100
AcDbLine
 10
179.62315
 20
-58.131305
 30
0.0
 11
179.461964
 21
-57.773301
 31
0.0
  0
ENDBLK
  5
E2
330
E0
100
AcDbEntity
  8
0
100
AcDbBlockEnd
  0
BLOCK
  5
F3
330
F2
100
AcDbEntity
  8
0
100
AcDbBlockBegin
  2
POLY2
 70
     0
 71
     0
 10
0.0
 20
0.0
 30
0.0
  3
POLY2
  1

  4
POLY2
  0
LINE
  5
F5
330
F2
100
AcDbEntity
  8
LC-001-100-D00-0
 62
     7
370
    50
100
AcDbLine
 10
428.139903
 20
9.098349
 30
0.0
 11
428.139903
 21
9.098349
 31
0.0
  0
LINE
  5
F6
330
F2
100
AcDbEntity
  8
LC-001-100-D00-0
 62
     7
370
    50
100
AcDbLine
 10
428.139903
 20
9.098349
 30
0.0
 11
428.217415
 21
8.518592
 31
0.0
  0
LINE
  5
F7
330
F2
100
AcDbEntity
  8
LC-001-100-D00-0
 62
     7
370
    50
100
AcDbLine
 10
428.217415
 20
8.518592
 30
0.0
 11
428.217415
 21
8.518592
 31
0.0
  0
LINE
  5
F8
330
F2
100
AcDbEntity
  8
LC-001-100-D00-0
 62
     7
370
    50
100
AcDbLine
 10
428.217415
 20
8.518592
 30
0.0
 11
428.372456
 21
7.358952
 31
0.0
  0
LINE
  5
F9
330
F2
100
AcDbEntity
  8
LC-001-100-D00-0
 62
     7
370
    50
100
AcDbLine
 10
428.372456
 20
7.358952
 30
0.0
 11
428.372456
 21
7.358952
 31
0.0
  0
LINE
  5
FA
330
F2
100
AcDbEntity
  8
LC-001-100-D00-0
 62
     7
370
    50
100
AcDbLine
 10
428.372456
 20
7.358952
 30
0.0
 11
429.319446
 21
5.85219
 31
0.0
  0
LINE
  5
FB
330
F2
100
AcDbEntity
  8
LC-001-100-D00-0
 62
     7
370
    50
100
AcDbLine
 10
429.319446
 20
5.85219
 30
0.0
 11
429.319446
 21
5.85219
 31
0.0
  0
LINE
  5
FC
330
F2
100
AcDbEntity
  8
LC-001-100-D00-0
 62
     7
370
    50
100
AcDbLine
 10
429.319446
 20
5.85219
 30
0.0
 11
430.520961
 21
4.825129
 31
0.0
  0
LINE
  5
FD
330
F2
100
AcDbEntity
  8
LC-001-100-D00-0
 62
     7
370
    50
100
AcDbLine
 10
430.520961
 20
4.825129
 30
0.0
 11
430.520961
 21
4.825129
 31
0.0
  0
LINE
  5
FE
330
F2
100
AcDbEntity
  8
LC-001-100-D00-0
 62
     7
370
    50
100
AcDbLine
 10
430.520961
 20
4.825129
 30
0.0
 11
431.429608
 21
4.480669
 31
0.0
  0
LINE
  5
FF
330
F2
100
AcDbEntity
  8
LC-001-100-D00-0
 62
     7
370
    50
100
AcDbLine
 10
431.429608
 20
4.480669
 30
0.0
 11
431.429608
 21
4.480669
 31
0.0
  0
LINE
  5
100
330
F2
100
AcDbEntity
  8
LC-001-100-D00-0
 62
     7
370
    50
100
AcDbLine
 10
431.429608
 20
4.480669
 30
0.0
 11
431.79673
 21
4.341496
 31
0.0
  0
ENDBLK
  5
F4
330
F2
100
AcDbEntity
  8
0
100
AcDbBlockEnd
  0
BLOCK
  5
105
330
104
100
AcDbEntity
  8
0
100
AcDbBlockBegin
  2
POLY3
 70
     0
 71
     0
 10
0.0
 20
0.0
 30
0.0
  3
POLY3
  1

  4
POLY3
  0
LINE
  5
107
330
104
100
AcDbEntity
  8
LC-001-100-D00-0
 62
     7
370
    50
100
AcDbLine
 10
333.747218
 20
60.833467
 30
0.0
 11
333.747218
 21
60.833467
 31
0.0
  0
LINE
  5
108
330
104
100
AcDbEntity
  8
LC-001-100-D00-0
 62
     7
370
    50
100
AcDbLine
 10
333.747218
 20
60.833467
 30
0.0
 11
334.211977
 21
60.478325
 31
0.0
  0
LINE
  5
109
330
104
100
AcDbEntity
  8
LC-001-100-D00-0
 62
     7
370
    50
100
AcDbLine
 10
334.211977
 20
60.478325
 30
0.0
 11
334.211977
 21
60.478325
 31
0.0
  0
LINE
  5
10A
330
104
100
AcDbEntity
  8
LC-001-100-D00-0
 62
     7
370
    50
100
AcDbLine
 10
334.211977
 20
60.478325
 30
0.0
 11
335.141594
 21
59.767965
 31
0.0
  0
LINE
  5
10B
330
104
100
AcDbEntity
  8
LC-001-100-D00-0
 62
     7
370
    50
100
AcDbLine
 10
335.141594
 20
59.767965
 30
0.0
 11
335.141594
 21
59.767965
 31
0.0
  0
LINE
  5
10C
330
104
100
AcDbEntity
  8
LC-001-100-D00-0
 62
     7
370
    50
100
AcDbLine
 10
335.141594
 20
59.767965
 30
0.0
 11
336.876661
 21
59.372145
 31
0.0
  0
LINE
  5
10D
330
104
100
AcDbEntity
  8
LC-001-100-D00-0
 62
     7
370
    50
100
AcDbLine
 10
336.876661
 20
59.372145
 30
0.0
 11
336.876661
 21
59.372145
 31
0.0
  0
LINE
  5
10E
330
104
100
AcDbEntity
  8
LC-001-100-D00-0
 62
     7
370
    50
100
AcDbLine
 10
336.876661
 20
59.372145
 30
0.0
 11
338.452503
 21
59.49551
 31
0.0
  0
LINE
  5
10F
330
104
100
AcDbEntity
  8
LC-001-100-D00-0
 62
     7
370
    50
100
AcDbLine
 10
338.452503
 20
59.49551
 30
0.0
 11
338.452503
 21
59.49551
 31
0.0
  0
LINE
  5
110
330
104
100
AcDbEntity
  8
LC-001-100-D00-0
 62
     7
370
    50
100
AcDbLine
 10
338.452503
 20
59.49551
 30
0.0
 11
339.338583
 21
59.894455
 31
0.0
  0
LINE
  5
111
330
104
100
AcDbEntity
  8
LC-001-100-D00-0
 62
     7
370
    50
100
AcDbLine
 10
339.338583
 20
59.894455
 30
0.0
 11
339.338583
 21
59.894455
 31
0.0
  0
LINE
  5
112
330
104
100
AcDbEntity
  8
LC-001-100-D00-0
 62
     7
370
    50
100
AcDbLine
 10
339.338583
 20
59.894455
 30
0.0
 11
339.696587
 21
60.055641
 31
0.0
  0
ENDBLK
  5
106
330
104
100
AcDbEntity
  8
0
100
AcDbBlockEnd
  0
BLOCK
  5
117
330
116
100
AcDbEntity
  8
0
100
AcDbBlockBegin
  2
POLY4
 70
     0
 71
     0
 10
0.0
 20
0.0
 30
0.0
  3
POLY4
  1

  4
POLY4
  0
LINE
  5
119
330
116
100
AcDbEntity
  8
LC-001-100-D00-0
 62
     7
370
    50
100
AcDbLine
 10
230.419256
 20
30.670015
 30
0.0
 11
230.419256
 21
30.670015
 31
0.0
  0
LINE
  5
11A
330
116
100
AcDbEntity
  8
LC-001-100-D00-0
 62
     7
370
    50
100
AcDbLine
 10
230.419256
 20
30.670015
 30
0.0
 11
230.999014
 21
30.747527
 31
0.0
  0
LINE
  5
11B
330
116
100
AcDbEntity
  8
LC-001-100-D00-0
 62
     7
370
    50
100
AcDbLine
 10
230.999014
 20
30.747527
 30
0.0
 11
230.999014
 21
30.747527
 31
0.0
  0
LINE
  5
11C
330
116
100
AcDbEntity
  8
LC-001-100-D00-0
 62
     7
370
    50
100
AcDbLine
 10
230.999014
 20
30.747527
 30
0.0
 11
232.158652
 21
30.902566
 31
0.0
  0
LINE
  5
11D
330
116
100
AcDbEntity
  8
LC-001-100-D00-0
 62
     7
370
    50
100
AcDbLine
 10
232.158652
 20
30.902566
 30
0.0
 11
232.158652
 21
30.902566
 31
0.0
  0
LINE
  5
11E
330
116
100
AcDbEntity
  8
LC-001-100-D00-0
 62
     7
370
    50
100
AcDbLine
 10
232.158652
 20
30.902566
 30
0.0
 11
233.665408
 21
31.849563
 31
0.0
  0
LINE
  5
11F
330
116
100
AcDbEntity
  8
LC-001-100-D00-0
 62
     7
370
    50
100
AcDbLine
 10
233.665408
 20
31.849563
 30
0.0
 11
233.665408
 21
31.849563
 31
0.0
  0
LINE
  5
120
330
116
100
AcDbEntity
  8
LC-001-100-D00-0
 62
     7
370
    50
100
AcDbLine
 10
233.665408
 20
31.849563
 30
0.0
 11
234.692476
 21
33.051071
 31
0.0
  0
LINE
  5
121
330
116
100
AcDbEntity
  8
LC-001-100-D00-0
 62
     7
370
    50
100
AcDbLine
 10
234.692476
 20
33.051071
 30
0.0
 11
234.692476
 21
33.051071
 31
0.0
  0
LINE
  5
122
330
116
100
AcDbEntity
  8
LC-001-100-D00-0
 62
     7
370
    50
100
AcDbLine
 10
234.692476
 20
33.051071
 30
0.0
 11
235.036937
 21
33.95972
 31
0.0
  0
LINE
  5
123
330
116
100
AcDbEntity
  8
LC-001-100-D00-0
 62
     7
370
    50
100
AcDbLine
 10
235.036937
 20
33.95972
 30
0.0
 11
235.036937
 21
33.95972
 31
0.0
  0
LINE
  5
124
330
116
100
AcDbEntity
  8
LC-001-100-D00-0
 62
     7
370
    50
100
AcDbLine
 10
235.036937
 20
33.95972
 30
0.0
 11
235.176109
 21
34.326842
 31
0.0
  0
ENDBLK
  5
118
330
116
100
AcDbEntity
  8
0
100
AcDbBlockEnd
  0
BLOCK
  5
12D
330
12C
100
AcDbEntity
  8
0
100
AcDbBlockBegin
  2
POLY5
 70
     0
 71
     0
 10
0.0
 20
0.0
 30
0.0
  3
POLY5
  1

  4
POLY5
  0
LINE
  5
12F
330
12C
100
AcDbEntity
  8
LC-001-100-D00-0
 62
     7
370
    50
100
AcDbLine
 10
321.889359
 20
-69.685397
 30
0.0
 11
321.889359
 21
-69.685397
 31
0.0
  0
LINE
  5
130
330
12C
100
AcDbEntity
  8
LC-001-100-D00-0
 62
     7
370
    50
100
AcDbLine
 10
321.889359
 20
-69.685397
 30
0.0
 11
321.81781
 21
-69.688962
 31
0.0
  0
LINE
  5
131
330
12C
100
AcDbEntity
  8
LC-001-100-D00-0
 62
     7
370
    50
100
AcDbLine
 10
321.81781
 20
-69.688962
 30
0.0
 11
321.81781
 21
-69.688962
 31
0.0
  0
LINE
  5
132
330
12C
100
AcDbEntity
  8
LC-001-100-D00-0
 62
     7
370
    50
100
AcDbLine
 10
321.81781
 20
-69.688962
 30
0.0
 11
321.67487
 21
-69.696086
 31
0.0
  0
LINE
  5
133
330
12C
100
AcDbEntity
  8
LC-001-100-D00-0
 62
     7
370
    50
100
AcDbLine
 10
321.67487
 20
-69.696086
 30
0.0
 11
321.67487
 21
-69.696086
 31
0.0
  0
LINE
  5
134
330
12C
100
AcDbEntity
  8
LC-001-100-D00-0
 62
     7
370
    50
100
AcDbLine
 10
321.67487
 20
-69.696086
 30
0.0
 11
321.491845
 21
-69.771054
 31
0.0
  0
LINE
  5
135
330
12C
100
AcDbEntity
  8
LC-001-100-D00-0
 62
     7
370
    50
100
AcDbLine
 10
321.491845
 20
-69.771054
 30
0.0
 11
321.491845
 21
-69.771054
 31
0.0
  0
LINE
  5
136
330
12C
100
AcDbEntity
  8
LC-001-100-D00-0
 62
     7
370
    50
100
AcDbLine
 10
321.491845
 20
-69.771054
 30
0.0
 11
321.359287
 21
-69.868055
 31
0.0
  0
LINE
  5
137
330
12C
100
AcDbEntity
  8
LC-001-100-D00-0
 62
     7
370
    50
100
AcDbLine
 10
321.359287
 20
-69.868055
 30
0.0
 11
321.359287
 21
-69.868055
 31
0.0
  0
LINE
  5
138
330
12C
100
AcDbEntity
  8
LC-001-100-D00-0
 62
     7
370
    50
100
AcDbLine
 10
321.359287
 20
-69.868055
 30
0.0
 11
321.335783
 21
-69.949212
 31
0.0
  0
LINE
  5
139
330
12C
100
AcDbEntity
  8
LC-001-100-D00-0
 62
     7
370
    50
100
AcDbLine
 10
321.335783
 20
-69.949212
 30
0.0
 11
321.335783
 21
-69.949212
 31
0.0
  0
LINE
  5
13A
330
12C
100
AcDbEntity
  8
LC-001-100-D00-0
 62
     7
370
    50
100
AcDbLine
 10
321.335783
 20
-69.949212
 30
0.0
 11
321.327984
 21
-69.976142
 31
0.0
  0
ENDBLK
  5
12E
330
12C
100
AcDbEntity
  8
0
100
AcDbBlockEnd
  0
BLOCK
  5
13D
330
13C
100
AcDbEntity
  8
0
100
AcDbBlockBegin
  2
POLY6
 70
     0
 71
     0
 10
0.0
 20
0.0
 30
0.0
  3
POLY6
  1

  4
POLY6
  0
LINE
  5
13F
330
13C
100
AcDbEntity
  8
LC-001-100-D00-0
 62
     7
370
    50
100
AcDbLine
 10
321.039581
 20
-69.976142
 30
0.0
 11
321.039581
 21
-69.976142
 31
0.0
  0
LINE
  5
140
330
13C
100
AcDbEntity
  8
LC-001-100-D00-0
 62
     7
370
    50
100
AcDbLine
 10
321.039581
 20
-69.976142
 30
0.0
 11
321.045372
 21
-69.939871
 31
0.0
  0
LINE
  5
141
330
13C
100
AcDbEntity
  8
LC-001-100-D00-0
 62
     7
370
    50
100
AcDbLine
 10
321.045372
 20
-69.939871
 30
0.0
 11
321.045372
 21
-69.939871
 31
0.0
  0
LINE
  5
142
330
13C
100
AcDbEntity
  8
LC-001-100-D00-0
 62
     7
370
    50
100
AcDbLine
 10
321.045372
 20
-69.939871
 30
0.0
 11
321.071133
 21
-69.778527
 31
0.0
  0
LINE
  5
143
330
13C
100
AcDbEntity
  8
LC-001-100-D00-0
 62
     7
370
    50
100
AcDbLine
 10
321.071133
 20
-69.778527
 30
0.0
 11
321.071133
 21
-69.778527
 31
0.0
  0
LINE
  5
144
330
13C
100
AcDbEntity
  8
LC-001-100-D00-0
 62
     7
370
    50
100
AcDbLine
 10
321.071133
 20
-69.778527
 30
0.0
 11
321.292069
 21
-69.590763
 31
0.0
  0
LINE
  5
145
330
13C
100
AcDbEntity
  8
LC-001-100-D00-0
 62
     7
370
    50
100
AcDbLine
 10
321.292069
 20
-69.590763
 30
0.0
 11
321.292069
 21
-69.590763
 31
0.0
  0
LINE
  5
146
330
13C
100
AcDbEntity
  8
LC-001-100-D00-0
 62
     7
370
    50
100
AcDbLine
 10
321.292069
 20
-69.590763
 30
0.0
 11
321.589984
 21
-69.464513
 31
0.0
  0
LINE
  5
147
330
13C
100
AcDbEntity
  8
LC-001-100-D00-0
 62
     7
370
    50
100
AcDbLine
 10
321.589984
 20
-69.464513
 30
0.0
 11
321.589984
 21
-69.464513
 31
0.0
  0
LINE
  5
148
330
13C
100
AcDbEntity
  8
LC-001-100-D00-0
 62
     7
370
    50
100
AcDbLine
 10
321.589984
 20
-69.464513
 30
0.0
 11
321.79032
 21
-69.453722
 31
0.0
  0
LINE
  5
149
330
13C
100
AcDbEntity
  8
LC-001-100-D00-0
 62
     7
370
    50
100
AcDbLine
 10
321.79032
 20
-69.453722
 30
0.0
 11
321.79032
 21
-69.453722
 31
0.0
  0
LINE
  5
14A
330
13C
100
AcDbEntity
  8
LC-001-100-D00-0
 62
     7
370
    50
100
AcDbLine
 10
321.79032
 20
-69.453722
 30
0.0
 11
321.890594
 21
-69.448321
 31
0.0
  0
ENDBLK
  5
13E
330
13C
100
AcDbEntity
  8
0
100
AcDbBlockEnd
  0
BLOCK
  5
14D
330
14C
100
AcDbEntity
  8
0
100
AcDbBlockBegin
  2
POLY7
 70
     0
 71
     0
 10
0.0
 20
0.0
 30
0.0
  3
POLY7
  1

  4
POLY7
  0
LINE
  5
14F
330
14C
100
AcDbEntity
  8
LC-001-100-D00-0
 62
     7
370
    50
100
AcDbLine
 10
321.890594
 20
-69.448321
 30
0.0
 11
321.890594
 21
-69.448321
 31
0.0
  0
LINE
  5
150
330
14C
100
AcDbEntity
  8
LC-001-100-D00-0
 62
     7
370
    50
100
AcDbLine
 10
321.890594
 20
-69.448321
 30
0.0
 11
322.013313
 21
-69.458099
 31
0.0
  0
LINE
  5
151
330
14C
100
AcDbEntity
  8
LC-001-100-D00-0
 62
     7
370
    50
100
AcDbLine
 10
322.013313
 20
-69.458099
 30
0.0
 11
322.013313
 21
-69.458099
 31
0.0
  0
LINE
  5
152
330
14C
100
AcDbEntity
  8
LC-001-100-D00-0
 62
     7
370
    50
100
AcDbLine
 10
322.013313
 20
-69.458099
 30
0.0
 11
322.258266
 21
-69.477617
 31
0.0
  0
LINE
  5
153
330
14C
100
AcDbEntity
  8
LC-001-100-D00-0
 62
     7
370
    50
100
AcDbLine
 10
322.258266
 20
-69.477617
 30
0.0
 11
322.258266
 21
-69.477617
 31
0.0
  0
LINE
  5
154
330
14C
100
AcDbEntity
  8
LC-001-100-D00-0
 62
     7
370
    50
100
AcDbLine
 10
322.258266
 20
-69.477617
 30
0.0
 11
322.550106
 21
-69.62789
 31
0.0
  0
LINE
  5
155
330
14C
100
AcDbEntity
  8
LC-001-100-D00-0
 62
     7
370
    50
100
AcDbLine
 10
322.550106
 20
-69.62789
 30
0.0
 11
322.550106
 21
-69.62789
 31
0.0
  0
LINE
  5
156
330
14C
100
AcDbEntity
  8
LC-001-100-D00-0
 62
     7
370
    50
100
AcDbLine
 10
322.550106
 20
-69.62789
 30
0.0
 11
322.638224
 21
-69.788086
 31
0.0
  0
LINE
  5
157
330
14C
100
AcDbEntity
  8
LC-001-100-D00-0
 62
     7
370
    50
100
AcDbLine
 10
322.638224
 20
-69.788086
 30
0.0
 11
322.638224
 21
-69.788086
 31
0.0
  0
LINE
  5
158
330
14C
100
AcDbEntity
  8
LC-001-100-D00-0
 62
     7
370
    50
100
AcDbLine
 10
322.638224
 20
-69.788086
 30
0.0
 11
322.666521
 21
-69.839529
 31
0.0
  0
ENDBLK
  5
14E
330
14C
100
AcDbEntity
  8
0
100
AcDbBlockEnd
  0
BLOCK
  5
15B
330
15A
100
AcDbEntity
  8
0
100
AcDbBlockBegin
  2
POLY8
 70
     0
 71
     0
 10
0.0
 20
0.0
 30
0.0
  3
POLY8
  1

  4
POLY8
  0
LINE
  5
15D
330
15A
100
AcDbEntity
  8
LC-001-100-D00-0
 62
     7
370
    50
100
AcDbLine
 10
322.325232
 20
-69.811343
 30
0.0
 11
322.325232
 21
-69.811343
 31
0.0
  0
LINE
  5
15E
330
15A
100
AcDbEntity
  8
LC-001-100-D00-0
 62
     7
370
    50
100
AcDbLine
 10
322.325232
 20
-69.811343
 30
0.0
 11
322.249124
 21
-69.769033
 31
0.0
  0
LINE
  5
15F
330
15A
100
AcDbEntity
  8
LC-001-100-D00-0
 62
     7
370
    50
100
AcDbLine
 10
322.249124
 20
-69.769033
 30
0.0
 11
322.249124
 21
-69.769033
 31
0.0
  0
LINE
  5
160
330
15A
100
AcDbEntity
  8
LC-001-100-D00-0
 62
     7
370
    50
100
AcDbLine
 10
322.249124
 20
-69.769033
 30
0.0
 11
322.112899
 21
-69.693304
 31
0.0
  0
LINE
  5
161
330
15A
100
AcDbEntity
  8
LC-001-100-D00-0
 62
     7
370
    50
100
AcDbLine
 10
322.112899
 20
-69.693304
 30
0.0
 11
322.112899
 21
-69.693304
 31
0.0
  0
LINE
  5
162
330
15A
100
AcDbEntity
  8
LC-001-100-D00-0
 62
     7
370
    50
100
AcDbLine
 10
322.112899
 20
-69.693304
 30
0.0
 11
321.957803
 21
-69.687818
 31
0.0
  0
LINE
  5
163
330
15A
100
AcDbEntity
  8
LC-001-100-D00-0
 62
     7
370
    50
100
AcDbLine
 10
321.957803
 20
-69.687818
 30
0.0
 11
321.957803
 21
-69.687818
 31
0.0
  0
LINE
  5
164
330
15A
100
AcDbEntity
  8
LC-001-100-D00-0
 62
     7
370
    50
100
AcDbLine
 10
321.957803
 20
-69.687818
 30
0.0
 11
321.889359
 21
-69.685397
 31
0.0
  0
ENDBLK
  5
15C
330
15A
100
AcDbEntity
  8
0
100
AcDbBlockEnd
  0
BLOCK
  5
171
330
170
100
AcDbEntity
  8
0
100
AcDbBlockBegin
  2
POLY9
 70
     0
 71
     0
 10
0.0
 20
0.0
 30
0.0
  3
POLY9
  1

  4
POLY9
  0
LINE
  5
173
330
170
100
AcDbEntity
  8
LC-001-100-D00-0
 62
     7
370
    50
100
AcDbLine
 10
315.979757
 20
-69.685397
 30
0.0
 11
315.979757
 21
-69.685397
 31
0.0
  0
LINE
  5
174
330
170
100
AcDbEntity
  8
LC-001-100-D00-0
 62
     7
370
    50
100
AcDbLine
 10
315.979757
 20
-69.685397
 30
0.0
 11
315.905864
 21
-69.691751
 31
0.0
  0
LINE
  5
175
330
170
100
AcDbEntity
  8
LC-001-100-D00-0
 62
     7
370
    50
100
AcDbLine
 10
315.905864
 20
-69.691751
 30
0.0
 11
315.905864
 21
-69.691751
 31
0.0
  0
LINE
  5
176
330
170
100
AcDbEntity
  8
LC-001-100-D00-0
 62
     7
370
    50
100
AcDbLine
 10
315.905864
 20
-69.691751
 30
0.0
 11
315.758572
 21
-69.704416
 31
0.0
  0
LINE
  5
177
330
170
100
AcDbEntity
  8
LC-001-100-D00-0
 62
     7
370
    50
100
AcDbLine
 10
315.758572
 20
-69.704416
 30
0.0
 11
315.758572
 21
-69.704416
 31
0.0
  0
LINE
  5
178
330
170
100
AcDbEntity
  8
LC-001-100-D00-0
 62
     7
370
    50
100
AcDbLine
 10
315.758572
 20
-69.704416
 30
0.0
 11
315.564711
 21
-69.805534
 31
0.0
  0
LINE
  5
179
330
170
100
AcDbEntity
  8
LC-001-100-D00-0
 62
     7
370
    50
100
AcDbLine
 10
315.564711
 20
-69.805534
 30
0.0
 11
315.564711
 21
-69.805534
 31
0.0
  0
LINE
  5
17A
330
170
100
AcDbEntity
  8
LC-001-100-D00-0
 62
     7
370
    50
100
AcDbLine
 10
315.564711
 20
-69.805534
 30
0.0
 11
315.522319
 21
-69.926683
 31
0.0
  0
LINE
  5
17B
330
170
100
AcDbEntity
  8
LC-001-100-D00-0
 62
     7
370
    50
100
AcDbLine
 10
315.522319
 20
-69.926683
 30
0.0
 11
315.522319
 21
-69.926683
 31
0.0
  0
LINE
  5
17C
330
170
100
AcDbEntity
  8
LC-001-100-D00-0
 62
     7
370
    50
100
AcDbLine
 10
315.522319
 20
-69.926683
 30
0.0
 11
315.505013
 21
-69.976142
 31
0.0
  0
ENDBLK
  5
172
330
170
100
AcDbEntity
  8
0
100
AcDbBlockEnd
  0
BLOCK
  5
17F
330
17E
100
AcDbEntity
  8
0
100
AcDbBlockBegin
  2
POLY10
 70
     0
 71
     0
 10
0.0
 20
0.0
 30
0.0
  3
POLY10
  1

  4
POLY10
  0
LINE
  5
181
330
17E
100
AcDbEntity
  8
LC-001-100-D00-0
 62
     7
370
    50
100
AcDbLine
 10
316.062075
 20
-69.448321
 30
0.0
 11
316.062075
 21
-69.448321
 31
0.0
  0
LINE
  5
182
330
17E
100
AcDbEntity
  8
LC-001-100-D00-0
 62
     7
370
    50
100
AcDbLine
 10
316.062075
 20
-69.448321
 30
0.0
 11
316.208016
 21
-69.461108
 31
0.0
  0
LINE
  5
183
330
17E
100
AcDbEntity
  8
LC-001-100-D00-0
 62
     7
370
    50
100
AcDbLine
 10
316.208016
 20
-69.461108
 30
0.0
 11
316.208016
 21
-69.461108
 31
0.0
  0
LINE
  5
184
330
17E
100
AcDbEntity
  8
LC-001-100-D00-0
 62
     7
370
    50
100
AcDbLine
 10
316.208016
 20
-69.461108
 30
0.0
 11
316.411462
 21
-69.478933
 31
0.0
  0
LINE
  5
185
330
17E
100
AcDbEntity
  8
LC-001-100-D00-0
 62
     7
370
    50
100
AcDbLine
 10
316.411462
 20
-69.478933
 30
0.0
 11
316.411462
 21
-69.478933
 31
0.0
  0
LINE
  5
186
330
17E
100
AcDbEntity
  8
LC-001-100-D00-0
 62
     7
370
    50
100
AcDbLine
 10
316.411462
 20
-69.478933
 30
0.0
 11
316.615599
 21
-69.65013
 31
0.0
  0
LINE
  5
187
330
17E
100
AcDbEntity
  8
LC-001-100-D00-0
 62
     7
370
    50
100
AcDbLine
 10
316.615599
 20
-69.65013
 30
0.0
 11
316.615599
 21
-69.65013
 31
0.0
  0
LINE
  5
188
330
17E
100
AcDbEntity
  8
LC-001-100-D00-0
 62
     7
370
    50
100
AcDbLine
 10
316.615599
 20
-69.65013
 30
0.0
 11
316.653218
 21
-69.757561
 31
0.0
  0
LINE
  5
189
330
17E
100
AcDbEntity
  8
LC-001-100-D00-0
 62
     7
370
    50
100
AcDbLine
 10
316.653218
 20
-69.757561
 30
0.0
 11
316.653218
 21
-69.757561
 31
0.0
  0
LINE
  5
18A
330
17E
100
AcDbEntity
  8
LC-001-100-D00-0
 62
     7
370
    50
100
AcDbLine
 10
316.653218
 20
-69.757561
 30
0.0
 11
316.67205
 21
-69.811343
 31
0.0
  0
ENDBLK
  5
180
330
17E
100
AcDbEntity
  8
0
100
AcDbBlockEnd
  0
BLOCK
  5
18D
330
18C
100
AcDbEntity
  8
0
100
AcDbBlockBegin
  2
POLY11
 70
     0
 71
     0
 10
0.0
 20
0.0
 30
0.0
  3
POLY11
  1

  4
POLY11
  0
LINE
  5
18F
330
18C
100
AcDbEntity
  8
LC-001-100-D00-0
 62
     7
370
    50
100
AcDbLine
 10
315.477618
 20
-69.684162
 30
0.0
 11
315.477618
 21
-69.684162
 31
0.0
  0
LINE
  5
190
330
18C
100
AcDbEntity
  8
LC-001-100-D00-0
 62
     7
370
    50
100
AcDbLine
 10
315.477618
 20
-69.684162
 30
0.0
 11
315.520988
 21
-69.64131
 31
0.0
  0
LINE
  5
191
330
18C
100
AcDbEntity
  8
LC-001-100-D00-0
 62
     7
370
    50
100
AcDbLine
 10
315.520988
 20
-69.64131
 30
0.0
 11
315.520988
 21
-69.64131
 31
0.0
  0
LINE
  5
192
330
18C
100
AcDbEntity
  8
LC-001-100-D00-0
 62
     7
370
    50
100
AcDbLine
 10
315.520988
 20
-69.64131
 30
0.0
 11
315.607737
 21
-69.5556
 31
0.0
  0
LINE
  5
193
330
18C
100
AcDbEntity
  8
LC-001-100-D00-0
 62
     7
370
    50
100
AcDbLine
 10
315.607737
 20
-69.5556
 30
0.0
 11
315.607737
 21
-69.5556
 31
0.0
  0
LINE
  5
194
330
18C
100
AcDbEntity
  8
LC-001-100-D00-0
 62
     7
370
    50
100
AcDbLine
 10
315.607737
 20
-69.5556
 30
0.0
 11
315.809979
 21
-69.465189
 31
0.0
  0
LINE
  5
195
330
18C
100
AcDbEntity
  8
LC-001-100-D00-0
 62
     7
370
    50
100
AcDbLine
 10
315.809979
 20
-69.465189
 30
0.0
 11
315.809979
 21
-69.465189
 31
0.0
  0
LINE
  5
196
330
18C
100
AcDbEntity
  8
LC-001-100-D00-0
 62
     7
370
    50
100
AcDbLine
 10
315.809979
 20
-69.465189
 30
0.0
 11
315.96647
 21
-69.454718
 31
0.0
  0
LINE
  5
197
330
18C
100
AcDbEntity
  8
LC-001-100-D00-0
 62
     7
370
    50
100
AcDbLine
 10
315.96647
 20
-69.454718
 30
0.0
 11
315.96647
 21
-69.454718
 31
0.0
  0
LINE
  5
198
330
18C
100
AcDbEntity
  8
LC-001-100-D00-0
 62
     7
370
    50
100
AcDbLine
 10
315.96647
 20
-69.454718
 30
0.0
 11
316.062075
 21
-69.448321
 31
0.0
  0
ENDBLK
  5
18E
330
18C
100
AcDbEntity
  8
0
100
AcDbBlockEnd
  0
BLOCK
  5
19B
330
19A
100
AcDbEntity
  8
0
100
AcDbBlockBegin
  2
POLY12
 70
     0
 71
     0
 10
0.0
 20
0.0
 30
0.0
  3
POLY12
  1

  4
POLY12
  0
LINE
  5
19D
330
19A
100
AcDbEntity
  8
LC-001-100-D00-0
 62
     7
370
    50
100
AcDbLine
 10
316.362148
 20
-69.976142
 30
0.0
 11
316.362148
 21
-69.976142
 31
0.0
  0
LINE
  5
19E
330
19A
100
AcDbEntity
  8
LC-001-100-D00-0
 62
     7
370
    50
100
AcDbLine
 10
316.362148
 20
-69.976142
 30
0.0
 11
316.361093
 21
-69.950539
 31
0.0
  0
LINE
  5
19F
330
19A
100
AcDbEntity
  8
LC-001-100-D00-0
 62
     7
370
    50
100
AcDbLine
 10
316.361093
 20
-69.950539
 30
0.0
 11
316.361093
 21
-69.950539
 31
0.0
  0
LINE
  5
1A0
330
19A
100
AcDbEntity
  8
LC-001-100-D00-0
 62
     7
370
    50
100
AcDbLine
 10
316.361093
 20
-69.950539
 30
0.0
 11
316.357589
 21
-69.865527
 31
0.0
  0
LINE
  5
1A1
330
19A
100
AcDbEntity
  8
LC-001-100-D00-0
 62
     7
370
    50
100
AcDbLine
 10
316.357589
 20
-69.865527
 30
0.0
 11
316.357589
 21
-69.865527
 31
0.0
  0
LINE
  5
1A2
330
19A
100
AcDbEntity
  8
LC-001-100-D00-0
 62
     7
370
    50
100
AcDbLine
 10
316.357589
 20
-69.865527
 30
0.0
 11
316.267109
 21
-69.75114
 31
0.0
  0
LINE
  5
1A3
330
19A
100
AcDbEntity
  8
LC-001-100-D00-0
 62
     7
370
    50
100
AcDbLine
 10
316.267109
 20
-69.75114
 30
0.0
 11
316.267109
 21
-69.75114
 31
0.0
  0
LINE
  5
1A4
330
19A
100
AcDbEntity
  8
LC-001-100-D00-0
 62
     7
370
    50
100
AcDbLine
 10
316.267109
 20
-69.75114
 30
0.0
 11
316.121814
 21
-69.693713
 31
0.0
  0
LINE
  5
1A5
330
19A
100
AcDbEntity
  8
LC-001-100-D00-0
 62
     7
370
    50
100
AcDbLine
 10
316.121814
 20
-69.693713
 30
0.0
 11
316.121814
 21
-69.693713
 31
0.0
  0
LINE
  5
1A6
330
19A
100
AcDbEntity
  8
LC-001-100-D00-0
 62
     7
370
    50
100
AcDbLine
 10
316.121814
 20
-69.693713
 30
0.0
 11
316.02715
 21
-69.688171
 31
0.0
  0
LINE
  5
1A7
330
19A
100
AcDbEntity
  8
LC-001-100-D00-0
 62
     7
370
    50
100
AcDbLine
 10
316.02715
 20
-69.688171
 30
0.0
 11
316.02715
 21
-69.688171
 31
0.0
  0
LINE
  5
1A8
330
19A
100
AcDbEntity
  8
LC-001-100-D00-0
 62
     7
370
    50
100
AcDbLine
 10
316.02715
 20
-69.688171
 30
0.0
 11
315.979757
 21
-69.685397
 31
0.0
  0
ENDBLK
  5
19C
330
19A
100
AcDbEntity
  8
0
100
AcDbBlockEnd
  0
BLOCK
  5
1AB
330
1AA
100
AcDbEntity
  8
0
100
AcDbBlockBegin
  2
POLY13
 70
     0
 71
     0
 10
0.0
 20
0.0
 30
0.0
  3
POLY13
  1

  4
POLY13
  0
LINE
  5
1AD
330
1AA
100
AcDbEntity
  8
LC-001-100-D00-0
 62
     7
370
    50
100
AcDbLine
 10
316.67205
 20
-69.811343
 30
0.0
 11
316.67205
 21
-69.811343
 31
0.0
  0
LINE
  5
1AE
330
1AA
100
AcDbEntity
  8
LC-001-100-D00-0
 62
     7
370
    50
100
AcDbLine
 10
316.67205
 20
-69.811343
 30
0.0
 11
316.678861
 21
-69.857027
 31
0.0
  0
LINE
  5
1AF
330
1AA
100
AcDbEntity
  8
LC-001-100-D00-0
 62
     7
370
    50
100
AcDbLine
 10
316.678861
 20
-69.857027
 30
0.0
 11
316.678861
 21
-69.857027
 31
0.0
  0
LINE
  5
1B0
330
1AA
100
AcDbEntity
  8
LC-001-100-D00-0
 62
     7
370
    50
100
AcDbLine
 10
316.678861
 20
-69.857027
 30
0.0
 11
316.687023
 21
-69.911771
 31
0.0
  0
LINE
  5
1B1
330
1AA
100
AcDbEntity
  8
LC-001-100-D00-0
 62
     7
370
    50
100
AcDbLine
 10
316.687023
 20
-69.911771
 30
0.0
 11
316.687023
 21
-69.911771
 31
0.0
  0
LINE
  5
1B2
330
1AA
100
AcDbEntity
  8
LC-001-100-D00-0
 62
     7
370
    50
100
AcDbLine
 10
316.687023
 20
-69.911771
 30
0.0
 11
316.687668
 21
-69.967002
 31
0.0
  0
LINE
  5
1B3
330
1AA
100
AcDbEntity
  8
LC-001-100-D00-0
 62
     7
370
    50
100
AcDbLine
 10
316.687668
 20
-69.967002
 30
0.0
 11
316.687668
 21
-69.967002
 31
0.0
  0
LINE
  5
1B4
330
1AA
100
AcDbEntity
  8
LC-001-100-D00-0
 62
     7
370
    50
100
AcDbLine
 10
316.687668
 20
-69.967002
 30
0.0
 11
316.687775
 21
-69.976142
 31
0.0
  0
ENDBLK
  5
1AC
330
1AA
100
AcDbEntity
  8
0
100
AcDbBlockEnd
  0
BLOCK
  5
1BA
330
1B9
100
AcDbEntity
  8
0
100
AcDbBlockBegin
  2
POLY14
 70
     0
 71
     0
 10
0.0
 20
0.0
 30
0.0
  3
POLY14
  1

  4
POLY14
  0
LINE
  5
1BC
330
1B9
100
AcDbEntity
  8
LC-001-100-D00-0
 62
     7
370
    50
100
AcDbLine
 10
320.259464
 20
-69.567271
 30
0.0
 11
320.259464
 21
-69.567271
 31
0.0
  0
LINE
  5
1BD
330
1B9
100
AcDbEntity
  8
LC-001-100-D00-0
 62
     7
370
    50
100
AcDbLine
 10
320.259464
 20
-69.567271
 30
0.0
 11
320.220296
 21
-69.484356
 31
0.0
  0
LINE
  5
1BE
330
1B9
100
AcDbEntity
  8
LC-001-100-D00-0
 62
     7
370
    50
100
AcDbLine
 10
320.220296
 20
-69.484356
 30
0.0
 11
320.220296
 21
-69.484356
 31
0.0
  0
LINE
  5
1BF
330
1B9
100
AcDbEntity
  8
LC-001-100-D00-0
 62
     7
370
    50
100
AcDbLine
 10
320.220296
 20
-69.484356
 30
0.0
 11
320.142064
 21
-69.318751
 31
0.0
  0
LINE
  5
1C0
330
1B9
100
AcDbEntity
  8
LC-001-100-D00-0
 62
     7
370
    50
100
AcDbLine
 10
320.142064
 20
-69.318751
 30
0.0
 11
320.142064
 21
-69.318751
 31
0.0
  0
LINE
  5
1C1
330
1B9
100
AcDbEntity
  8
LC-001-100-D00-0
 62
     7
370
    50
100
AcDbLine
 10
320.142064
 20
-69.318751
 30
0.0
 11
319.845031
 21
-69.15827
 31
0.0
  0
LINE
  5
1C2
330
1B9
100
AcDbEntity
  8
LC-001-100-D00-0
 62
     7
370
    50
100
AcDbLine
 10
319.845031
 20
-69.15827
 30
0.0
 11
319.845031
 21
-69.15827
 31
0.0
  0
LINE
  5
1C3
330
1B9
100
AcDbEntity
  8
LC-001-100-D00-0
 62
     7
370
    50
100
AcDbLine
 10
319.845031
 20
-69.15827
 30
0.0
 11
319.614184
 21
-69.142109
 31
0.0
  0
LINE
  5
1C4
330
1B9
100
AcDbEntity
  8
LC-001-100-D00-0
 62
     7
370
    50
100
AcDbLine
 10
319.614184
 20
-69.142109
 30
0.0
 11
319.614184
 21
-69.142109
 31
0.0
  0
LINE
  5
1C5
330
1B9
100
AcDbEntity
  8
LC-001-100-D00-0
 62
     7
370
    50
100
AcDbLine
 10
319.614184
 20
-69.142109
 30
0.0
 11
319.472917
 21
-69.13222
 31
0.0
  0
ENDBLK
  5
1BB
330
1B9
100
AcDbEntity
  8
0
100
AcDbBlockEnd
  0
BLOCK
  5
1C9
330
1C8
100
AcDbEntity
  8
0
100
AcDbBlockBegin
  2
POLY15
 70
     0
 71
     0
 10
0.0
 20
0.0
 30
0.0
  3
POLY15
  1

  4
POLY15
  0
LINE
  5
1CB
330
1C8
100
AcDbEntity
  8
LC-001-100-D00-0
 62
     7
370
    50
100
AcDbLine
 10
318.138132
 20
-69.958692
 30
0.0
 11
318.138132
 21
-69.958692
 31
0.0
  0
LINE
  5
1CC
330
1C8
100
AcDbEntity
  8
LC-001-100-D00-0
 62
     7
370
    50
100
AcDbLine
 10
318.138132
 20
-69.958692
 30
0.0
 11
318.150518
 21
-69.838977
 31
0.0
  0
LINE
  5
1CD
330
1C8
100
AcDbEntity
  8
LC-001-100-D00-0
 62
     7
370
    50
100
AcDbLine
 10
318.150518
 20
-69.838977
 30
0.0
 11
318.150518
 21
-69.838977
 31
0.0
  0
LINE
  5
1CE
330
1C8
100
AcDbEntity
  8
LC-001-100-D00-0
 62
     7
370
    50
100
AcDbLine
 10
318.150518
 20
-69.838977
 30
0.0
 11
318.175295
 21
-69.599497
 31
0.0
  0
LINE
  5
1CF
330
1C8
100
AcDbEntity
  8
LC-001-100-D00-0
 62
     7
370
    50
100
AcDbLine
 10
318.175295
 20
-69.599497
 30
0.0
 11
318.175295
 21
-69.599497
 31
0.0
  0
LINE
  5
1D0
330
1C8
100
AcDbEntity
  8
LC-001-100-D00-0
 62
     7
370
    50
100
AcDbLine
 10
318.175295
 20
-69.599497
 30
0.0
 11
318.362804
 21
-69.282135
 31
0.0
  0
LINE
  5
1D1
330
1C8
100
AcDbEntity
  8
LC-001-100-D00-0
 62
     7
370
    50
100
AcDbLine
 10
318.362804
 20
-69.282135
 30
0.0
 11
318.362804
 21
-69.282135
 31
0.0
  0
LINE
  5
1D2
330
1C8
100
AcDbEntity
  8
LC-001-100-D00-0
 62
     7
370
    50
100
AcDbLine
 10
318.362804
 20
-69.282135
 30
0.0
 11
318.780041
 21
-68.95119
 31
0.0
  0
LINE
  5
1D3
330
1C8
100
AcDbEntity
  8
LC-001-100-D00-0
 62
     7
370
    50
100
AcDbLine
 10
318.780041
 20
-68.95119
 30
0.0
 11
318.780041
 21
-68.95119
 31
0.0
  0
LINE
  5
1D4
330
1C8
100
AcDbEntity
  8
LC-001-100-D00-0
 62
     7
370
    50
100
AcDbLine
 10
318.780041
 20
-68.95119
 30
0.0
 11
319.190703
 21
-68.918246
 31
0.0
  0
LINE
  5
1D5
330
1C8
100
AcDbEntity
  8
LC-001-100-D00-0
 62
     7
370
    50
100
AcDbLine
 10
319.190703
 20
-68.918246
 30
0.0
 11
319.190703
 21
-68.918246
 31
0.0
  0
LINE
  5
1D6
330
1C8
100
AcDbEntity
  8
LC-001-100-D00-0
 62
     7
370
    50
100
AcDbLine
 10
319.190703
 20
-68.918246
 30
0.0
 11
319.478679
 21
-68.895144
 31
0.0
  0
ENDBLK
  5
1CA
330
1C8
100
AcDbEntity
  8
0
100
AcDbBlockEnd
  0
BLOCK
  5
1D9
330
1D8
100
AcDbEntity
  8
0
100
AcDbBlockBegin
  2
POLY16
 70
     0
 71
     0
 10
0.0
 20
0.0
 30
0.0
  3
POLY16
  1

  4
POLY16
  0
LINE
  5
1DB
330
1D8
100
AcDbEntity
  8
LC-001-100-D00-0
 62
     7
370
    50
100
AcDbLine
 10
319.478679
 20
-68.895144
 30
0.0
 11
319.478679
 21
-68.895144
 31
0.0
  0
LINE
  5
1DC
330
1D8
100
AcDbEntity
  8
LC-001-100-D00-0
 62
     7
370
    50
100
AcDbLine
 10
319.478679
 20
-68.895144
 30
0.0
 11
319.734937
 21
-68.912931
 31
0.0
  0
LINE
  5
1DD
330
1D8
100
AcDbEntity
  8
LC-001-100-D00-0
 62
     7
370
    50
100
AcDbLine
 10
319.734937
 20
-68.912931
 30
0.0
 11
319.734937
 21
-68.912931
 31
0.0
  0
LINE
  5
1DE
330
1D8
100
AcDbEntity
  8
LC-001-100-D00-0
 62
     7
370
    50
100
AcDbLine
 10
319.734937
 20
-68.912931
 30
0.0
 11
320.092066
 21
-68.937718
 31
0.0
  0
LINE
  5
1DF
330
1D8
100
AcDbEntity
  8
LC-001-100-D00-0
 62
     7
370
    50
100
AcDbLine
 10
320.092066
 20
-68.937718
 30
0.0
 11
320.092066
 21
-68.937718
 31
0.0
  0
LINE
  5
1E0
330
1D8
100
AcDbEntity
  8
LC-001-100-D00-0
 62
     7
370
    50
100
AcDbLine
 10
320.092066
 20
-68.937718
 30
0.0
 11
320.458425
 21
-69.225181
 31
0.0
  0
LINE
  5
1E1
330
1D8
100
AcDbEntity
  8
LC-001-100-D00-0
 62
     7
370
    50
100
AcDbLine
 10
320.458425
 20
-69.225181
 30
0.0
 11
320.458425
 21
-69.225181
 31
0.0
  0
LINE
  5
1E2
330
1D8
100
AcDbEntity
  8
LC-001-100-D00-0
 62
     7
370
    50
100
AcDbLine
 10
320.458425
 20
-69.225181
 30
0.0
 11
320.535935
 21
-69.408705
 31
0.0
  0
LINE
  5
1E3
330
1D8
100
AcDbEntity
  8
LC-001-100-D00-0
 62
     7
370
    50
100
AcDbLine
 10
320.535935
 20
-69.408705
 30
0.0
 11
320.535935
 21
-69.408705
 31
0.0
  0
LINE
  5
1E4
330
1D8
100
AcDbEntity
  8
LC-001-100-D00-0
 62
     7
370
    50
100
AcDbLine
 10
320.535935
 20
-69.408705
 30
0.0
 11
320.574742
 21
-69.500593
 31
0.0
  0
ENDBLK
  5
1DA
330
1D8
100
AcDbEntity
  8
0
100
AcDbBlockEnd
  0
BLOCK
  5
1E7
330
1E6
100
AcDbEntity
  8
0
100
AcDbBlockBegin
  2
POLY17
 70
     0
 71
     0
 10
0.0
 20
0.0
 30
0.0
  3
POLY17
  1

  4
POLY17
  0
LINE
  5
1E9
330
1E6
100
AcDbEntity
  8
LC-001-100-D00-0
 62
     7
370
    50
100
AcDbLine
 10
319.472917
 20
-69.13222
 30
0.0
 11
319.472917
 21
-69.13222
 31
0.0
  0
LINE
  5
1EA
330
1E6
100
AcDbEntity
  8
LC-001-100-D00-0
 62
     7
370
    50
100
AcDbLine
 10
319.472917
 20
-69.13222
 30
0.0
 11
319.279671
 21
-69.146535
 31
0.0
  0
LINE
  5
1EB
330
1E6
100
AcDbEntity
  8
LC-001-100-D00-0
 62
     7
370
    50
100
AcDbLine
 10
319.279671
 20
-69.146535
 30
0.0
 11
319.279671
 21
-69.146535
 31
0.0
  0
LINE
  5
1EC
330
1E6
100
AcDbEntity
  8
LC-001-100-D00-0
 62
     7
370
    50
100
AcDbLine
 10
319.279671
 20
-69.146535
 30
0.0
 11
319.010197
 21
-69.166497
 31
0.0
  0
LINE
  5
1ED
330
1E6
100
AcDbEntity
  8
LC-001-100-D00-0
 62
     7
370
    50
100
AcDbLine
 10
319.010197
 20
-69.166497
 30
0.0
 11
319.010197
 21
-69.166497
 31
0.0
  0
LINE
  5
1EE
330
1E6
100
AcDbEntity
  8
LC-001-100-D00-0
 62
     7
370
    50
100
AcDbLine
 10
319.010197
 20
-69.166497
 30
0.0
 11
318.714194
 21
-69.352403
 31
0.0
  0
LINE
  5
1EF
330
1E6
100
AcDbEntity
  8
LC-001-100-D00-0
 62
     7
370
    50
100
AcDbLine
 10
318.714194
 20
-69.352403
 30
0.0
 11
318.714194
 21
-69.352403
 31
0.0
  0
LINE
  5
1F0
330
1E6
100
AcDbEntity
  8
LC-001-100-D00-0
 62
     7
370
    50
100
AcDbLine
 10
318.714194
 20
-69.352403
 30
0.0
 11
318.627593
 21
-69.476169
 31
0.0
  0
LINE
  5
1F1
330
1E6
100
AcDbEntity
  8
LC-001-100-D00-0
 62
     7
370
    50
100
AcDbLine
 10
318.627593
 20
-69.476169
 30
0.0
 11
318.627593
 21
-69.476169
 31
0.0
  0
LINE
  5
1F2
330
1E6
100
AcDbEntity
  8
LC-001-100-D00-0
 62
     7
370
    50
100
AcDbLine
 10
318.627593
 20
-69.476169
 30
0.0
 11
318.584295
 21
-69.538048
 31
0.0
  0
ENDBLK
  5
1E8
330
1E6
100
AcDbEntity
  8
0
100
AcDbBlockEnd
  0
BLOCK
  5
1F5
330
1F4
100
AcDbEntity
  8
0
100
AcDbBlockBegin
  2
POLY18
 70
     0
 71
     0
 10
0.0
 20
0.0
 30
0.0
  3
POLY18
  1

  4
POLY18
  0
LINE
  5
1F7
330
1F4
100
AcDbEntity
  8
LC-001-100-D00-0
 62
     7
370
    50
100
AcDbLine
 10
318.584295
 20
-69.538048
 30
0.0
 11
318.584295
 21
-69.538048
 31
0.0
  0
LINE
  5
1F8
330
1F4
100
AcDbEntity
  8
LC-001-100-D00-0
 62
     7
370
    50
100
AcDbLine
 10
318.584295
 20
-69.538048
 30
0.0
 11
318.550761
 21
-69.611162
 31
0.0
  0
LINE
  5
1F9
330
1F4
100
AcDbEntity
  8
LC-001-100-D00-0
 62
     7
370
    50
100
AcDbLine
 10
318.550761
 20
-69.611162
 30
0.0
 11
318.550761
 21
-69.611162
 31
0.0
  0
LINE
  5
1FA
330
1F4
100
AcDbEntity
  8
LC-001-100-D00-0
 62
     7
370
    50
100
AcDbLine
 10
318.550761
 20
-69.611162
 30
0.0
 11
318.49084
 21
-69.741808
 31
0.0
  0
LINE
  5
1FB
330
1F4
100
AcDbEntity
  8
LC-001-100-D00-0
 62
     7
370
    50
100
AcDbLine
 10
318.49084
 20
-69.741808
 30
0.0
 11
318.49084
 21
-69.741808
 31
0.0
  0
LINE
  5
1FC
330
1F4
100
AcDbEntity
  8
LC-001-100-D00-0
 62
     7
370
    50
100
AcDbLine
 10
318.49084
 20
-69.741808
 30
0.0
 11
318.483713
 21
-69.884955
 31
0.0
  0
LINE
  5
1FD
330
1F4
100
AcDbEntity
  8
LC-001-100-D00-0
 62
     7
370
    50
100
AcDbLine
 10
318.483713
 20
-69.884955
 30
0.0
 11
318.483713
 21
-69.884955
 31
0.0
  0
LINE
  5
1FE
330
1F4
100
AcDbEntity
  8
LC-001-100-D00-0
 62
     7
370
    50
100
AcDbLine
 10
318.483713
 20
-69.884955
 30
0.0
 11
318.480575
 21
-69.947991
 31
0.0
  0
ENDBLK
  5
1F6
330
1F4
100
AcDbEntity
  8
0
100
AcDbBlockEnd
  0
BLOCK
  5
228
330
227
100
AcDbEntity
  8
0
100
AcDbBlockBegin
  2
POLY19
 70
     0
 71
     0
 10
0.0
 20
0.0
 30
0.0
  3
POLY19
  1

  4
POLY19
  0
LINE
  5
22A
330
227
100
AcDbEntity
  8
LC-001-100-D00-0
 62
     7
370
    50
100
AcDbLine
 10
236.779049
 20
345.955209
 30
0.0
 11
236.779049
 21
345.955209
 31
0.0
  0
LINE
  5
22B
330
227
100
AcDbEntity
  8
LC-001-100-D00-0
 62
     7
370
    50
100
AcDbLine
 10
236.779049
 20
345.955209
 30
0.0
 11
236.882411
 21
346.88615
 31
0.0
  0
LINE
  5
22C
330
227
100
AcDbEntity
  8
LC-001-100-D00-0
 62
     7
370
    50
100
AcDbLine
 10
236.882411
 20
346.88615
 30
0.0
 11
236.882411
 21
346.88615
 31
0.0
  0
LINE
  5
22D
330
227
100
AcDbEntity
  8
LC-001-100-D00-0
 62
     7
370
    50
100
AcDbLine
 10
236.882411
 20
346.88615
 30
0.0
 11
237.256578
 21
350.256164
 31
0.0
  0
LINE
  5
22E
330
227
100
AcDbEntity
  8
LC-001-100-D00-0
 62
     7
370
    50
100
AcDbLine
 10
237.256578
 20
350.256164
 30
0.0
 11
237.256578
 21
350.256164
 31
0.0
  0
LINE
  5
22F
330
227
100
AcDbEntity
  8
LC-001-100-D00-0
 62
     7
370
    50
100
AcDbLine
 10
237.256578
 20
350.256164
 30
0.0
 11
237.630194
 21
353.626341
 31
0.0
  0
LINE
  5
230
330
227
100
AcDbEntity
  8
LC-001-100-D00-0
 62
     7
370
    50
100
AcDbLine
 10
237.630194
 20
353.626341
 30
0.0
 11
237.630194
 21
353.626341
 31
0.0
  0
LINE
  5
231
330
227
100
AcDbEntity
  8
LC-001-100-D00-0
 62
     7
370
    50
100
AcDbLine
 10
237.630194
 20
353.626341
 30
0.0
 11
237.9006
 21
356.065532
 31
0.0
  0
ENDBLK
  5
229
330
227
100
AcDbEntity
  8
0
100
AcDbBlockEnd
  0
BLOCK
  5
2B4
330
2B3
100
AcDbEntity
  8
0
100
AcDbBlockBegin
  2
POLY20
 70
     0
 71
     0
 10
0.0
 20
0.0
 30
0.0
  3
POLY20
  1

  4
POLY20
  0
LINE
  5
2B6
330
2B3
100
AcDbEntity
  8
LC-001-100-D00-0
 62
     7
370
    50
100
AcDbLine
 10
177.878075
 20
345.065532
 30
0.0
 11
177.878075
 21
345.065532
 31
0.0
  0
LINE
  5
2B7
330
2B3
100
AcDbEntity
  8
LC-001-100-D00-0
 62
     7
370
    50
100
AcDbLine
 10
177.878075
 20
345.065532
 30
0.0
 11
177.878944
 21
345.065535
 31
0.0
  0
LINE
  5
2B8
330
2B3
100
AcDbEntity
  8
LC-001-100-D00-0
 62
     7
370
    50
100
AcDbLine
 10
177.878944
 20
345.065535
 30
0.0
 11
177.878944
 21
345.065535
 31
0.0
  0
LINE
  5
2B9
330
2B3
100
AcDbEntity
  8
LC-001-100-D00-0
 62
     7
370
    50
100
AcDbLine
 10
177.878944
 20
345.065535
 30
0.0
 11
177.897326
 21
345.065598
 31
0.0
  0
LINE
  5
2BA
330
2B3
100
AcDbEntity
  8
LC-001-100-D00-0
 62
     7
370
    50
100
AcDbLine
 10
177.897326
 20
345.065598
 30
0.0
 11
177.897326
 21
345.065598
 31
0.0
  0
LINE
  5
2BB
330
2B3
100
AcDbEntity
  8
LC-001-100-D00-0
 62
     7
370
    50
100
AcDbLine
 10
177.897326
 20
345.065598
 30
0.0
 11
177.962892
 21
345.075521
 31
0.0
  0
LINE
  5
2BC
330
2B3
100
AcDbEntity
  8
LC-001-100-D00-0
 62
     7
370
    50
100
AcDbLine
 10
177.962892
 20
345.075521
 30
0.0
 11
177.962892
 21
345.075521
 31
0.0
  0
LINE
  5
2BD
330
2B3
100
AcDbEntity
  8
LC-001-100-D00-0
 62
     7
370
    50
100
AcDbLine
 10
177.962892
 20
345.075521
 30
0.0
 11
178.06497
 21
345.147734
 31
0.0
  0
LINE
  5
2BE
330
2B3
100
AcDbEntity
  8
LC-001-100-D00-0
 62
     7
370
    50
100
AcDbLine
 10
178.06497
 20
345.147734
 30
0.0
 11
178.06497
 21
345.147734
 31
0.0
  0
LINE
  5
2BF
330
2B3
100
AcDbEntity
  8
LC-001-100-D00-0
 62
     7
370
    50
100
AcDbLine
 10
178.06497
 20
345.147734
 30
0.0
 11
178.16758
 21
345.332505
 31
0.0
  0
LINE
  5
2C0
330
2B3
100
AcDbEntity
  8
LC-001-100-D00-0
 62
     7
370
    50
100
AcDbLine
 10
178.16758
 20
345.332505
 30
0.0
 11
178.16758
 21
345.332505
 31
0.0
  0
LINE
  5
2C1
330
2B3
100
AcDbEntity
  8
LC-001-100-D00-0
 62
     7
370
    50
100
AcDbLine
 10
178.16758
 20
345.332505
 30
0.0
 11
178.241916
 21
345.583197
 31
0.0
  0
LINE
  5
2C2
330
2B3
100
AcDbEntity
  8
LC-001-100-D00-0
 62
     7
370
    50
100
AcDbLine
 10
178.241916
 20
345.583197
 30
0.0
 11
178.241916
 21
345.583197
 31
0.0
  0
LINE
  5
2C3
330
2B3
100
AcDbEntity
  8
LC-001-100-D00-0
 62
     7
370
    50
100
AcDbLine
 10
178.241916
 20
345.583197
 30
0.0
 11
178.262651
 21
345.788907
 31
0.0
  0
LINE
  5
2C4
330
2B3
100
AcDbEntity
  8
LC-001-100-D00-0
 62
     7
370
    50
100
AcDbLine
 10
178.262651
 20
345.788907
 30
0.0
 11
178.262651
 21
345.788907
 31
0.0
  0
LINE
  5
2C5
330
2B3
100
AcDbEntity
  8
LC-001-100-D00-0
 62
     7
370
    50
100
AcDbLine
 10
178.262651
 20
345.788907
 30
0.0
 11
178.27303
 21
345.891883
 31
0.0
  0
ENDBLK
  5
2B5
330
2B3
100
AcDbEntity
  8
0
100
AcDbBlockEnd
  0
BLOCK
  5
2CE
330
2CD
100
AcDbEntity
  8
0
100
AcDbBlockBegin
  2
POLY21
 70
     0
 71
     0
 10
0.0
 20
0.0
 30
0.0
  3
POLY21
  1

  4
POLY21
  0
LINE
  5
2D0
330
2CD
100
AcDbEntity
  8
LC-001-100-D00-0
 62
     7
370
    50
100
AcDbLine
 10
181.631171
 20
345.065532
 30
0.0
 11
181.631171
 21
345.065532
 31
0.0
  0
LINE
  5
2D1
330
2CD
100
AcDbEntity
  8
LC-001-100-D00-0
 62
     7
370
    50
100
AcDbLine
 10
181.631171
 20
345.065532
 30
0.0
 11
181.648201
 21
345.065532
 31
0.0
  0
LINE
  5
2D2
330
2CD
100
AcDbEntity
  8
LC-001-100-D00-0
 62
     7
370
    50
100
AcDbLine
 10
181.648201
 20
345.065532
 30
0.0
 11
181.648201
 21
345.065532
 31
0.0
  0
LINE
  5
2D3
330
2CD
100
AcDbEntity
  8
LC-001-100-D00-0
 62
     7
370
    50
100
AcDbLine
 10
181.648201
 20
345.065532
 30
0.0
 11
181.698635
 21
345.065532
 31
0.0
  0
LINE
  5
2D4
330
2CD
100
AcDbEntity
  8
LC-001-100-D00-0
 62
     7
370
    50
100
AcDbLine
 10
181.698635
 20
345.065532
 30
0.0
 11
181.698635
 21
345.065532
 31
0.0
  0
LINE
  5
2D5
330
2CD
100
AcDbEntity
  8
LC-001-100-D00-0
 62
     7
370
    50
100
AcDbLine
 10
181.698635
 20
345.065532
 30
0.0
 11
181.397509
 21
345.065532
 31
0.0
  0
LINE
  5
2D6
330
2CD
100
AcDbEntity
  8
LC-001-100-D00-0
 62
     7
370
    50
100
AcDbLine
 10
181.397509
 20
345.065532
 30
0.0
 11
181.397509
 21
345.065532
 31
0.0
  0
LINE
  5
2D7
330
2CD
100
AcDbEntity
  8
LC-001-100-D00-0
 62
     7
370
    50
100
AcDbLine
 10
181.397509
 20
345.065532
 30
0.0
 11
181.130822
 21
345.065532
 31
0.0
  0
LINE
  5
2D8
330
2CD
100
AcDbEntity
  8
LC-001-100-D00-0
 62
     7
370
    50
100
AcDbLine
 10
181.130822
 20
345.065532
 30
0.0
 11
181.130822
 21
345.065532
 31
0.0
  0
LINE
  5
2D9
330
2CD
100
AcDbEntity
  8
LC-001-100-D00-0
 62
     7
370
    50
100
AcDbLine
 10
181.130822
 20
345.065532
 30
0.0
 11
181.09455
 21
345.065532
 31
0.0
  0
ENDBLK
  5
2CF
330
2CD
100
AcDbEntity
  8
0
100
AcDbBlockEnd
  0
BLOCK
  5
2E1
330
2E0
100
AcDbEntity
  8
0
100
AcDbBlockBegin
  2
POLY22
 70
     0
 71
     0
 10
0.0
 20
0.0
 30
0.0
  3
POLY22
  1

  4
POLY22
  0
LINE
  5
2E3
330
2E0
100
AcDbEntity
  8
LC-001-100-D00-0
 62
     7
370
    50
100
AcDbLine
 10
432.117746
 20
345.891883
 30
0.0
 11
432.117746
 21
345.891883
 31
0.0
  0
LINE
  5
2E4
330
2E0
100
AcDbEntity
  8
LC-001-100-D00-0
 62
     7
370
    50
100
AcDbLine
 10
432.117746
 20
345.891883
 30
0.0
 11
432.111702
 21
345.788908
 31
0.0
  0
LINE
  5
2E5
330
2E0
100
AcDbEntity
  8
LC-001-100-D00-0
 62
     7
370
    50
100
AcDbLine
 10
432.111702
 20
345.788908
 30
0.0
 11
432.111702
 21
345.788908
 31
0.0
  0
LINE
  5
2E6
330
2E0
100
AcDbEntity
  8
LC-001-100-D00-0
 62
     7
370
    50
100
AcDbLine
 10
432.111702
 20
345.788908
 30
0.0
 11
432.09963
 21
345.5832
 31
0.0
  0
LINE
  5
2E7
330
2E0
100
AcDbEntity
  8
LC-001-100-D00-0
 62
     7
370
    50
100
AcDbLine
 10
432.09963
 20
345.5832
 30
0.0
 11
432.09963
 21
345.5832
 31
0.0
  0
LINE
  5
2E8
330
2E0
100
AcDbEntity
  8
LC-001-100-D00-0
 62
     7
370
    50
100
AcDbLine
 10
432.09963
 20
345.5832
 30
0.0
 11
432.059021
 21
345.332502
 31
0.0
  0
LINE
  5
2E9
330
2E0
100
AcDbEntity
  8
LC-001-100-D00-0
 62
     7
370
    50
100
AcDbLine
 10
432.059021
 20
345.332502
 30
0.0
 11
432.059021
 21
345.332502
 31
0.0
  0
LINE
  5
2EA
330
2E0
100
AcDbEntity
  8
LC-001-100-D00-0
 62
     7
370
    50
100
AcDbLine
 10
432.059021
 20
345.332502
 30
0.0
 11
432.008656
 21
345.147734
 31
0.0
  0
LINE
  5
2EB
330
2E0
100
AcDbEntity
  8
LC-001-100-D00-0
 62
     7
370
    50
100
AcDbLine
 10
432.008656
 20
345.147734
 30
0.0
 11
432.008656
 21
345.147734
 31
0.0
  0
LINE
  5
2EC
330
2E0
100
AcDbEntity
  8
LC-001-100-D00-0
 62
     7
370
    50
100
AcDbLine
 10
432.008656
 20
345.147734
 30
0.0
 11
431.965835
 21
345.075521
 31
0.0
  0
LINE
  5
2ED
330
2E0
100
AcDbEntity
  8
LC-001-100-D00-0
 62
     7
370
    50
100
AcDbLine
 10
431.965835
 20
345.075521
 30
0.0
 11
431.965835
 21
345.075521
 31
0.0
  0
LINE
  5
2EE
330
2E0
100
AcDbEntity
  8
LC-001-100-D00-0
 62
     7
370
    50
100
AcDbLine
 10
431.965835
 20
345.075521
 30
0.0
 11
431.942052
 21
345.065598
 31
0.0
  0
LINE
  5
2EF
330
2E0
100
AcDbEntity
  8
LC-001-100-D00-0
 62
     7
370
    50
100
AcDbLine
 10
431.942052
 20
345.065598
 30
0.0
 11
431.942052
 21
345.065598
 31
0.0
  0
LINE
  5
2F0
330
2E0
100
AcDbEntity
  8
LC-001-100-D00-0
 62
     7
370
    50
100
AcDbLine
 10
431.942052
 20
345.065598
 30
0.0
 11
431.935701
 21
345.065535
 31
0.0
  0
LINE
  5
2F1
330
2E0
100
AcDbEntity
  8
LC-001-100-D00-0
 62
     7
370
    50
100
AcDbLine
 10
431.935701
 20
345.065535
 30
0.0
 11
431.935701
 21
345.065535
 31
0.0
  0
LINE
  5
2F2
330
2E0
100
AcDbEntity
  8
LC-001-100-D00-0
 62
     7
370
    50
100
AcDbLine
 10
431.935701
 20
345.065535
 30
0.0
 11
431.9354
 21
345.065532
 31
0.0
  0
ENDBLK
  5
2E2
330
2E0
100
AcDbEntity
  8
0
100
AcDbBlockEnd
  0
BLOCK
  5
2F6
330
2F5
100
AcDbEntity
  8
0
100
AcDbBlockBegin
  2
POLY23
 70
     0
 71
     0
 10
0.0
 20
0.0
 30
0.0
  3
POLY23
  1

  4
POLY23
  0
LINE
  5
2F8
330
2F5
100
AcDbEntity
  8
LC-001-100-D00-0
 62
     7
370
    50
100
AcDbLine
 10
429.363646
 20
345.065532
 30
0.0
 11
429.363646
 21
345.065532
 31
0.0
  0
LINE
  5
2F9
330
2F5
100
AcDbEntity
  8
LC-001-100-D00-0
 62
     7
370
    50
100
AcDbLine
 10
429.363646
 20
345.065532
 30
0.0
 11
428.848124
 21
345.065532
 31
0.0
  0
LINE
  5
2FA
330
2F5
100
AcDbEntity
  8
LC-001-100-D00-0
 62
     7
370
    50
100
AcDbLine
 10
428.848124
 20
345.065532
 30
0.0
 11
428.848124
 21
345.065532
 31
0.0
  0
LINE
  5
2FB
330
2F5
100
AcDbEntity
  8
LC-001-100-D00-0
 62
     7
370
    50
100
AcDbLine
 10
428.848124
 20
345.065532
 30
0.0
 11
427.886635
 21
345.065532
 31
0.0
  0
LINE
  5
2FC
330
2F5
100
AcDbEntity
  8
LC-001-100-D00-0
 62
     7
370
    50
100
AcDbLine
 10
427.886635
 20
345.065532
 30
0.0
 11
427.886635
 21
345.065532
 31
0.0
  0
LINE
  5
2FD
330
2F5
100
AcDbEntity
  8
LC-001-100-D00-0
 62
     7
370
    50
100
AcDbLine
 10
427.886635
 20
345.065532
 30
0.0
 11
427.207641
 21
345.065532
 31
0.0
  0
LINE
  5
2FE
330
2F5
100
AcDbEntity
  8
LC-001-100-D00-0
 62
     7
370
    50
100
AcDbLine
 10
427.207641
 20
345.065532
 30
0.0
 11
427.207641
 21
345.065532
 31
0.0
  0
LINE
  5
2FF
330
2F5
100
AcDbEntity
  8
LC-001-100-D00-0
 62
     7
370
    50
100
AcDbLine
 10
427.207641
 20
345.065532
 30
0.0
 11
426.959512
 21
345.065532
 31
0.0
  0
LINE
  5
300
330
2F5
100
AcDbEntity
  8
LC-001-100-D00-0
 62
     7
370
    50
100
AcDbLine
 10
426.959512
 20
345.065532
 30
0.0
 11
426.959512
 21
345.065532
 31
0.0
  0
LINE
  5
301
330
2F5
100
AcDbEntity
  8
LC-001-100-D00-0
 62
     7
370
    50
100
AcDbLine
 10
426.959512
 20
345.065532
 30
0.0
 11
426.925764
 21
345.065532
 31
0.0
  0
ENDBLK
  5
2F7
330
2F5
100
AcDbEntity
  8
0
100
AcDbBlockEnd
  0
BLOCK
  5
307
330
306
100
AcDbEntity
  8
0
100
AcDbBlockBegin
  2
POLY24
 70
     0
 71
     0
 10
0.0
 20
0.0
 30
0.0
  3
POLY24
  1

  4
POLY24
  0
LINE
  5
309
330
306
100
AcDbEntity
  8
LC-001-100-D00-0
 62
     7
370
    50
100
AcDbLine
 10
235.785202
 20
345.065532
 30
0.0
 11
235.785202
 21
345.065532
 31
0.0
  0
LINE
  5
30A
330
306
100
AcDbEntity
  8
LC-001-100-D00-0
 62
     7
370
    50
100
AcDbLine
 10
235.785202
 20
345.065532
 30
0.0
 11
235.344452
 21
345.065532
 31
0.0
  0
LINE
  5
30B
330
306
100
AcDbEntity
  8
LC-001-100-D00-0
 62
     7
370
    50
100
AcDbLine
 10
235.344452
 20
345.065532
 30
0.0
 11
235.344452
 21
345.065532
 31
0.0
  0
LINE
  5
30C
330
306
100
AcDbEntity
  8
LC-001-100-D00-0
 62
     7
370
    50
100
AcDbLine
 10
235.344452
 20
345.065532
 30
0.0
 11
234.522422
 21
345.065532
 31
0.0
  0
LINE
  5
30D
330
306
100
AcDbEntity
  8
LC-001-100-D00-0
 62
     7
370
    50
100
AcDbLine
 10
234.522422
 20
345.065532
 30
0.0
 11
234.522422
 21
345.065532
 31
0.0
  0
LINE
  5
30E
330
306
100
AcDbEntity
  8
LC-001-100-D00-0
 62
     7
370
    50
100
AcDbLine
 10
234.522422
 20
345.065532
 30
0.0
 11
233.326278
 21
345.065532
 31
0.0
  0
LINE
  5
30F
330
306
100
AcDbEntity
  8
LC-001-100-D00-0
 62
     7
370
    50
100
AcDbLine
 10
233.326278
 20
345.065532
 30
0.0
 11
233.326278
 21
345.065532
 31
0.0
  0
LINE
  5
310
330
306
100
AcDbEntity
  8
LC-001-100-D00-0
 62
     7
370
    50
100
AcDbLine
 10
233.326278
 20
345.065532
 30
0.0
 11
232.699248
 21
345.065532
 31
0.0
  0
LINE
  5
311
330
306
100
AcDbEntity
  8
LC-001-100-D00-0
 62
     7
370
    50
100
AcDbLine
 10
232.699248
 20
345.065532
 30
0.0
 11
232.699248
 21
345.065532
 31
0.0
  0
LINE
  5
312
330
306
100
AcDbEntity
  8
LC-001-100-D00-0
 62
     7
370
    50
100
AcDbLine
 10
232.699248
 20
345.065532
 30
0.0
 11
232.613966
 21
345.065532
 31
0.0
  0
ENDBLK
  5
308
330
306
100
AcDbEntity
  8
0
100
AcDbBlockEnd
  0
BLOCK
  5
315
330
314
100
AcDbEntity
  8
0
100
AcDbBlockBegin
  2
POLY25
 70
     0
 71
     0
 10
0.0
 20
0.0
 30
0.0
  3
POLY25
  1

  4
POLY25
  0
LINE
  5
317
330
314
100
AcDbEntity
  8
LC-001-100-D00-0
 62
     7
370
    50
100
AcDbLine
 10
230.636932
 20
345.065532
 30
0.0
 11
230.636932
 21
345.065532
 31
0.0
  0
LINE
  5
318
330
314
100
AcDbEntity
  8
LC-001-100-D00-0
 62
     7
370
    50
100
AcDbLine
 10
230.636932
 20
345.065532
 30
0.0
 11
230.636063
 21
345.065535
 31
0.0
  0
LINE
  5
319
330
314
100
AcDbEntity
  8
LC-001-100-D00-0
 62
     7
370
    50
100
AcDbLine
 10
230.636063
 20
345.065535
 30
0.0
 11
230.636063
 21
345.065535
 31
0.0
  0
LINE
  5
31A
330
314
100
AcDbEntity
  8
LC-001-100-D00-0
 62
     7
370
    50
100
AcDbLine
 10
230.636063
 20
345.065535
 30
0.0
 11
230.617679
 21
345.065598
 31
0.0
  0
LINE
  5
31B
330
314
100
AcDbEntity
  8
LC-001-100-D00-0
 62
     7
370
    50
100
AcDbLine
 10
230.617679
 20
345.065598
 30
0.0
 11
230.617679
 21
345.065598
 31
0.0
  0
LINE
  5
31C
330
314
100
AcDbEntity
  8
LC-001-100-D00-0
 62
     7
370
    50
100
AcDbLine
 10
230.617679
 20
345.065598
 30
0.0
 11
230.550559
 21
345.075521
 31
0.0
  0
LINE
  5
31D
330
314
100
AcDbEntity
  8
LC-001-100-D00-0
 62
     7
370
    50
100
AcDbLine
 10
230.550559
 20
345.075521
 30
0.0
 11
230.550559
 21
345.075521
 31
0.0
  0
LINE
  5
31E
330
314
100
AcDbEntity
  8
LC-001-100-D00-0
 62
     7
370
    50
100
AcDbLine
 10
230.550559
 20
345.075521
 30
0.0
 11
230.437865
 21
345.147732
 31
0.0
  0
LINE
  5
31F
330
314
100
AcDbEntity
  8
LC-001-100-D00-0
 62
     7
370
    50
100
AcDbLine
 10
230.437865
 20
345.147732
 30
0.0
 11
230.437865
 21
345.147732
 31
0.0
  0
LINE
  5
320
330
314
100
AcDbEntity
  8
LC-001-100-D00-0
 62
     7
370
    50
100
AcDbLine
 10
230.437865
 20
345.147732
 30
0.0
 11
230.314246
 21
345.332507
 31
0.0
  0
LINE
  5
321
330
314
100
AcDbEntity
  8
LC-001-100-D00-0
 62
     7
370
    50
100
AcDbLine
 10
230.314246
 20
345.332507
 30
0.0
 11
230.314246
 21
345.332507
 31
0.0
  0
LINE
  5
322
330
314
100
AcDbEntity
  8
LC-001-100-D00-0
 62
     7
370
    50
100
AcDbLine
 10
230.314246
 20
345.332507
 30
0.0
 11
230.218881
 21
345.583195
 31
0.0
  0
LINE
  5
323
330
314
100
AcDbEntity
  8
LC-001-100-D00-0
 62
     7
370
    50
100
AcDbLine
 10
230.218881
 20
345.583195
 30
0.0
 11
230.218881
 21
345.583195
 31
0.0
  0
LINE
  5
324
330
314
100
AcDbEntity
  8
LC-001-100-D00-0
 62
     7
370
    50
100
AcDbLine
 10
230.218881
 20
345.583195
 30
0.0
 11
230.19124
 21
345.788907
 31
0.0
  0
LINE
  5
325
330
314
100
AcDbEntity
  8
LC-001-100-D00-0
 62
     7
370
    50
100
AcDbLine
 10
230.19124
 20
345.788907
 30
0.0
 11
230.19124
 21
345.788907
 31
0.0
  0
LINE
  5
326
330
314
100
AcDbEntity
  8
LC-001-100-D00-0
 62
     7
370
    50
100
AcDbLine
 10
230.19124
 20
345.788907
 30
0.0
 11
230.177403
 21
345.891883
 31
0.0
  0
ENDBLK
  5
316
330
314
100
AcDbEntity
  8
0
100
AcDbBlockEnd
  0
BLOCK
  5
3AA
330
3A9
100
AcDbEntity
  8
0
100
AcDbBlockBegin
  2
POLY26
 70
     0
 71
     0
 10
0.0
 20
0.0
 30
0.0
  3
POLY26
  1

  4
POLY26
  0
LINE
  5
3AC
330
3A9
100
AcDbEntity
  8
LC-001-100-D00-0
 62
     7
370
    50
100
AcDbLine
 10
318.469418
 20
394.765531
 30
0.0
 11
318.469418
 21
394.765531
 31
0.0
  0
LINE
  5
3AD
330
3A9
100
AcDbEntity
  8
LC-001-100-D00-0
 62
     7
370
    50
100
AcDbLine
 10
318.469418
 20
394.765531
 30
0.0
 11
318.323333
 21
394.765531
 31
0.0
  0
LINE
  5
3AE
330
3A9
100
AcDbEntity
  8
LC-001-100-D00-0
 62
     7
370
    50
100
AcDbLine
 10
318.323333
 20
394.765531
 30
0.0
 11
318.323333
 21
394.765531
 31
0.0
  0
LINE
  5
3AF
330
3A9
100
AcDbEntity
  8
LC-001-100-D00-0
 62
     7
370
    50
100
AcDbLine
 10
318.323333
 20
394.765531
 30
0.0
 11
318.11988
 21
394.765531
 31
0.0
  0
LINE
  5
3B0
330
3A9
100
AcDbEntity
  8
LC-001-100-D00-0
 62
     7
370
    50
100
AcDbLine
 10
318.11988
 20
394.765531
 30
0.0
 11
318.11988
 21
394.765531
 31
0.0
  0
LINE
  5
3B1
330
3A9
100
AcDbEntity
  8
LC-001-100-D00-0
 62
     7
370
    50
100
AcDbLine
 10
318.11988
 20
394.765531
 30
0.0
 11
317.938828
 21
394.765531
 31
0.0
  0
LINE
  5
3B2
330
3A9
100
AcDbEntity
  8
LC-001-100-D00-0
 62
     7
370
    50
100
AcDbLine
 10
317.938828
 20
394.765531
 30
0.0
 11
317.938828
 21
394.765531
 31
0.0
  0
LINE
  5
3B3
330
3A9
100
AcDbEntity
  8
LC-001-100-D00-0
 62
     7
370
    50
100
AcDbLine
 10
317.938828
 20
394.765531
 30
0.0
 11
317.919875
 21
394.765531
 31
0.0
  0
LINE
  5
3B4
330
3A9
100
AcDbEntity
  8
LC-001-100-D00-0
 62
     7
370
    50
100
AcDbLine
 10
317.919875
 20
394.765531
 30
0.0
 11
317.919875
 21
394.765531
 31
0.0
  0
LINE
  5
3B5
330
3A9
100
AcDbEntity
  8
LC-001-100-D00-0
 62
     7
370
    50
100
AcDbLine
 10
317.919875
 20
394.765531
 30
0.0
 11
317.910412
 21
394.765531
 31
0.0
  0
ENDBLK
  5
3AB
330
3A9
100
AcDbEntity
  8
0
100
AcDbBlockEnd
  0
BLOCK
  5
499
330
498
100
AcDbEntity
  8
0
100
AcDbBlockBegin
  2
POLY27
 70
     0
 71
     0
 10
0.0
 20
0.0
 30
0.0
  3
POLY27
  1

  4
POLY27
  0
LINE
  5
49B
330
498
100
AcDbEntity
  8
LC-001-100-D00-0
 62
     7
370
    50
100
AcDbLine
 10
338.278712
 20
337.865529
 30
0.0
 11
338.278712
 21
337.865529
 31
0.0
  0
LINE
  5
49C
330
498
100
AcDbEntity
  8
LC-001-100-D00-0
 62
     7
370
    50
100
AcDbLine
 10
338.278712
 20
337.865529
 30
0.0
 11
338.27892
 21
337.90238
 31
0.0
  0
LINE
  5
49D
330
498
100
AcDbEntity
  8
LC-001-100-D00-0
 62
     7
370
    50
100
AcDbLine
 10
338.27892
 20
337.90238
 30
0.0
 11
338.27892
 21
337.90238
 31
0.0
  0
LINE
  5
49E
330
498
100
AcDbEntity
  8
LC-001-100-D00-0
 62
     7
370
    50
100
AcDbLine
 10
338.27892
 20
337.90238
 30
0.0
 11
338.285447
 21
339.058019
 31
0.0
  0
LINE
  5
49F
330
498
100
AcDbEntity
  8
LC-001-100-D00-0
 62
     7
370
    50
100
AcDbLine
 10
338.285447
 20
339.058019
 30
0.0
 11
338.285447
 21
339.058019
 31
0.0
  0
LINE
  5
4A0
330
498
100
AcDbEntity
  8
LC-001-100-D00-0
 62
     7
370
    50
100
AcDbLine
 10
338.285447
 20
339.058019
 30
0.0
 11
338.09383
 21
341.3456
 31
0.0
  0
LINE
  5
4A1
330
498
100
AcDbEntity
  8
LC-001-100-D00-0
 62
     7
370
    50
100
AcDbLine
 10
338.09383
 20
341.3456
 30
0.0
 11
338.09383
 21
341.3456
 31
0.0
  0
LINE
  5
4A2
330
498
100
AcDbEntity
  8
LC-001-100-D00-0
 62
     7
370
    50
100
AcDbLine
 10
338.09383
 20
341.3456
 30
0.0
 11
337.270753
 21
344.320228
 31
0.0
  0
LINE
  5
4A3
330
498
100
AcDbEntity
  8
LC-001-100-D00-0
 62
     7
370
    50
100
AcDbLine
 10
337.270753
 20
344.320228
 30
0.0
 11
337.270753
 21
344.320228
 31
0.0
  0
LINE
  5
4A4
330
498
100
AcDbEntity
  8
LC-001-100-D00-0
 62
     7
370
    50
100
AcDbLine
 10
337.270753
 20
344.320228
 30
0.0
 11
335.99732
 21
346.554741
 31
0.0
  0
LINE
  5
4A5
330
498
100
AcDbEntity
  8
LC-001-100-D00-0
 62
     7
370
    50
100
AcDbLine
 10
335.99732
 20
346.554741
 30
0.0
 11
335.99732
 21
346.554741
 31
0.0
  0
LINE
  5
4A6
330
498
100
AcDbEntity
  8
LC-001-100-D00-0
 62
     7
370
    50
100
AcDbLine
 10
335.99732
 20
346.554741
 30
0.0
 11
334.612295
 21
347.70717
 31
0.0
  0
LINE
  5
4A7
330
498
100
AcDbEntity
  8
LC-001-100-D00-0
 62
     7
370
    50
100
AcDbLine
 10
334.612295
 20
347.70717
 30
0.0
 11
334.612295
 21
347.70717
 31
0.0
  0
LINE
  5
4A8
330
498
100
AcDbEntity
  8
LC-001-100-D00-0
 62
     7
370
    50
100
AcDbLine
 10
334.612295
 20
347.70717
 30
0.0
 11
333.701514
 21
347.821508
 31
0.0
  0
LINE
  5
4A9
330
498
100
AcDbEntity
  8
LC-001-100-D00-0
 62
     7
370
    50
100
AcDbLine
 10
333.701514
 20
347.821508
 30
0.0
 11
333.701514
 21
347.821508
 31
0.0
  0
LINE
  5
4AA
330
498
100
AcDbEntity
  8
LC-001-100-D00-0
 62
     7
370
    50
100
AcDbLine
 10
333.701514
 20
347.821508
 30
0.0
 11
333.35084
 21
347.865531
 31
0.0
  0
ENDBLK
  5
49A
330
498
100
AcDbEntity
  8
0
100
AcDbBlockEnd
  0
BLOCK
  5
4AE
330
4AD
100
AcDbEntity
  8
0
100
AcDbBlockBegin
  2
POLY28
 70
     0
 71
     0
 10
0.0
 20
0.0
 30
0.0
  3
POLY28
  1

  4
POLY28
  0
LINE
  5
4B0
330
4AD
100
AcDbEntity
  8
LC-001-100-D00-0
 62
     7
370
    50
100
AcDbLine
 10
332.391889
 20
349.965529
 30
0.0
 11
332.391889
 21
349.965529
 31
0.0
  0
LINE
  5
4B1
330
4AD
100
AcDbEntity
  8
LC-001-100-D00-0
 62
     7
370
    50
100
AcDbLine
 10
332.391889
 20
349.965529
 30
0.0
 11
332.362557
 21
349.965529
 31
0.0
  0
LINE
  5
4B2
330
4AD
100
AcDbEntity
  8
LC-001-100-D00-0
 62
     7
370
    50
100
AcDbLine
 10
332.362557
 20
349.965529
 30
0.0
 11
332.362557
 21
349.965529
 31
0.0
  0
LINE
  5
4B3
330
4AD
100
AcDbEntity
  8
LC-001-100-D00-0
 62
     7
370
    50
100
AcDbLine
 10
332.362557
 20
349.965529
 30
0.0
 11
332.317476
 21
349.965529
 31
0.0
  0
LINE
  5
4B4
330
4AD
100
AcDbEntity
  8
LC-001-100-D00-0
 62
     7
370
    50
100
AcDbLine
 10
332.317476
 20
349.965529
 30
0.0
 11
332.317476
 21
349.965529
 31
0.0
  0
LINE
  5
4B5
330
4AD
100
AcDbEntity
  8
LC-001-100-D00-0
 62
     7
370
    50
100
AcDbLine
 10
332.317476
 20
349.965529
 30
0.0
 11
332.262834
 21
349.965529
 31
0.0
  0
LINE
  5
4B6
330
4AD
100
AcDbEntity
  8
LC-001-100-D00-0
 62
     7
370
    50
100
AcDbLine
 10
332.262834
 20
349.965529
 30
0.0
 11
332.262834
 21
349.965529
 31
0.0
  0
LINE
  5
4B7
330
4AD
100
AcDbEntity
  8
LC-001-100-D00-0
 62
     7
370
    50
100
AcDbLine
 10
332.262834
 20
349.965529
 30
0.0
 11
332.243746
 21
349.965529
 31
0.0
  0
ENDBLK
  5
4AF
330
4AD
100
AcDbEntity
  8
0
100
AcDbBlockEnd
  0
BLOCK
  5
4BD
330
4BC
100
AcDbEntity
  8
0
100
AcDbBlockBegin
  2
POLY29
 70
     0
 71
     0
 10
0.0
 20
0.0
 30
0.0
  3
POLY29
  1

  4
POLY29
  0
LINE
  5
4BF
330
4BC
100
AcDbEntity
  8
LC-001-100-D00-0
 62
     7
370
    50
100
AcDbLine
 10
328.015458
 20
349.965529
 30
0.0
 11
328.015458
 21
349.965529
 31
0.0
  0
LINE
  5
4C0
330
4BC
100
AcDbEntity
  8
LC-001-100-D00-0
 62
     7
370
    50
100
AcDbLine
 10
328.015458
 20
349.965529
 30
0.0
 11
327.871056
 21
349.965529
 31
0.0
  0
LINE
  5
4C1
330
4BC
100
AcDbEntity
  8
LC-001-100-D00-0
 62
     7
370
    50
100
AcDbLine
 10
327.871056
 20
349.965529
 30
0.0
 11
327.871056
 21
349.965529
 31
0.0
  0
LINE
  5
4C2
330
4BC
100
AcDbEntity
  8
LC-001-100-D00-0
 62
     7
370
    50
100
AcDbLine
 10
327.871056
 20
349.965529
 30
0.0
 11
327.654345
 21
349.965529
 31
0.0
  0
LINE
  5
4C3
330
4BC
100
AcDbEntity
  8
LC-001-100-D00-0
 62
     7
370
    50
100
AcDbLine
 10
327.654345
 20
349.965529
 30
0.0
 11
327.654345
 21
349.965529
 31
0.0
  0
LINE
  5
4C4
330
4BC
100
AcDbEntity
  8
LC-001-100-D00-0
 62
     7
370
    50
100
AcDbLine
 10
327.654345
 20
349.965529
 30
0.0
 11
327.45558
 21
349.965529
 31
0.0
  0
LINE
  5
4C5
330
4BC
100
AcDbEntity
  8
LC-001-100-D00-0
 62
     7
370
    50
100
AcDbLine
 10
327.45558
 20
349.965529
 30
0.0
 11
327.45558
 21
349.965529
 31
0.0
  0
LINE
  5
4C6
330
4BC
100
AcDbEntity
  8
LC-001-100-D00-0
 62
     7
370
    50
100
AcDbLine
 10
327.45558
 20
349.965529
 30
0.0
 11
327.392202
 21
349.965529
 31
0.0
  0
LINE
  5
4C7
330
4BC
100
AcDbEntity
  8
LC-001-100-D00-0
 62
     7
370
    50
100
AcDbLine
 10
327.392202
 20
349.965529
 30
0.0
 11
327.392202
 21
349.965529
 31
0.0
  0
LINE
  5
4C8
330
4BC
100
AcDbEntity
  8
LC-001-100-D00-0
 62
     7
370
    50
100
AcDbLine
 10
327.392202
 20
349.965529
 30
0.0
 11
327.386788
 21
349.965529
 31
0.0
  0
LINE
  5
4C9
330
4BC
100
AcDbEntity
  8
LC-001-100-D00-0
 62
     7
370
    50
100
AcDbLine
 10
327.386788
 20
349.965529
 30
0.0
 11
327.386788
 21
349.965529
 31
0.0
  0
LINE
  5
4CA
330
4BC
100
AcDbEntity
  8
LC-001-100-D00-0
 62
     7
370
    50
100
AcDbLine
 10
327.386788
 20
349.965529
 30
0.0
 11
327.384079
 21
349.965529
 31
0.0
  0
ENDBLK
  5
4BE
330
4BC
100
AcDbEntity
  8
0
100
AcDbBlockEnd
  0
BLOCK
  5
4D0
330
4CF
100
AcDbEntity
  8
0
100
AcDbBlockBegin
  2
POLY30
 70
     0
 71
     0
 10
0.0
 20
0.0
 30
0.0
  3
POLY30
  1

  4
POLY30
  0
LINE
  5
4D2
330
4CF
100
AcDbEntity
  8
LC-001-100-D00-0
 62
     7
370
    50
100
AcDbLine
 10
322.764398
 20
349.965529
 30
0.0
 11
322.764398
 21
349.965529
 31
0.0
  0
LINE
  5
4D3
330
4CF
100
AcDbEntity
  8
LC-001-100-D00-0
 62
     7
370
    50
100
AcDbLine
 10
322.764398
 20
349.965529
 30
0.0
 11
322.71738
 21
349.965529
 31
0.0
  0
LINE
  5
4D4
330
4CF
100
AcDbEntity
  8
LC-001-100-D00-0
 62
     7
370
    50
100
AcDbLine
 10
322.71738
 20
349.965529
 30
0.0
 11
322.71738
 21
349.965529
 31
0.0
  0
LINE
  5
4D5
330
4CF
100
AcDbEntity
  8
LC-001-100-D00-0
 62
     7
370
    50
100
AcDbLine
 10
322.71738
 20
349.965529
 30
0.0
 11
322.623164
 21
349.965529
 31
0.0
  0
LINE
  5
4D6
330
4CF
100
AcDbEntity
  8
LC-001-100-D00-0
 62
     7
370
    50
100
AcDbLine
 10
322.623164
 20
349.965529
 30
0.0
 11
322.623164
 21
349.965529
 31
0.0
  0
LINE
  5
4D7
330
4CF
100
AcDbEntity
  8
LC-001-100-D00-0
 62
     7
370
    50
100
AcDbLine
 10
322.623164
 20
349.965529
 30
0.0
 11
322.307271
 21
349.965529
 31
0.0
  0
LINE
  5
4D8
330
4CF
100
AcDbEntity
  8
LC-001-100-D00-0
 62
     7
370
    50
100
AcDbLine
 10
322.307271
 20
349.965529
 30
0.0
 11
322.307271
 21
349.965529
 31
0.0
  0
LINE
  5
4D9
330
4CF
100
AcDbEntity
  8
LC-001-100-D00-0
 62
     7
370
    50
100
AcDbLine
 10
322.307271
 20
349.965529
 30
0.0
 11
322.060421
 21
349.965529
 31
0.0
  0
LINE
  5
4DA
330
4CF
100
AcDbEntity
  8
LC-001-100-D00-0
 62
     7
370
    50
100
AcDbLine
 10
322.060421
 20
349.965529
 30
0.0
 11
322.060421
 21
349.965529
 31
0.0
  0
LINE
  5
4DB
330
4CF
100
AcDbEntity
  8
LC-001-100-D00-0
 62
     7
370
    50
100
AcDbLine
 10
322.060421
 20
349.965529
 30
0.0
 11
321.909527
 21
349.965529
 31
0.0
  0
ENDBLK
  5
4D1
330
4CF
100
AcDbEntity
  8
0
100
AcDbBlockEnd
  0
BLOCK
  5
4E0
330
4DF
100
AcDbEntity
  8
0
100
AcDbBlockBegin
  2
POLY31
 70
     0
 71
     0
 10
0.0
 20
0.0
 30
0.0
  3
POLY31
  1

  4
POLY31
  0
LINE
  5
4E2
330
4DF
100
AcDbEntity
  8
LC-001-100-D00-0
 62
     7
370
    50
100
AcDbLine
 10
320.614255
 20
349.965529
 30
0.0
 11
320.614255
 21
349.965529
 31
0.0
  0
LINE
  5
4E3
330
4DF
100
AcDbEntity
  8
LC-001-100-D00-0
 62
     7
370
    50
100
AcDbLine
 10
320.614255
 20
349.965529
 30
0.0
 11
320.418827
 21
349.965529
 31
0.0
  0
LINE
  5
4E4
330
4DF
100
AcDbEntity
  8
LC-001-100-D00-0
 62
     7
370
    50
100
AcDbLine
 10
320.418827
 20
349.965529
 30
0.0
 11
320.418827
 21
349.965529
 31
0.0
  0
LINE
  5
4E5
330
4DF
100
AcDbEntity
  8
LC-001-100-D00-0
 62
     7
370
    50
100
AcDbLine
 10
320.418827
 20
349.965529
 30
0.0
 11
320.069673
 21
349.965529
 31
0.0
  0
LINE
  5
4E6
330
4DF
100
AcDbEntity
  8
LC-001-100-D00-0
 62
     7
370
    50
100
AcDbLine
 10
320.069673
 20
349.965529
 30
0.0
 11
320.069673
 21
349.965529
 31
0.0
  0
LINE
  5
4E7
330
4DF
100
AcDbEntity
  8
LC-001-100-D00-0
 62
     7
370
    50
100
AcDbLine
 10
320.069673
 20
349.965529
 30
0.0
 11
319.678202
 21
349.965529
 31
0.0
  0
LINE
  5
4E8
330
4DF
100
AcDbEntity
  8
LC-001-100-D00-0
 62
     7
370
    50
100
AcDbLine
 10
319.678202
 20
349.965529
 30
0.0
 11
319.678202
 21
349.965529
 31
0.0
  0
LINE
  5
4E9
330
4DF
100
AcDbEntity
  8
LC-001-100-D00-0
 62
     7
370
    50
100
AcDbLine
 10
319.678202
 20
349.965529
 30
0.0
 11
319.505844
 21
349.965529
 31
0.0
  0
ENDBLK
  5
4E1
330
4DF
100
AcDbEntity
  8
0
100
AcDbBlockEnd
  0
BLOCK
  5
4F0
330
4EF
100
AcDbEntity
  8
0
100
AcDbBlockBegin
  2
POLY32
 70
     0
 71
     0
 10
0.0
 20
0.0
 30
0.0
  3
POLY32
  1

  4
POLY32
  0
LINE
  5
4F2
330
4EF
100
AcDbEntity
  8
LC-001-100-D00-0
 62
     7
370
    50
100
AcDbLine
 10
312.912591
 20
349.965529
 30
0.0
 11
312.912591
 21
349.965529
 31
0.0
  0
LINE
  5
4F3
330
4EF
100
AcDbEntity
  8
LC-001-100-D00-0
 62
     7
370
    50
100
AcDbLine
 10
312.912591
 20
349.965529
 30
0.0
 11
312.865573
 21
349.965529
 31
0.0
  0
LINE
  5
4F4
330
4EF
100
AcDbEntity
  8
LC-001-100-D00-0
 62
     7
370
    50
100
AcDbLine
 10
312.865573
 20
349.965529
 30
0.0
 11
312.865573
 21
349.965529
 31
0.0
  0
LINE
  5
4F5
330
4EF
100
AcDbEntity
  8
LC-001-100-D00-0
 62
     7
370
    50
100
AcDbLine
 10
312.865573
 20
349.965529
 30
0.0
 11
312.771357
 21
349.965529
 31
0.0
  0
LINE
  5
4F6
330
4EF
100
AcDbEntity
  8
LC-001-100-D00-0
 62
     7
370
    50
100
AcDbLine
 10
312.771357
 20
349.965529
 30
0.0
 11
312.771357
 21
349.965529
 31
0.0
  0
LINE
  5
4F7
330
4EF
100
AcDbEntity
  8
LC-001-100-D00-0
 62
     7
370
    50
100
AcDbLine
 10
312.771357
 20
349.965529
 30
0.0
 11
312.455464
 21
349.965529
 31
0.0
  0
LINE
  5
4F8
330
4EF
100
AcDbEntity
  8
LC-001-100-D00-0
 62
     7
370
    50
100
AcDbLine
 10
312.455464
 20
349.965529
 30
0.0
 11
312.455464
 21
349.965529
 31
0.0
  0
LINE
  5
4F9
330
4EF
100
AcDbEntity
  8
LC-001-100-D00-0
 62
     7
370
    50
100
AcDbLine
 10
312.455464
 20
349.965529
 30
0.0
 11
312.208614
 21
349.965529
 31
0.0
  0
LINE
  5
4FA
330
4EF
100
AcDbEntity
  8
LC-001-100-D00-0
 62
     7
370
    50
100
AcDbLine
 10
312.208614
 20
349.965529
 30
0.0
 11
312.208614
 21
349.965529
 31
0.0
  0
LINE
  5
4FB
330
4EF
100
AcDbEntity
  8
LC-001-100-D00-0
 62
     7
370
    50
100
AcDbLine
 10
312.208614
 20
349.965529
 30
0.0
 11
312.05772
 21
349.965529
 31
0.0
  0
ENDBLK
  5
4F1
330
4EF
100
AcDbEntity
  8
0
100
AcDbBlockEnd
  0
BLOCK
  5
502
330
501
100
AcDbEntity
  8
0
100
AcDbBlockBegin
  2
POLY33
 70
     0
 71
     0
 10
0.0
 20
0.0
 30
0.0
  3
POLY33
  1

  4
POLY33
  0
LINE
  5
504
330
501
100
AcDbEntity
  8
LC-001-100-D00-0
 62
     7
370
    50
100
AcDbLine
 10
310.420005
 20
349.965529
 30
0.0
 11
310.420005
 21
349.965529
 31
0.0
  0
LINE
  5
505
330
501
100
AcDbEntity
  8
LC-001-100-D00-0
 62
     7
370
    50
100
AcDbLine
 10
310.420005
 20
349.965529
 30
0.0
 11
310.38343
 21
349.965529
 31
0.0
  0
LINE
  5
506
330
501
100
AcDbEntity
  8
LC-001-100-D00-0
 62
     7
370
    50
100
AcDbLine
 10
310.38343
 20
349.965529
 30
0.0
 11
310.38343
 21
349.965529
 31
0.0
  0
LINE
  5
507
330
501
100
AcDbEntity
  8
LC-001-100-D00-0
 62
     7
370
    50
100
AcDbLine
 10
310.38343
 20
349.965529
 30
0.0
 11
310.310295
 21
349.965529
 31
0.0
  0
LINE
  5
508
330
501
100
AcDbEntity
  8
LC-001-100-D00-0
 62
     7
370
    50
100
AcDbLine
 10
310.310295
 20
349.965529
 30
0.0
 11
310.310295
 21
349.965529
 31
0.0
  0
LINE
  5
509
330
501
100
AcDbEntity
  8
LC-001-100-D00-0
 62
     7
370
    50
100
AcDbLine
 10
310.310295
 20
349.965529
 30
0.0
 11
310.127966
 21
349.965529
 31
0.0
  0
LINE
  5
50A
330
501
100
AcDbEntity
  8
LC-001-100-D00-0
 62
     7
370
    50
100
AcDbLine
 10
310.127966
 20
349.965529
 30
0.0
 11
310.127966
 21
349.965529
 31
0.0
  0
LINE
  5
50B
330
501
100
AcDbEntity
  8
LC-001-100-D00-0
 62
     7
370
    50
100
AcDbLine
 10
310.127966
 20
349.965529
 30
0.0
 11
309.980652
 21
349.965529
 31
0.0
  0
LINE
  5
50C
330
501
100
AcDbEntity
  8
LC-001-100-D00-0
 62
     7
370
    50
100
AcDbLine
 10
309.980652
 20
349.965529
 30
0.0
 11
309.980652
 21
349.965529
 31
0.0
  0
LINE
  5
50D
330
501
100
AcDbEntity
  8
LC-001-100-D00-0
 62
     7
370
    50
100
AcDbLine
 10
309.980652
 20
349.965529
 30
0.0
 11
309.890701
 21
349.965529
 31
0.0
  0
ENDBLK
  5
503
330
501
100
AcDbEntity
  8
0
100
AcDbBlockEnd
  0
BLOCK
  5
533
330
532
100
AcDbEntity
  8
0
100
AcDbBlockBegin
  2
POLY34
 70
     0
 71
     0
 10
0.0
 20
0.0
 30
0.0
  3
POLY34
  1

  4
POLY34
  0
LINE
  5
535
330
532
100
AcDbEntity
  8
LC-001-100-D00-0
 62
     7
370
    50
100
AcDbLine
 10
325.179606
 20
349.965529
 30
0.0
 11
325.179606
 21
349.965529
 31
0.0
  0
LINE
  5
536
330
532
100
AcDbEntity
  8
LC-001-100-D00-0
 62
     7
370
    50
100
AcDbLine
 10
325.179606
 20
349.965529
 30
0.0
 11
325.103542
 21
349.965529
 31
0.0
  0
LINE
  5
537
330
532
100
AcDbEntity
  8
LC-001-100-D00-0
 62
     7
370
    50
100
AcDbLine
 10
325.103542
 20
349.965529
 30
0.0
 11
325.103542
 21
349.965529
 31
0.0
  0
LINE
  5
538
330
532
100
AcDbEntity
  8
LC-001-100-D00-0
 62
     7
370
    50
100
AcDbLine
 10
325.103542
 20
349.965529
 30
0.0
 11
324.952092
 21
349.965529
 31
0.0
  0
LINE
  5
539
330
532
100
AcDbEntity
  8
LC-001-100-D00-0
 62
     7
370
    50
100
AcDbLine
 10
324.952092
 20
349.965529
 30
0.0
 11
324.952092
 21
349.965529
 31
0.0
  0
LINE
  5
53A
330
532
100
AcDbEntity
  8
LC-001-100-D00-0
 62
     7
370
    50
100
AcDbLine
 10
324.952092
 20
349.965529
 30
0.0
 11
324.767472
 21
349.965529
 31
0.0
  0
LINE
  5
53B
330
532
100
AcDbEntity
  8
LC-001-100-D00-0
 62
     7
370
    50
100
AcDbLine
 10
324.767472
 20
349.965529
 30
0.0
 11
324.767472
 21
349.965529
 31
0.0
  0
LINE
  5
53C
330
532
100
AcDbEntity
  8
LC-001-100-D00-0
 62
     7
370
    50
100
AcDbLine
 10
324.767472
 20
349.965529
 30
0.0
 11
324.708508
 21
349.965529
 31
0.0
  0
LINE
  5
53D
330
532
100
AcDbEntity
  8
LC-001-100-D00-0
 62
     7
370
    50
100
AcDbLine
 10
324.708508
 20
349.965529
 30
0.0
 11
324.708508
 21
349.965529
 31
0.0
  0
LINE
  5
53E
330
532
100
AcDbEntity
  8
LC-001-100-D00-0
 62
     7
370
    50
100
AcDbLine
 10
324.708508
 20
349.965529
 30
0.0
 11
324.705104
 21
349.965529
 31
0.0
  0
LINE
  5
53F
330
532
100
AcDbEntity
  8
LC-001-100-D00-0
 62
     7
370
    50
100
AcDbLine
 10
324.705104
 20
349.965529
 30
0.0
 11
324.705104
 21
349.965529
 31
0.0
  0
LINE
  5
540
330
532
100
AcDbEntity
  8
LC-001-100-D00-0
 62
     7
370
    50
100
AcDbLine
 10
324.705104
 20
349.965529
 30
0.0
 11
324.703397
 21
349.965529
 31
0.0
  0
ENDBLK
  5
534
330
532
100
AcDbEntity
  8
0
100
AcDbBlockEnd
  0
BLOCK
  5
544
330
543
100
AcDbEntity
  8
0
100
AcDbBlockBegin
  2
POLY35
 70
     0
 71
     0
 10
0.0
 20
0.0
 30
0.0
  3
POLY35
  1

  4
POLY35
  0
LINE
  5
546
330
543
100
AcDbEntity
  8
LC-001-100-D00-0
 62
     7
370
    50
100
AcDbLine
 10
323.53901
 20
349.965529
 30
0.0
 11
323.53901
 21
349.965529
 31
0.0
  0
LINE
  5
547
330
543
100
AcDbEntity
  8
LC-001-100-D00-0
 62
     7
370
    50
100
AcDbLine
 10
323.53901
 20
349.965529
 30
0.0
 11
323.521394
 21
349.965529
 31
0.0
  0
LINE
  5
548
330
543
100
AcDbEntity
  8
LC-001-100-D00-0
 62
     7
370
    50
100
AcDbLine
 10
323.521394
 20
349.965529
 30
0.0
 11
323.521394
 21
349.965529
 31
0.0
  0
LINE
  5
549
330
543
100
AcDbEntity
  8
LC-001-100-D00-0
 62
     7
370
    50
100
AcDbLine
 10
323.521394
 20
349.965529
 30
0.0
 11
323.489923
 21
349.965529
 31
0.0
  0
LINE
  5
54A
330
543
100
AcDbEntity
  8
LC-001-100-D00-0
 62
     7
370
    50
100
AcDbLine
 10
323.489923
 20
349.965529
 30
0.0
 11
323.489923
 21
349.965529
 31
0.0
  0
LINE
  5
54B
330
543
100
AcDbEntity
  8
LC-001-100-D00-0
 62
     7
370
    50
100
AcDbLine
 10
323.489923
 20
349.965529
 30
0.0
 11
323.486854
 21
349.965529
 31
0.0
  0
LINE
  5
54C
330
543
100
AcDbEntity
  8
LC-001-100-D00-0
 62
     7
370
    50
100
AcDbLine
 10
323.486854
 20
349.965529
 30
0.0
 11
323.486854
 21
349.965529
 31
0.0
  0
LINE
  5
54D
330
543
100
AcDbEntity
  8
LC-001-100-D00-0
 62
     7
370
    50
100
AcDbLine
 10
323.486854
 20
349.965529
 30
0.0
 11
323.485503
 21
349.965529
 31
0.0
  0
ENDBLK
  5
545
330
543
100
AcDbEntity
  8
0
100
AcDbBlockEnd
  0
BLOCK
  5
551
330
550
100
AcDbEntity
  8
0
100
AcDbBlockBegin
  2
POLY36
 70
     0
 71
     0
 10
0.0
 20
0.0
 30
0.0
  3
POLY36
  1

  4
POLY36
  0
LINE
  5
553
330
550
100
AcDbEntity
  8
LC-001-100-D00-0
 62
     7
370
    50
100
AcDbLine
 10
315.979757
 20
349.965529
 30
0.0
 11
315.979757
 21
349.965529
 31
0.0
  0
LINE
  5
554
330
550
100
AcDbEntity
  8
LC-001-100-D00-0
 62
     7
370
    50
100
AcDbLine
 10
315.979757
 20
349.965529
 30
0.0
 11
315.905386
 21
349.965529
 31
0.0
  0
LINE
  5
555
330
550
100
AcDbEntity
  8
LC-001-100-D00-0
 62
     7
370
    50
100
AcDbLine
 10
315.905386
 20
349.965529
 30
0.0
 11
315.905386
 21
349.965529
 31
0.0
  0
LINE
  5
556
330
550
100
AcDbEntity
  8
LC-001-100-D00-0
 62
     7
370
    50
100
AcDbLine
 10
315.905386
 20
349.965529
 30
0.0
 11
315.75714
 21
349.965529
 31
0.0
  0
LINE
  5
557
330
550
100
AcDbEntity
  8
LC-001-100-D00-0
 62
     7
370
    50
100
AcDbLine
 10
315.75714
 20
349.965529
 30
0.0
 11
315.75714
 21
349.965529
 31
0.0
  0
LINE
  5
558
330
550
100
AcDbEntity
  8
LC-001-100-D00-0
 62
     7
370
    50
100
AcDbLine
 10
315.75714
 20
349.965529
 30
0.0
 11
315.562852
 21
349.965529
 31
0.0
  0
LINE
  5
559
330
550
100
AcDbEntity
  8
LC-001-100-D00-0
 62
     7
370
    50
100
AcDbLine
 10
315.562852
 20
349.965529
 30
0.0
 11
315.562852
 21
349.965529
 31
0.0
  0
LINE
  5
55A
330
550
100
AcDbEntity
  8
LC-001-100-D00-0
 62
     7
370
    50
100
AcDbLine
 10
315.562852
 20
349.965529
 30
0.0
 11
315.484986
 21
349.965529
 31
0.0
  0
LINE
  5
55B
330
550
100
AcDbEntity
  8
LC-001-100-D00-0
 62
     7
370
    50
100
AcDbLine
 10
315.484986
 20
349.965529
 30
0.0
 11
315.484986
 21
349.965529
 31
0.0
  0
LINE
  5
55C
330
550
100
AcDbEntity
  8
LC-001-100-D00-0
 62
     7
370
    50
100
AcDbLine
 10
315.484986
 20
349.965529
 30
0.0
 11
315.480079
 21
349.965529
 31
0.0
  0
LINE
  5
55D
330
550
100
AcDbEntity
  8
LC-001-100-D00-0
 62
     7
370
    50
100
AcDbLine
 10
315.480079
 20
349.965529
 30
0.0
 11
315.480079
 21
349.965529
 31
0.0
  0
LINE
  5
55E
330
550
100
AcDbEntity
  8
LC-001-100-D00-0
 62
     7
370
    50
100
AcDbLine
 10
315.480079
 20
349.965529
 30
0.0
 11
315.477618
 21
349.965529
 31
0.0
  0
ENDBLK
  5
552
330
550
100
AcDbEntity
  8
0
100
AcDbBlockEnd
  0
BLOCK
  5
562
330
561
100
AcDbEntity
  8
0
100
AcDbBlockBegin
  2
POLY37
 70
     0
 71
     0
 10
0.0
 20
0.0
 30
0.0
  3
POLY37
  1

  4
POLY37
  0
LINE
  5
564
330
561
100
AcDbEntity
  8
LC-001-100-D00-0
 62
     7
370
    50
100
AcDbLine
 10
326.309007
 20
349.965529
 30
0.0
 11
326.309007
 21
349.965529
 31
0.0
  0
LINE
  5
565
330
561
100
AcDbEntity
  8
LC-001-100-D00-0
 62
     7
370
    50
100
AcDbLine
 10
326.309007
 20
349.965529
 30
0.0
 11
326.240944
 21
349.965529
 31
0.0
  0
LINE
  5
566
330
561
100
AcDbEntity
  8
LC-001-100-D00-0
 62
     7
370
    50
100
AcDbLine
 10
326.240944
 20
349.965529
 30
0.0
 11
326.240944
 21
349.965529
 31
0.0
  0
LINE
  5
567
330
561
100
AcDbEntity
  8
LC-001-100-D00-0
 62
     7
370
    50
100
AcDbLine
 10
326.240944
 20
349.965529
 30
0.0
 11
326.105122
 21
349.965529
 31
0.0
  0
LINE
  5
568
330
561
100
AcDbEntity
  8
LC-001-100-D00-0
 62
     7
370
    50
100
AcDbLine
 10
326.105122
 20
349.965529
 30
0.0
 11
326.105122
 21
349.965529
 31
0.0
  0
LINE
  5
569
330
561
100
AcDbEntity
  8
LC-001-100-D00-0
 62
     7
370
    50
100
AcDbLine
 10
326.105122
 20
349.965529
 30
0.0
 11
325.931374
 21
349.965529
 31
0.0
  0
LINE
  5
56A
330
561
100
AcDbEntity
  8
LC-001-100-D00-0
 62
     7
370
    50
100
AcDbLine
 10
325.931374
 20
349.965529
 30
0.0
 11
325.931374
 21
349.965529
 31
0.0
  0
LINE
  5
56B
330
561
100
AcDbEntity
  8
LC-001-100-D00-0
 62
     7
370
    50
100
AcDbLine
 10
325.931374
 20
349.965529
 30
0.0
 11
325.844876
 21
349.965529
 31
0.0
  0
LINE
  5
56C
330
561
100
AcDbEntity
  8
LC-001-100-D00-0
 62
     7
370
    50
100
AcDbLine
 10
325.844876
 20
349.965529
 30
0.0
 11
325.844876
 21
349.965529
 31
0.0
  0
LINE
  5
56D
330
561
100
AcDbEntity
  8
LC-001-100-D00-0
 62
     7
370
    50
100
AcDbLine
 10
325.844876
 20
349.965529
 30
0.0
 11
325.839024
 21
349.965529
 31
0.0
  0
LINE
  5
56E
330
561
100
AcDbEntity
  8
LC-001-100-D00-0
 62
     7
370
    50
100
AcDbLine
 10
325.839024
 20
349.965529
 30
0.0
 11
325.839024
 21
349.965529
 31
0.0
  0
LINE
  5
56F
330
561
100
AcDbEntity
  8
LC-001-100-D00-0
 62
     7
370
    50
100
AcDbLine
 10
325.839024
 20
349.965529
 30
0.0
 11
325.836091
 21
349.965529
 31
0.0
  0
ENDBLK
  5
563
330
561
100
AcDbEntity
  8
0
100
AcDbBlockEnd
  0
BLOCK
  5
572
330
571
100
AcDbEntity
  8
0
100
AcDbBlockBegin
  2
POLY38
 70
     0
 71
     0
 10
0.0
 20
0.0
 30
0.0
  3
POLY38
  1

  4
POLY38
  0
LINE
  5
574
330
571
100
AcDbEntity
  8
LC-001-100-D00-0
 62
     7
370
    50
100
AcDbLine
 10
316.373236
 20
349.965529
 30
0.0
 11
316.373236
 21
349.965529
 31
0.0
  0
LINE
  5
575
330
571
100
AcDbEntity
  8
LC-001-100-D00-0
 62
     7
370
    50
100
AcDbLine
 10
316.373236
 20
349.965529
 30
0.0
 11
316.373168
 21
349.965529
 31
0.0
  0
LINE
  5
576
330
571
100
AcDbEntity
  8
LC-001-100-D00-0
 62
     7
370
    50
100
AcDbLine
 10
316.373168
 20
349.965529
 30
0.0
 11
316.373168
 21
349.965529
 31
0.0
  0
LINE
  5
577
330
571
100
AcDbEntity
  8
LC-001-100-D00-0
 62
     7
370
    50
100
AcDbLine
 10
316.373168
 20
349.965529
 30
0.0
 11
316.373035
 21
349.965529
 31
0.0
  0
LINE
  5
578
330
571
100
AcDbEntity
  8
LC-001-100-D00-0
 62
     7
370
    50
100
AcDbLine
 10
316.373035
 20
349.965529
 30
0.0
 11
316.373035
 21
349.965529
 31
0.0
  0
LINE
  5
579
330
571
100
AcDbEntity
  8
LC-001-100-D00-0
 62
     7
370
    50
100
AcDbLine
 10
316.373035
 20
349.965529
 30
0.0
 11
316.26885
 21
349.965529
 31
0.0
  0
LINE
  5
57A
330
571
100
AcDbEntity
  8
LC-001-100-D00-0
 62
     7
370
    50
100
AcDbLine
 10
316.26885
 20
349.965529
 30
0.0
 11
316.26885
 21
349.965529
 31
0.0
  0
LINE
  5
57B
330
571
100
AcDbEntity
  8
LC-001-100-D00-0
 62
     7
370
    50
100
AcDbLine
 10
316.26885
 20
349.965529
 30
0.0
 11
316.121418
 21
349.965529
 31
0.0
  0
LINE
  5
57C
330
571
100
AcDbEntity
  8
LC-001-100-D00-0
 62
     7
370
    50
100
AcDbLine
 10
316.121418
 20
349.965529
 30
0.0
 11
316.121418
 21
349.965529
 31
0.0
  0
LINE
  5
57D
330
571
100
AcDbEntity
  8
LC-001-100-D00-0
 62
     7
370
    50
100
AcDbLine
 10
316.121418
 20
349.965529
 30
0.0
 11
316.027018
 21
349.965529
 31
0.0
  0
LINE
  5
57E
330
571
100
AcDbEntity
  8
LC-001-100-D00-0
 62
     7
370
    50
100
AcDbLine
 10
316.027018
 20
349.965529
 30
0.0
 11
316.027018
 21
349.965529
 31
0.0
  0
LINE
  5
57F
330
571
100
AcDbEntity
  8
LC-001-100-D00-0
 62
     7
370
    50
100
AcDbLine
 10
316.027018
 20
349.965529
 30
0.0
 11
315.979757
 21
349.965529
 31
0.0
  0
ENDBLK
  5
573
330
571
100
AcDbEntity
  8
0
100
AcDbBlockEnd
  0
BLOCK
  5
582
330
581
100
AcDbEntity
  8
0
100
AcDbBlockBegin
  2
POLY39
 70
     0
 71
     0
 10
0.0
 20
0.0
 30
0.0
  3
POLY39
  1

  4
POLY39
  0
LINE
  5
584
330
581
100
AcDbEntity
  8
LC-001-100-D00-0
 62
     7
370
    50
100
AcDbLine
 10
326.652685
 20
349.965529
 30
0.0
 11
326.652685
 21
349.965529
 31
0.0
  0
LINE
  5
585
330
581
100
AcDbEntity
  8
LC-001-100-D00-0
 62
     7
370
    50
100
AcDbLine
 10
326.652685
 20
349.965529
 30
0.0
 11
326.653422
 21
349.965529
 31
0.0
  0
LINE
  5
586
330
581
100
AcDbEntity
  8
LC-001-100-D00-0
 62
     7
370
    50
100
AcDbLine
 10
326.653422
 20
349.965529
 30
0.0
 11
326.653422
 21
349.965529
 31
0.0
  0
LINE
  5
587
330
581
100
AcDbEntity
  8
LC-001-100-D00-0
 62
     7
370
    50
100
AcDbLine
 10
326.653422
 20
349.965529
 30
0.0
 11
326.654879
 21
349.965529
 31
0.0
  0
LINE
  5
588
330
581
100
AcDbEntity
  8
LC-001-100-D00-0
 62
     7
370
    50
100
AcDbLine
 10
326.654879
 20
349.965529
 30
0.0
 11
326.654879
 21
349.965529
 31
0.0
  0
LINE
  5
589
330
581
100
AcDbEntity
  8
LC-001-100-D00-0
 62
     7
370
    50
100
AcDbLine
 10
326.654879
 20
349.965529
 30
0.0
 11
326.569257
 21
349.965529
 31
0.0
  0
LINE
  5
58A
330
581
100
AcDbEntity
  8
LC-001-100-D00-0
 62
     7
370
    50
100
AcDbLine
 10
326.569257
 20
349.965529
 30
0.0
 11
326.569257
 21
349.965529
 31
0.0
  0
LINE
  5
58B
330
581
100
AcDbEntity
  8
LC-001-100-D00-0
 62
     7
370
    50
100
AcDbLine
 10
326.569257
 20
349.965529
 30
0.0
 11
326.436338
 21
349.965529
 31
0.0
  0
LINE
  5
58C
330
581
100
AcDbEntity
  8
LC-001-100-D00-0
 62
     7
370
    50
100
AcDbLine
 10
326.436338
 20
349.965529
 30
0.0
 11
326.436338
 21
349.965529
 31
0.0
  0
LINE
  5
58D
330
581
100
AcDbEntity
  8
LC-001-100-D00-0
 62
     7
370
    50
100
AcDbLine
 10
326.436338
 20
349.965529
 30
0.0
 11
326.35149
 21
349.965529
 31
0.0
  0
LINE
  5
58E
330
581
100
AcDbEntity
  8
LC-001-100-D00-0
 62
     7
370
    50
100
AcDbLine
 10
326.35149
 20
349.965529
 30
0.0
 11
326.35149
 21
349.965529
 31
0.0
  0
LINE
  5
58F
330
581
100
AcDbEntity
  8
LC-001-100-D00-0
 62
     7
370
    50
100
AcDbLine
 10
326.35149
 20
349.965529
 30
0.0
 11
326.309007
 21
349.965529
 31
0.0
  0
ENDBLK
  5
583
330
581
100
AcDbEntity
  8
0
100
AcDbBlockEnd
  0
BLOCK
  5
592
330
591
100
AcDbEntity
  8
0
100
AcDbBlockBegin
  2
POLY40
 70
     0
 71
     0
 10
0.0
 20
0.0
 30
0.0
  3
POLY40
  1

  4
POLY40
  0
LINE
  5
594
330
591
100
AcDbEntity
  8
LC-001-100-D00-0
 62
     7
370
    50
100
AcDbLine
 10
325.51999
 20
349.965529
 30
0.0
 11
325.51999
 21
349.965529
 31
0.0
  0
LINE
  5
595
330
591
100
AcDbEntity
  8
LC-001-100-D00-0
 62
     7
370
    50
100
AcDbLine
 10
325.51999
 20
349.965529
 30
0.0
 11
325.517445
 21
349.965529
 31
0.0
  0
LINE
  5
596
330
591
100
AcDbEntity
  8
LC-001-100-D00-0
 62
     7
370
    50
100
AcDbLine
 10
325.517445
 20
349.965529
 30
0.0
 11
325.517445
 21
349.965529
 31
0.0
  0
LINE
  5
597
330
591
100
AcDbEntity
  8
LC-001-100-D00-0
 62
     7
370
    50
100
AcDbLine
 10
325.517445
 20
349.965529
 30
0.0
 11
325.512383
 21
349.965529
 31
0.0
  0
LINE
  5
598
330
591
100
AcDbEntity
  8
LC-001-100-D00-0
 62
     7
370
    50
100
AcDbLine
 10
325.512383
 20
349.965529
 30
0.0
 11
325.512383
 21
349.965529
 31
0.0
  0
LINE
  5
599
330
591
100
AcDbEntity
  8
LC-001-100-D00-0
 62
     7
370
    50
100
AcDbLine
 10
325.512383
 20
349.965529
 30
0.0
 11
325.427585
 21
349.965529
 31
0.0
  0
LINE
  5
59A
330
591
100
AcDbEntity
  8
LC-001-100-D00-0
 62
     7
370
    50
100
AcDbLine
 10
325.427585
 20
349.965529
 30
0.0
 11
325.427585
 21
349.965529
 31
0.0
  0
LINE
  5
59B
330
591
100
AcDbEntity
  8
LC-001-100-D00-0
 62
     7
370
    50
100
AcDbLine
 10
325.427585
 20
349.965529
 30
0.0
 11
325.300173
 21
349.965529
 31
0.0
  0
LINE
  5
59C
330
591
100
AcDbEntity
  8
LC-001-100-D00-0
 62
     7
370
    50
100
AcDbLine
 10
325.300173
 20
349.965529
 30
0.0
 11
325.300173
 21
349.965529
 31
0.0
  0
LINE
  5
59D
330
591
100
AcDbEntity
  8
LC-001-100-D00-0
 62
     7
370
    50
100
AcDbLine
 10
325.300173
 20
349.965529
 30
0.0
 11
325.219857
 21
349.965529
 31
0.0
  0
LINE
  5
59E
330
591
100
AcDbEntity
  8
LC-001-100-D00-0
 62
     7
370
    50
100
AcDbLine
 10
325.219857
 20
349.965529
 30
0.0
 11
325.219857
 21
349.965529
 31
0.0
  0
LINE
  5
59F
330
591
100
AcDbEntity
  8
LC-001-100-D00-0
 62
     7
370
    50
100
AcDbLine
 10
325.219857
 20
349.965529
 30
0.0
 11
325.179606
 21
349.965529
 31
0.0
  0
ENDBLK
  5
593
330
591
100
AcDbEntity
  8
0
100
AcDbBlockEnd
  0
BLOCK
  5
5A3
330
5A2
100
AcDbEntity
  8
0
100
AcDbBlockBegin
  2
POLY41
 70
     0
 71
     0
 10
0.0
 20
0.0
 30
0.0
  3
POLY41
  1

  4
POLY41
  0
LINE
  5
5A5
330
5A2
100
AcDbEntity
  8
LC-001-100-D00-0
 62
     7
370
    50
100
AcDbLine
 10
323.848114
 20
349.965529
 30
0.0
 11
323.848114
 21
349.965529
 31
0.0
  0
LINE
  5
5A6
330
5A2
100
AcDbEntity
  8
LC-001-100-D00-0
 62
     7
370
    50
100
AcDbLine
 10
323.848114
 20
349.965529
 30
0.0
 11
323.811911
 21
349.965529
 31
0.0
  0
LINE
  5
5A7
330
5A2
100
AcDbEntity
  8
LC-001-100-D00-0
 62
     7
370
    50
100
AcDbLine
 10
323.811911
 20
349.965529
 30
0.0
 11
323.811911
 21
349.965529
 31
0.0
  0
LINE
  5
5A8
330
5A2
100
AcDbEntity
  8
LC-001-100-D00-0
 62
     7
370
    50
100
AcDbLine
 10
323.811911
 20
349.965529
 30
0.0
 11
323.739546
 21
349.965529
 31
0.0
  0
LINE
  5
5A9
330
5A2
100
AcDbEntity
  8
LC-001-100-D00-0
 62
     7
370
    50
100
AcDbLine
 10
323.739546
 20
349.965529
 30
0.0
 11
323.739546
 21
349.965529
 31
0.0
  0
LINE
  5
5AA
330
5A2
100
AcDbEntity
  8
LC-001-100-D00-0
 62
     7
370
    50
100
AcDbLine
 10
323.739546
 20
349.965529
 30
0.0
 11
323.647204
 21
349.965529
 31
0.0
  0
LINE
  5
5AB
330
5A2
100
AcDbEntity
  8
LC-001-100-D00-0
 62
     7
370
    50
100
AcDbLine
 10
323.647204
 20
349.965529
 30
0.0
 11
323.647204
 21
349.965529
 31
0.0
  0
LINE
  5
5AC
330
5A2
100
AcDbEntity
  8
LC-001-100-D00-0
 62
     7
370
    50
100
AcDbLine
 10
323.647204
 20
349.965529
 30
0.0
 11
323.57656
 21
349.965529
 31
0.0
  0
LINE
  5
5AD
330
5A2
100
AcDbEntity
  8
LC-001-100-D00-0
 62
     7
370
    50
100
AcDbLine
 10
323.57656
 20
349.965529
 30
0.0
 11
323.57656
 21
349.965529
 31
0.0
  0
LINE
  5
5AE
330
5A2
100
AcDbEntity
  8
LC-001-100-D00-0
 62
     7
370
    50
100
AcDbLine
 10
323.57656
 20
349.965529
 30
0.0
 11
323.551528
 21
349.965529
 31
0.0
  0
LINE
  5
5AF
330
5A2
100
AcDbEntity
  8
LC-001-100-D00-0
 62
     7
370
    50
100
AcDbLine
 10
323.551528
 20
349.965529
 30
0.0
 11
323.551528
 21
349.965529
 31
0.0
  0
LINE
  5
5B0
330
5A2
100
AcDbEntity
  8
LC-001-100-D00-0
 62
     7
370
    50
100
AcDbLine
 10
323.551528
 20
349.965529
 30
0.0
 11
323.53901
 21
349.965529
 31
0.0
  0
ENDBLK
  5
5A4
330
5A2
100
AcDbEntity
  8
0
100
AcDbBlockEnd
  0
BLOCK
  5
5B4
330
5B3
100
AcDbEntity
  8
0
100
AcDbBlockBegin
  2
POLY42
 70
     0
 71
     0
 10
0.0
 20
0.0
 30
0.0
  3
POLY42
  1

  4
POLY42
  0
LINE
  5
5B6
330
5B3
100
AcDbEntity
  8
LC-001-100-D00-0
 62
     7
370
    50
100
AcDbLine
 10
324.083543
 20
349.965529
 30
0.0
 11
324.083543
 21
349.965529
 31
0.0
  0
LINE
  5
5B7
330
5B3
100
AcDbEntity
  8
LC-001-100-D00-0
 62
     7
370
    50
100
AcDbLine
 10
324.083543
 20
349.965529
 30
0.0
 11
324.041747
 21
349.965529
 31
0.0
  0
LINE
  5
5B8
330
5B3
100
AcDbEntity
  8
LC-001-100-D00-0
 62
     7
370
    50
100
AcDbLine
 10
324.041747
 20
349.965529
 30
0.0
 11
324.041747
 21
349.965529
 31
0.0
  0
LINE
  5
5B9
330
5B3
100
AcDbEntity
  8
LC-001-100-D00-0
 62
     7
370
    50
100
AcDbLine
 10
324.041747
 20
349.965529
 30
0.0
 11
323.967102
 21
349.965529
 31
0.0
  0
LINE
  5
5BA
330
5B3
100
AcDbEntity
  8
LC-001-100-D00-0
 62
     7
370
    50
100
AcDbLine
 10
323.967102
 20
349.965529
 30
0.0
 11
323.967102
 21
349.965529
 31
0.0
  0
LINE
  5
5BB
330
5B3
100
AcDbEntity
  8
LC-001-100-D00-0
 62
     7
370
    50
100
AcDbLine
 10
323.967102
 20
349.965529
 30
0.0
 11
323.884475
 21
349.965529
 31
0.0
  0
LINE
  5
5BC
330
5B3
100
AcDbEntity
  8
LC-001-100-D00-0
 62
     7
370
    50
100
AcDbLine
 10
323.884475
 20
349.965529
 30
0.0
 11
323.884475
 21
349.965529
 31
0.0
  0
LINE
  5
5BD
330
5B3
100
AcDbEntity
  8
LC-001-100-D00-0
 62
     7
370
    50
100
AcDbLine
 10
323.884475
 20
349.965529
 30
0.0
 11
323.848114
 21
349.965529
 31
0.0
  0
ENDBLK
  5
5B5
330
5B3
100
AcDbEntity
  8
0
100
AcDbBlockEnd
  0
BLOCK
  5
5D9
330
5D8
100
AcDbEntity
  8
0
100
AcDbBlockBegin
  2
KLON9
 70
     0
 71
     0
 10
0.0
 20
0.0
 30
0.0
  3
KLON9
  1

  4
KLON9
  0
LINE
  5
5DB
330
5D8
100
AcDbEntity
  8
LC-001-100-D00-0
 62
     7
370
    25
100
AcDbLine
 10
357.55013
 20
392.265531
 30
0.0
 11
358.993745
 21
393.709146
 31
0.0
  0
LINE
  5
5DC
330
5D8
100
AcDbEntity
  8
LC-001-100-D00-0
 62
     7
370
    25
100
AcDbLine
 10
360.05013
 20
394.765531
 30
0.0
 11
361.549508
 21
396.264909
 31
0.0
  0
ENDBLK
  5
5DA
330
5D8
100
AcDbEntity
  8
0
100
AcDbBlockEnd
  0
BLOCK
  5
5DF
330
5DE
100
AcDbEntity
  8
0
100
AcDbBlockBegin
  2
KLON10
 70
     0
 71
     0
 10
0.0
 20
0.0
 30
0.0
  3
KLON10
  1

  4
KLON10
  0
LINE
  5
5E1
330
5DE
100
AcDbEntity
  8
LC-001-100-D00-0
 62
     7
370
    25
100
AcDbLine
 10
285.708081
 20
392.265531
 30
0.0
 11
286.993745
 21
393.551195
 31
0.0
  0
LINE
  5
5E2
330
5DE
100
AcDbEntity
  8
LC-001-100-D00-0
 62
     7
370
    25
100
AcDbLine
 10
288.208081
 20
394.765531
 30
0.0
 11
289.626643
 21
396.184093
 31
0.0
  0
ENDBLK
  5
5E0
330
5DE
100
AcDbEntity
  8
0
100
AcDbBlockEnd
  0
BLOCK
  5
5E7
330
5E6
100
AcDbEntity
  8
0
100
AcDbBlockBegin
  2
KLON11
 70
     0
 71
     0
 10
0.0
 20
0.0
 30
0.0
  3
KLON11
  1

  4
KLON11
  0
LINE
  5
5E9
330
5E6
100
AcDbEntity
  8
LC-001-100-D00-0
 62
     7
370
    25
100
AcDbLine
 10
333.109362
 20
394.765531
 30
0.0
 11
334.609362
 21
396.265531
 31
0.0
  0
LINE
  5
5EA
330
5E6
100
AcDbEntity
  8
LC-001-100-D00-0
 62
     7
370
    25
100
AcDbLine
 10
324.129106
 20
394.765531
 30
0.0
 11
325.629106
 21
396.265531
 31
0.0
  0
LINE
  5
5EB
330
5E6
100
AcDbEntity
  8
LC-001-100-D00-0
 62
     7
370
    25
100
AcDbLine
 10
315.148849
 20
394.765531
 30
0.0
 11
316.548849
 21
396.165531
 31
0.0
  0
LINE
  5
5EC
330
5E6
100
AcDbEntity
  8
LC-001-100-D00-0
 62
     7
370
    25
100
AcDbLine
 10
306.168593
 20
394.765531
 30
0.0
 11
307.624414
 21
396.221352
 31
0.0
  0
ENDBLK
  5
5E8
330
5E6
100
AcDbEntity
  8
0
100
AcDbBlockEnd
  0
BLOCK
  5
5EF
330
5EE
100
AcDbEntity
  8
0
100
AcDbBlockBegin
  2
KLON12
 70
     0
 71
     0
 10
0.0
 20
0.0
 30
0.0
  3
KLON12
  1

  4
KLON12
  0
LINE
  5
5F1
330
5EE
100
AcDbEntity
  8
LC-001-100-D00-0
 62
     7
370
    25
100
AcDbLine
 10
396.392179
 20
359.265531
 30
0.0
 11
399.392179
 21
362.265531
 31
0.0
  0
LINE
  5
5F2
330
5EE
100
AcDbEntity
  8
LC-001-100-D00-0
 62
     7
370
    25
100
AcDbLine
 10
387.411923
 20
359.265531
 30
0.0
 11
390.411923
 21
362.265531
 31
0.0
  0
LINE
  5
5F3
330
5EE
100
AcDbEntity
  8
LC-001-100-D00-0
 62
     7
370
    25
100
AcDbLine
 10
378.431667
 20
359.265531
 30
0.0
 11
381.431667
 21
362.265531
 31
0.0
  0
LINE
  5
5F4
330
5EE
100
AcDbEntity
  8
LC-001-100-D00-0
 62
     7
370
    25
100
AcDbLine
 10
369.493746
 20
359.307866
 30
0.0
 11
372.451411
 21
362.265531
 31
0.0
  0
ENDBLK
  5
5F0
330
5EE
100
AcDbEntity
  8
0
100
AcDbBlockEnd
  0
BLOCK
  5
5F7
330
5F6
100
AcDbEntity
  8
0
100
AcDbBlockBegin
  2
KLON13
 70
     0
 71
     0
 10
0.0
 20
0.0
 30
0.0
  3
KLON13
  1

  4
KLON13
  0
LINE
  5
5F9
330
5F6
100
AcDbEntity
  8
LC-001-100-D00-0
 62
     7
370
    25
100
AcDbLine
 10
261.688337
 20
359.265531
 30
0.0
 11
264.688337
 21
362.265531
 31
0.0
  0
LINE
  5
5FA
330
5F6
100
AcDbEntity
  8
LC-001-100-D00-0
 62
     7
370
    25
100
AcDbLine
 10
252.708081
 20
359.265531
 30
0.0
 11
255.708081
 21
362.265531
 31
0.0
  0
LINE
  5
5FB
330
5F6
100
AcDbEntity
  8
LC-001-100-D00-0
 62
     7
370
    25
100
AcDbLine
 10
243.727825
 20
359.265531
 30
0.0
 11
246.727825
 21
362.265531
 31
0.0
  0
LINE
  5
5FC
330
5F6
100
AcDbEntity
  8
LC-001-100-D00-0
 62
     7
370
    25
100
AcDbLine
 10
234.993745
 20
359.511708
 30
0.0
 11
237.747569
 21
362.265531
 31
0.0
  0
ENDBLK
  5
5F8
330
5F6
100
AcDbEntity
  8
0
100
AcDbBlockEnd
  0
BLOCK
  5
5FF
330
5FE
100
AcDbEntity
  8
0
100
AcDbBlockBegin
  2
KLON14
 70
     0
 71
     0
 10
0.0
 20
0.0
 30
0.0
  3
KLON14
  1

  4
KLON14
  0
LINE
  5
601
330
5FE
100
AcDbEntity
  8
LC-001-100-D00-0
 62
     7
370
    25
100
AcDbLine
 10
365.993745
 20
364.788122
 30
0.0
 11
366.293745
 21
365.088122
 31
0.0
  0
LINE
  5
602
330
5FE
100
AcDbEntity
  8
LC-001-100-D00-0
 62
     7
370
    25
100
AcDbLine
 10
366.871154
 20
365.665531
 30
0.0
 11
367.493745
 21
366.288122
 31
0.0
  0
LINE
  5
603
330
5FE
100
AcDbEntity
  8
LC-001-100-D00-0
 62
     7
370
    25
100
AcDbLine
 10
365.993745
 20
373.768378
 30
0.0
 11
366.293745
 21
374.068378
 31
0.0
  0
LINE
  5
604
330
5FE
100
AcDbEntity
  8
LC-001-100-D00-0
 62
     7
370
    25
100
AcDbLine
 10
367.490898
 20
375.265531
 30
0.0
 11
367.493745
 21
375.268378
 31
0.0
  0
LINE
  5
605
330
5FE
100
AcDbEntity
  8
LC-001-100-D00-0
 62
     7
370
    25
100
AcDbLine
 10
365.993745
 20
382.748634
 30
0.0
 11
366.293745
 21
383.048634
 31
0.0
  0
LINE
  5
606
330
5FE
100
AcDbEntity
  8
LC-001-100-D00-0
 62
     7
370
    25
100
AcDbLine
 10
364.493745
 20
390.22889
 30
0.0
 11
365.993745
 21
391.72889
 31
0.0
  0
ENDBLK
  5
600
330
5FE
100
AcDbEntity
  8
0
100
AcDbBlockEnd
  0
BLOCK
  5
609
330
608
100
AcDbEntity
  8
0
100
AcDbBlockBegin
  2
KLON15
 70
     0
 71
     0
 10
0.0
 20
0.0
 30
0.0
  3
KLON15
  1

  4
KLON15
  0
LINE
  5
60B
330
608
100
AcDbEntity
  8
LC-001-100-D00-0
 62
     7
370
    25
100
AcDbLine
 10
270.668593
 20
359.265531
 30
0.0
 11
270.993745
 21
359.590683
 31
0.0
  0
LINE
  5
60C
330
608
100
AcDbEntity
  8
LC-001-100-D00-0
 62
     7
370
    25
100
AcDbLine
 10
270.693745
 20
368.270939
 30
0.0
 11
270.993745
 21
368.570939
 31
0.0
  0
LINE
  5
60D
330
608
100
AcDbEntity
  8
LC-001-100-D00-0
 62
     7
370
    25
100
AcDbLine
 10
269.493745
 20
376.051195
 30
0.0
 11
269.908081
 21
376.465531
 31
0.0
  0
LINE
  5
60E
330
608
100
AcDbEntity
  8
LC-001-100-D00-0
 62
     7
370
    25
100
AcDbLine
 10
270.693745
 20
377.251195
 30
0.0
 11
270.993745
 21
377.551195
 31
0.0
  0
LINE
  5
60F
330
608
100
AcDbEntity
  8
LC-001-100-D00-0
 62
     7
370
    25
100
AcDbLine
 10
269.493745
 20
385.031451
 30
0.0
 11
270.527825
 21
386.065531
 31
0.0
  0
LINE
  5
610
330
608
100
AcDbEntity
  8
LC-001-100-D00-0
 62
     7
370
    25
100
AcDbLine
 10
270.693745
 20
386.231451
 30
0.0
 11
270.993745
 21
386.531451
 31
0.0
  0
LINE
  5
611
330
608
100
AcDbEntity
  8
LC-001-100-D00-0
 62
     7
370
    25
100
AcDbLine
 10
270.993745
 20
395.511708
 30
0.0
 11
271.747569
 21
396.265531
 31
0.0
  0
ENDBLK
  5
60A
330
608
100
AcDbEntity
  8
0
100
AcDbBlockEnd
  0
BLOCK
  5
615
330
614
100
AcDbEntity
  8
0
100
AcDbBlockBegin
  2
KLON16
 70
     0
 71
     0
 10
0.0
 20
0.0
 30
0.0
  3
KLON16
  1

  4
KLON16
  0
LINE
  5
617
330
614
100
AcDbEntity
  8
LC-001-100-D00-0
 62
     7
370
    25
100
AcDbLine
 10
294.39346
 20
212.365531
 30
0.0
 11
296.493745
 21
214.465817
 31
0.0
  0
LINE
  5
618
330
614
100
AcDbEntity
  8
LC-001-100-D00-0
 62
     7
370
    25
100
AcDbLine
 10
293.493745
 20
220.446073
 30
0.0
 11
296.493745
 21
223.446073
 31
0.0
  0
LINE
  5
619
330
614
100
AcDbEntity
  8
LC-001-100-D00-0
 62
     7
370
    25
100
AcDbLine
 10
293.493745
 20
229.426329
 30
0.0
 11
296.493745
 21
232.426329
 31
0.0
  0
LINE
  5
61A
330
614
100
AcDbEntity
  8
LC-001-100-D00-0
 62
     7
370
    25
100
AcDbLine
 10
293.493745
 20
238.406585
 30
0.0
 11
296.493745
 21
241.406585
 31
0.0
  0
LINE
  5
61B
330
614
100
AcDbEntity
  8
LC-001-100-D00-0
 62
     7
370
    25
100
AcDbLine
 10
293.493745
 20
247.386841
 30
0.0
 11
296.493745
 21
250.386841
 31
0.0
  0
LINE
  5
61C
330
614
100
AcDbEntity
  8
LC-001-100-D00-0
 62
     7
370
    25
100
AcDbLine
 10
293.493745
 20
256.367097
 30
0.0
 11
296.493745
 21
259.367097
 31
0.0
  0
LINE
  5
61D
330
614
100
AcDbEntity
  8
LC-001-100-D00-0
 62
     7
370
    25
100
AcDbLine
 10
293.493745
 20
265.347353
 30
0.0
 11
296.493745
 21
268.347353
 31
0.0
  0
LINE
  5
61E
330
614
100
AcDbEntity
  8
LC-001-100-D00-0
 62
     7
370
    25
100
AcDbLine
 10
289.531667
 20
270.365531
 30
0.0
 11
292.531667
 21
273.365531
 31
0.0
  0
LINE
  5
61F
330
614
100
AcDbEntity
  8
LC-001-100-D00-0
 62
     7
370
    25
100
AcDbLine
 10
293.993745
 20
274.82761
 30
0.0
 11
296.493745
 21
277.32761
 31
0.0
  0
LINE
  5
620
330
614
100
AcDbEntity
  8
LC-001-100-D00-0
 62
     7
370
    25
100
AcDbLine
 10
280.551411
 20
270.365531
 30
0.0
 11
283.551411
 21
273.365531
 31
0.0
  0
LINE
  5
621
330
614
100
AcDbEntity
  8
LC-001-100-D00-0
 62
     7
370
    25
100
AcDbLine
 10
293.993745
 20
283.807866
 30
0.0
 11
296.493745
 21
286.307866
 31
0.0
  0
LINE
  5
622
330
614
100
AcDbEntity
  8
LC-001-100-D00-0
 62
     7
370
    25
100
AcDbLine
 10
271.571154
 20
270.365531
 30
0.0
 11
274.571154
 21
273.365531
 31
0.0
  0
LINE
  5
623
330
614
100
AcDbEntity
  8
LC-001-100-D00-0
 62
     7
370
    25
100
AcDbLine
 10
293.993745
 20
292.788122
 30
0.0
 11
296.493745
 21
295.288122
 31
0.0
  0
LINE
  5
624
330
614
100
AcDbEntity
  8
LC-001-100-D00-0
 62
     7
370
    25
100
AcDbLine
 10
266.408638
 20
274.183271
 30
0.0
 11
268.774663
 21
276.549296
 31
0.0
  0
LINE
  5
625
330
614
100
AcDbEntity
  8
LC-001-100-D00-0
 62
     7
370
    25
100
AcDbLine
 10
293.993745
 20
301.768378
 30
0.0
 11
296.493745
 21
304.268378
 31
0.0
  0
LINE
  5
626
330
614
100
AcDbEntity
  8
LC-001-100-D00-0
 62
     7
370
    25
100
AcDbLine
 10
264.510887
 20
281.265775
 30
0.0
 11
266.876912
 21
283.631801
 31
0.0
  0
LINE
  5
627
330
614
100
AcDbEntity
  8
LC-001-100-D00-0
 62
     7
370
    25
100
AcDbLine
 10
293.993745
 20
310.748634
 30
0.0
 11
296.493745
 21
313.248634
 31
0.0
  0
LINE
  5
628
330
614
100
AcDbEntity
  8
LC-001-100-D00-0
 62
     7
370
    25
100
AcDbLine
 10
263.493745
 20
289.22889
 30
0.0
 11
266.493745
 21
292.22889
 31
0.0
  0
LINE
  5
629
330
614
100
AcDbEntity
  8
LC-001-100-D00-0
 62
     7
370
    25
100
AcDbLine
 10
293.993745
 20
319.72889
 30
0.0
 11
296.493745
 21
322.22889
 31
0.0
  0
LINE
  5
62A
330
614
100
AcDbEntity
  8
LC-001-100-D00-0
 62
     7
370
    25
100
AcDbLine
 10
263.493745
 20
298.209146
 30
0.0
 11
266.493745
 21
301.209146
 31
0.0
  0
LINE
  5
62B
330
614
100
AcDbEntity
  8
LC-001-100-D00-0
 62
     7
370
    25
100
AcDbLine
 10
293.993745
 20
328.709146
 30
0.0
 11
296.493745
 21
331.209146
 31
0.0
  0
LINE
  5
62C
330
614
100
AcDbEntity
  8
LC-001-100-D00-0
 62
     7
370
    25
100
AcDbLine
 10
263.493745
 20
307.189402
 30
0.0
 11
266.493745
 21
310.189402
 31
0.0
  0
LINE
  5
62D
330
614
100
AcDbEntity
  8
LC-001-100-D00-0
 62
     7
370
    25
100
AcDbLine
 10
263.493745
 20
316.169659
 30
0.0
 11
266.493745
 21
319.169659
 31
0.0
  0
LINE
  5
62E
330
614
100
AcDbEntity
  8
LC-001-100-D00-0
 62
     7
370
    25
100
AcDbLine
 10
263.493745
 20
325.149915
 30
0.0
 11
266.493745
 21
328.149915
 31
0.0
  0
LINE
  5
62F
330
614
100
AcDbEntity
  8
LC-001-100-D00-0
 62
     7
370
    25
100
AcDbLine
 10
257.082024
 20
327.718449
 30
0.0
 11
259.729106
 21
330.365531
 31
0.0
  0
LINE
  5
630
330
614
100
AcDbEntity
  8
LC-001-100-D00-0
 62
     7
370
    25
100
AcDbLine
 10
255.493745
 20
335.110427
 30
0.0
 11
258.493745
 21
338.110427
 31
0.0
  0
LINE
  5
631
330
614
100
AcDbEntity
  8
LC-001-100-D00-0
 62
     7
370
    25
100
AcDbLine
 10
255.493745
 20
344.090683
 30
0.0
 11
258.493745
 21
347.090683
 31
0.0
  0
LINE
  5
632
330
614
100
AcDbEntity
  8
LC-001-100-D00-0
 62
     7
370
    25
100
AcDbLine
 10
255.493745
 20
353.070939
 30
0.0
 11
257.637488
 21
355.214682
 31
0.0
  0
LINE
  5
633
330
614
100
AcDbEntity
  8
LC-001-100-D00-0
 62
     7
370
    25
100
AcDbLine
 10
249.508081
 20
356.065531
 30
0.0
 11
252.008081
 21
358.565531
 31
0.0
  0
LINE
  5
634
330
614
100
AcDbEntity
  8
LC-001-100-D00-0
 62
     7
370
    25
100
AcDbLine
 10
240.527825
 20
356.065531
 30
0.0
 11
243.027825
 21
358.565531
 31
0.0
  0
LINE
  5
635
330
614
100
AcDbEntity
  8
LC-001-100-D00-0
 62
     7
370
    25
100
AcDbLine
 10
231.547569
 20
356.065531
 30
0.0
 11
234.047569
 21
358.565531
 31
0.0
  0
LINE
  5
636
330
614
100
AcDbEntity
  8
LC-001-100-D00-0
 62
     7
370
    25
100
AcDbLine
 10
225.84904
 20
359.347258
 30
0.0
 11
227.690546
 21
361.188764
 31
0.0
  0
LINE
  5
637
330
614
100
AcDbEntity
  8
LC-001-100-D00-0
 62
     7
370
    25
100
AcDbLine
 10
217.587057
 20
360.065531
 30
0.0
 11
220.087057
 21
362.565531
 31
0.0
  0
LINE
  5
638
330
614
100
AcDbEntity
  8
LC-001-100-D00-0
 62
     7
370
    25
100
AcDbLine
 10
208.6068
 20
360.065531
 30
0.0
 11
211.1068
 21
362.565531
 31
0.0
  0
LINE
  5
639
330
614
100
AcDbEntity
  8
LC-001-100-D00-0
 62
     7
370
    25
100
AcDbLine
 10
199.626544
 20
360.065531
 30
0.0
 11
202.126544
 21
362.565531
 31
0.0
  0
LINE
  5
63A
330
614
100
AcDbEntity
  8
LC-001-100-D00-0
 62
     7
370
    25
100
AcDbLine
 10
190.646288
 20
360.065531
 30
0.0
 11
193.146288
 21
362.565531
 31
0.0
  0
LINE
  5
63B
330
614
100
AcDbEntity
  8
LC-001-100-D00-0
 62
     7
370
    25
100
AcDbLine
 10
181.666032
 20
360.065531
 30
0.0
 11
184.166032
 21
362.565531
 31
0.0
  0
ENDBLK
  5
616
330
614
100
AcDbEntity
  8
0
100
AcDbBlockEnd
  0
BLOCK
  5
63E
330
63D
100
AcDbEntity
  8
0
100
AcDbBlockBegin
  2
KLON17
 70
     0
 71
     0
 10
0.0
 20
0.0
 30
0.0
  3
KLON17
  1

  4
KLON17
  0
LINE
  5
640
330
63D
100
AcDbEntity
  8
LC-001-100-D00-0
 62
     7
370
    25
100
AcDbLine
 10
340.493745
 20
213.564536
 30
0.0
 11
343.493745
 21
216.564536
 31
0.0
  0
LINE
  5
641
330
63D
100
AcDbEntity
  8
LC-001-100-D00-0
 62
     7
370
    25
100
AcDbLine
 10
340.493745
 20
222.544792
 30
0.0
 11
343.493745
 21
225.544792
 31
0.0
  0
LINE
  5
642
330
63D
100
AcDbEntity
  8
LC-001-100-D00-0
 62
     7
370
    25
100
AcDbLine
 10
340.493745
 20
231.525048
 30
0.0
 11
343.493745
 21
234.525048
 31
0.0
  0
LINE
  5
643
330
63D
100
AcDbEntity
  8
LC-001-100-D00-0
 62
     7
370
    25
100
AcDbLine
 10
340.493745
 20
240.505305
 30
0.0
 11
343.493745
 21
243.505305
 31
0.0
  0
LINE
  5
644
330
63D
100
AcDbEntity
  8
LC-001-100-D00-0
 62
     7
370
    25
100
AcDbLine
 10
340.493745
 20
249.485561
 30
0.0
 11
343.493745
 21
252.485561
 31
0.0
  0
LINE
  5
645
330
63D
100
AcDbEntity
  8
LC-001-100-D00-0
 62
     7
370
    25
100
AcDbLine
 10
361.373716
 20
270.365531
 30
0.0
 11
364.373716
 21
273.365531
 31
0.0
  0
LINE
  5
646
330
63D
100
AcDbEntity
  8
LC-001-100-D00-0
 62
     7
370
    25
100
AcDbLine
 10
368.452701
 20
277.444516
 30
0.0
 11
372.550777
 21
281.542592
 31
0.0
  0
LINE
  5
647
330
63D
100
AcDbEntity
  8
LC-001-100-D00-0
 62
     7
370
    25
100
AcDbLine
 10
451.073716
 20
360.065531
 30
0.0
 11
454.073716
 21
363.065531
 31
0.0
  0
LINE
  5
648
330
63D
100
AcDbEntity
  8
LC-001-100-D00-0
 62
     7
370
    25
100
AcDbLine
 10
340.493745
 20
258.465817
 30
0.0
 11
343.493745
 21
261.465817
 31
0.0
  0
LINE
  5
649
330
63D
100
AcDbEntity
  8
LC-001-100-D00-0
 62
     7
370
    25
100
AcDbLine
 10
352.39346
 20
270.365531
 30
0.0
 11
355.39346
 21
273.365531
 31
0.0
  0
LINE
  5
64A
330
63D
100
AcDbEntity
  8
LC-001-100-D00-0
 62
     7
370
    25
100
AcDbLine
 10
370.493745
 20
288.465817
 30
0.0
 11
373.493745
 21
291.465817
 31
0.0
  0
LINE
  5
64B
330
63D
100
AcDbEntity
  8
LC-001-100-D00-0
 62
     7
370
    25
100
AcDbLine
 10
442.09346
 20
360.065531
 30
0.0
 11
444.59346
 21
362.565531
 31
0.0
  0
LINE
  5
64C
330
63D
100
AcDbEntity
  8
LC-001-100-D00-0
 62
     7
370
    25
100
AcDbLine
 10
340.493745
 20
267.446073
 30
0.0
 11
346.413203
 21
273.365531
 31
0.0
  0
LINE
  5
64D
330
63D
100
AcDbEntity
  8
LC-001-100-D00-0
 62
     7
370
    25
100
AcDbLine
 10
370.493745
 20
297.446073
 30
0.0
 11
373.493745
 21
300.446073
 31
0.0
  0
LINE
  5
64E
330
63D
100
AcDbEntity
  8
LC-001-100-D00-0
 62
     7
370
    25
100
AcDbLine
 10
433.113203
 20
360.065531
 30
0.0
 11
435.613203
 21
362.565531
 31
0.0
  0
LINE
  5
64F
330
63D
100
AcDbEntity
  8
LC-001-100-D00-0
 62
     7
370
    25
100
AcDbLine
 10
340.493745
 20
276.426329
 30
0.0
 11
342.993745
 21
278.926329
 31
0.0
  0
LINE
  5
650
330
63D
100
AcDbEntity
  8
LC-001-100-D00-0
 62
     7
370
    25
100
AcDbLine
 10
370.493745
 20
306.426329
 30
0.0
 11
373.493745
 21
309.426329
 31
0.0
  0
LINE
  5
651
330
63D
100
AcDbEntity
  8
LC-001-100-D00-0
 62
     7
370
    25
100
AcDbLine
 10
424.132947
 20
360.065531
 30
0.0
 11
426.632947
 21
362.565531
 31
0.0
  0
LINE
  5
652
330
63D
100
AcDbEntity
  8
LC-001-100-D00-0
 62
     7
370
    25
100
AcDbLine
 10
340.493745
 20
285.406585
 30
0.0
 11
342.993745
 21
287.906585
 31
0.0
  0
LINE
  5
653
330
63D
100
AcDbEntity
  8
LC-001-100-D00-0
 62
     7
370
    25
100
AcDbLine
 10
370.493745
 20
315.406585
 30
0.0
 11
373.493745
 21
318.406585
 31
0.0
  0
LINE
  5
654
330
63D
100
AcDbEntity
  8
LC-001-100-D00-0
 62
     7
370
    25
100
AcDbLine
 10
415.152691
 20
360.065531
 30
0.0
 11
417.652691
 21
362.565531
 31
0.0
  0
LINE
  5
655
330
63D
100
AcDbEntity
  8
LC-001-100-D00-0
 62
     7
370
    25
100
AcDbLine
 10
340.493745
 20
294.386841
 30
0.0
 11
342.993745
 21
296.886841
 31
0.0
  0
LINE
  5
656
330
63D
100
AcDbEntity
  8
LC-001-100-D00-0
 62
     7
370
    25
100
AcDbLine
 10
370.493745
 20
324.386841
 30
0.0
 11
376.472435
 21
330.365531
 31
0.0
  0
LINE
  5
657
330
63D
100
AcDbEntity
  8
LC-001-100-D00-0
 62
     7
370
    25
100
AcDbLine
 10
378.493745
 20
332.386841
 30
0.0
 11
381.493745
 21
335.386841
 31
0.0
  0
LINE
  5
658
330
63D
100
AcDbEntity
  8
LC-001-100-D00-0
 62
     7
370
    25
100
AcDbLine
 10
402.172435
 20
356.065531
 30
0.0
 11
404.672435
 21
358.565531
 31
0.0
  0
LINE
  5
659
330
63D
100
AcDbEntity
  8
LC-001-100-D00-0
 62
     7
370
    25
100
AcDbLine
 10
340.493745
 20
303.367097
 30
0.0
 11
342.993745
 21
305.867097
 31
0.0
  0
LINE
  5
65A
330
63D
100
AcDbEntity
  8
LC-001-100-D00-0
 62
     7
370
    25
100
AcDbLine
 10
378.493745
 20
341.367097
 30
0.0
 11
381.493745
 21
344.367097
 31
0.0
  0
LINE
  5
65B
330
63D
100
AcDbEntity
  8
LC-001-100-D00-0
 62
     7
370
    25
100
AcDbLine
 10
393.192179
 20
356.065531
 30
0.0
 11
395.692179
 21
358.565531
 31
0.0
  0
LINE
  5
65C
330
63D
100
AcDbEntity
  8
LC-001-100-D00-0
 62
     7
370
    25
100
AcDbLine
 10
340.493745
 20
312.347353
 30
0.0
 11
342.993745
 21
314.847353
 31
0.0
  0
LINE
  5
65D
330
63D
100
AcDbEntity
  8
LC-001-100-D00-0
 62
     7
370
    25
100
AcDbLine
 10
378.493745
 20
350.347353
 30
0.0
 11
381.493745
 21
353.347353
 31
0.0
  0
LINE
  5
65E
330
63D
100
AcDbEntity
  8
LC-001-100-D00-0
 62
     7
370
    25
100
AcDbLine
 10
384.211923
 20
356.065531
 30
0.0
 11
386.711923
 21
358.565531
 31
0.0
  0
LINE
  5
65F
330
63D
100
AcDbEntity
  8
LC-001-100-D00-0
 62
     7
370
    25
100
AcDbLine
 10
340.493745
 20
321.32761
 30
0.0
 11
342.993745
 21
323.82761
 31
0.0
  0
LINE
  5
660
330
63D
100
AcDbEntity
  8
LC-001-100-D00-0
 62
     7
370
    25
100
AcDbLine
 10
340.493745
 20
330.307866
 30
0.0
 11
342.993745
 21
332.807866
 31
0.0
  0
ENDBLK
  5
63F
330
63D
100
AcDbEntity
  8
0
100
AcDbBlockEnd
  0
BLOCK
  5
664
330
663
100
AcDbEntity
  8
0
100
AcDbBlockBegin
  2
KLON18
 70
     0
 71
     0
 10
0.0
 20
0.0
 30
0.0
  3
KLON18
  1

  4
KLON18
  0
LINE
  5
666
330
663
100
AcDbEntity
  8
LC-001-100-D00-0
 62
     7
370
    25
100
AcDbLine
 10
257.637488
 20
355.214682
 30
0.0
 11
257.991041
 21
355.568235
 31
0.0
  0
LINE
  5
667
330
663
100
AcDbEntity
  8
LC-001-100-D00-0
 62
     7
370
    25
100
AcDbLine
 10
252.008081
 20
358.565531
 30
0.0
 11
252.508081
 21
359.065531
 31
0.0
  0
LINE
  5
668
330
663
100
AcDbEntity
  8
LC-001-100-D00-0
 62
     7
370
    25
100
AcDbLine
 10
243.027825
 20
358.565531
 30
0.0
 11
243.527825
 21
359.065531
 31
0.0
  0
LINE
  5
669
330
663
100
AcDbEntity
  8
LC-001-100-D00-0
 62
     7
370
    25
100
AcDbLine
 10
234.047569
 20
358.565531
 30
0.0
 11
234.547569
 21
359.065531
 31
0.0
  0
LINE
  5
66A
330
663
100
AcDbEntity
  8
LC-001-100-D00-0
 62
     7
370
    25
100
AcDbLine
 10
227.690321
 20
361.188539
 30
0.0
 11
228.056335
 21
361.554553
 31
0.0
  0
LINE
  5
66B
330
663
100
AcDbEntity
  8
LC-001-100-D00-0
 62
     7
370
    25
100
AcDbLine
 10
220.087057
 20
362.565531
 30
0.0
 11
220.587057
 21
363.065531
 31
0.0
  0
LINE
  5
66C
330
663
100
AcDbEntity
  8
LC-001-100-D00-0
 62
     7
370
    25
100
AcDbLine
 10
211.1068
 20
362.565531
 30
0.0
 11
211.6068
 21
363.065531
 31
0.0
  0
LINE
  5
66D
330
663
100
AcDbEntity
  8
LC-001-100-D00-0
 62
     7
370
    25
100
AcDbLine
 10
202.126544
 20
362.565531
 30
0.0
 11
202.626544
 21
363.065531
 31
0.0
  0
LINE
  5
66E
330
663
100
AcDbEntity
  8
LC-001-100-D00-0
 62
     7
370
    25
100
AcDbLine
 10
193.146288
 20
362.565531
 30
0.0
 11
193.646288
 21
363.065531
 31
0.0
  0
LINE
  5
66F
330
663
100
AcDbEntity
  8
LC-001-100-D00-0
 62
     7
370
    25
100
AcDbLine
 10
184.166032
 20
362.565531
 30
0.0
 11
184.666032
 21
363.065531
 31
0.0
  0
ENDBLK
  5
665
330
663
100
AcDbEntity
  8
0
100
AcDbBlockEnd
  0
BLOCK
  5
672
330
671
100
AcDbEntity
  8
0
100
AcDbBlockBegin
  2
KLON19
 70
     0
 71
     0
 10
0.0
 20
0.0
 30
0.0
  3
KLON19
  1

  4
KLON19
  0
LINE
  5
674
330
671
100
AcDbEntity
  8
LC-001-100-D00-0
 62
     7
370
    25
100
AcDbLine
 10
444.59346
 20
362.565531
 30
0.0
 11
445.09346
 21
363.065531
 31
0.0
  0
LINE
  5
675
330
671
100
AcDbEntity
  8
LC-001-100-D00-0
 62
     7
370
    25
100
AcDbLine
 10
435.613203
 20
362.565531
 30
0.0
 11
436.113203
 21
363.065531
 31
0.0
  0
LINE
  5
676
330
671
100
AcDbEntity
  8
LC-001-100-D00-0
 62
     7
370
    25
100
AcDbLine
 10
426.632947
 20
362.565531
 30
0.0
 11
427.132947
 21
363.065531
 31
0.0
  0
LINE
  5
677
330
671
100
AcDbEntity
  8
LC-001-100-D00-0
 62
     7
370
    25
100
AcDbLine
 10
417.652691
 20
362.565531
 30
0.0
 11
418.152691
 21
363.065531
 31
0.0
  0
LINE
  5
678
330
671
100
AcDbEntity
  8
LC-001-100-D00-0
 62
     7
370
    25
100
AcDbLine
 10
404.672435
 20
358.565531
 30
0.0
 11
405.172435
 21
359.065531
 31
0.0
  0
LINE
  5
679
330
671
100
AcDbEntity
  8
LC-001-100-D00-0
 62
     7
370
    25
100
AcDbLine
 10
395.692179
 20
358.565531
 30
0.0
 11
396.192179
 21
359.065531
 31
0.0
  0
LINE
  5
67A
330
671
100
AcDbEntity
  8
LC-001-100-D00-0
 62
     7
370
    25
100
AcDbLine
 10
386.711923
 20
358.565531
 30
0.0
 11
387.211923
 21
359.065531
 31
0.0
  0
ENDBLK
  5
673
330
671
100
AcDbEntity
  8
0
100
AcDbBlockEnd
  0
BLOCK
  5
68B
330
680
100
AcDbEntity
  8
0
100
AcDbBlockBegin
  2
*D62
 70
     1
 71
     0
 10
0.0
 20
0.0
 30
0.0
  3
*D62
  1

  0
LINE
  5
681
330
680
100
AcDbEntity
  8
LC-001-100-D00-0
 62
     2
370
    -2
100
AcDbLine
 10
160.993745
 20
363.065531
 30
0.0
 11
130.669669
 21
363.065531
 31
0.0
  0
LINE
  5
682
330
680
100
AcDbEntity
  8
LC-001-100-D00-0
 62
     2
370
    -2
100
AcDbLine
 10
170.730345
 20
345.065531
 30
0.0
 11
130.669669
 21
345.065531
 31
0.0
  0
LINE
  5
683
330
680
100
AcDbEntity
  8
LC-001-100-D00-0
 62
     2
370
    -2
100
AcDbLine
 10
134.269669
 20
317.065531
 30
0.0
 11
134.269669
 21
289.065531
 31
0.0
  0
LINE
  5
684
330
680
100
AcDbEntity
  8
LC-001-100-D00-0
 62
     2
370
    -2
100
AcDbLine
 10
134.269669
 20
391.065531
 30
0.0
 11
134.269669
 21
404.486582
 31
0.0
  0
SOLID
  5
685
330
680
100
AcDbEntity
  8
LC-001-100-D00-0
 62
     2
100
AcDbTrace
 10
129.603003
 20
391.065531
 30
0.0
 11
138.936336
 21
391.065531
 31
0.0
 12
134.269669
 22
363.065531
 32
0.0
 13
134.269669
 23
363.065531
 33
0.0
  0
SOLID
  5
686
330
680
100
AcDbEntity
  8
LC-001-100-D00-0
 62
     2
100
AcDbTrace
 10
138.936336
 20
317.065531
 30
0.0
 11
129.603003
 21
317.065531
 31
0.0
 12
134.269669
 22
345.065531
 32
0.0
 13
134.269669
 23
345.065531
 33
0.0
  0
MTEXT
  5
687
330
680
100
AcDbEntity
  8
LC-001-100-D00-0
 62
     2
100
AcDbMText
 10
103.469669
 20
384.937859
 30
0.0
 40
28.0
 41
0.0
 71
     5
 72
     1
  1
\A1;18
  7
LCTX15-400-0-0pDIN-Schrift
 11
6.123031769111886E-17
 21
1.0
 31
0.0
 73
     1
 44
1.0
  0
POINT
  5
688
330
680
100
AcDbEntity
  8
Defpoints
 62
     0
100
AcDbPoint
 10
160.993745
 20
363.065531
 30
0.0
  0
POINT
  5
689
330
680
100
AcDbEntity
  8
Defpoints
 62
     0
100
AcDbPoint
 10
170.730345
 20
345.065531
 30
0.0
  0
POINT
  5
68A
330
680
100
AcDbEntity
  8
Defpoints
 62
     0
100
AcDbPoint
 10
134.269669
 20
345.065531
 30
0.0
  0
ENDBLK
  5
68C
330
680
100
AcDbEntity
  8
0
100
AcDbBlockEnd
  0
BLOCK
  5
699
330
68E
100
AcDbEntity
  8
0
100
AcDbBlockBegin
  2
*D63
 70
     1
 71
     0
 10
0.0
 20
0.0
 30
0.0
  3
*D63
  1

  0
LINE
  5
68F
330
68E
100
AcDbEntity
  8
LC-001-100-D00-0
 62
     2
370
    -2
100
AcDbLine
 10
453.493745
 20
363.065531
 30
0.0
 11
502.058306
 21
363.065531
 31
0.0
  0
LINE
  5
690
330
68E
100
AcDbEntity
  8
LC-001-100-D00-0
 62
     2
370
    -2
100
AcDbLine
 10
378.493745
 20
327.365531
 30
0.0
 11
502.058306
 21
327.365531
 31
0.0
  0
LINE
  5
691
330
68E
100
AcDbEntity
  8
LC-001-100-D00-0
 62
     2
370
    -2
100
AcDbLine
 10
498.458306
 20
391.065531
 30
0.0
 11
498.458306
 21
419.065531
 31
0.0
  0
LINE
  5
692
330
68E
100
AcDbEntity
  8
LC-001-100-D00-0
 62
     2
370
    -2
100
AcDbLine
 10
498.458306
 20
299.365531
 30
0.0
 11
498.458306
 21
296.497
 31
0.0
  0
SOLID
  5
693
330
68E
100
AcDbEntity
  8
LC-001-100-D00-0
 62
     2
100
AcDbTrace
 10
493.791639
 20
391.065531
 30
0.0
 11
503.124972
 21
391.065531
 31
0.0
 12
498.458306
 22
363.065531
 32
0.0
 13
498.458306
 23
363.065531
 33
0.0
  0
SOLID
  5
694
330
68E
100
AcDbEntity
  8
LC-001-100-D00-0
 62
     2
100
AcDbTrace
 10
503.124972
 20
299.365531
 30
0.0
 11
493.791639
 21
299.365531
 31
0.0
 12
498.458306
 22
327.365531
 32
0.0
 13
498.458306
 23
327.365531
 33
0.0
  0
MTEXT
  5
695
330
68E
100
AcDbEntity
  8
LC-001-100-D00-0
 62
     2
100
AcDbMText
 10
467.658306
 20
319.597859
 30
0.0
 40
28.0
 41
0.0
 71
     5
 72
     1
  1
\A1;36
  7
LCTX15-400-0-0pDIN-Schrift
 11
6.123031769111886E-17
 21
1.0
 31
0.0
 73
     1
 44
1.0
  0
POINT
  5
696
330
68E
100
AcDbEntity
  8
Defpoints
 62
     0
100
AcDbPoint
 10
453.493745
 20
363.065531
 30
0.0
  0
POINT
  5
697
330
68E
100
AcDbEntity
  8
Defpoints
 62
     0
100
AcDbPoint
 10
378.493745
 20
327.365531
 30
0.0
  0
POINT
  5
698
330
68E
100
AcDbEntity
  8
Defpoints
 62
     0
100
AcDbPoint
 10
498.458306
 20
327.365531
 30
0.0
  0
ENDBLK
  5
69A
330
68E
100
AcDbEntity
  8
0
100
AcDbBlockEnd
  0
BLOCK
  5
6A6
330
69C
100
AcDbEntity
  8
0
100
AcDbBlockBegin
  2
*D64
 70
     1
 71
     0
 10
0.0
 20
0.0
 30
0.0
  3
*D64
  1

  0
LINE
  5
69D
330
69C
100
AcDbEntity
  8
LC-001-100-D00-0
 62
     2
370
    -2
100
AcDbLine
 10
183.493745
 20
363.065531
 30
0.0
 11
91.269144
 21
363.065531
 31
0.0
  0
LINE
  5
69E
330
69C
100
AcDbEntity
  8
LC-001-100-D00-0
 62
     2
370
    -2
100
AcDbLine
 10
269.733579
 20
270.365531
 30
0.0
 11
91.269144
 21
270.365531
 31
0.0
  0
LINE
  5
69F
330
69C
100
AcDbEntity
  8
LC-001-100-D00-0
 62
     2
370
    -2
100
AcDbLine
 10
94.869144
 20
335.065531
 30
0.0
 11
94.869144
 21
298.365531
 31
0.0
  0
SOLID
  5
6A0
330
69C
100
AcDbEntity
  8
LC-001-100-D00-0
 62
     2
100
AcDbTrace
 10
99.535811
 20
335.065531
 30
0.0
 11
90.202478
 21
335.065531
 31
0.0
 12
94.869144
 22
363.065531
 32
0.0
 13
94.869144
 23
363.065531
 33
0.0
  0
SOLID
  5
6A1
330
69C
100
AcDbEntity
  8
LC-001-100-D00-0
 62
     2
100
AcDbTrace
 10
90.202478
 20
298.365531
 30
0.0
 11
99.535811
 21
298.365531
 31
0.0
 12
94.869144
 22
270.365531
 32
0.0
 13
94.869144
 23
270.365531
 33
0.0
  0
MTEXT
  5
6A2
330
69C
100
AcDbEntity
  8
LC-001-100-D00-0
 62
     2
100
AcDbMText
 10
64.069144
 20
317.815859
 30
0.0
 40
28.0
 41
0.0
 71
     5
 72
     1
  1
\A1;93
  7
LCTX15-400-0-0pDIN-Schrift
 11
6.123031769111886E-17
 21
1.0
 31
0.0
 73
     1
 44
1.0
  0
POINT
  5
6A3
330
69C
100
AcDbEntity
  8
Defpoints
 62
     0
100
AcDbPoint
 10
183.493745
 20
363.065531
 30
0.0
  0
POINT
  5
6A4
330
69C
100
AcDbEntity
  8
Defpoints
 62
     0
100
AcDbPoint
 10
269.733579
 20
270.365531
 30
0.0
  0
POINT
  5
6A5
330
69C
100
AcDbEntity
  8
Defpoints
 62
     0
100
AcDbPoint
 10
94.869144
 20
270.365531
 30
0.0
  0
ENDBLK
  5
6A7
330
69C
100
AcDbEntity
  8
0
100
AcDbBlockEnd
  0
BLOCK
  5
6B5
330
6A9
100
AcDbEntity
  8
0
100
AcDbBlockBegin
  2
*D65
 70
     1
 71
     0
 10
0.0
 20
0.0
 30
0.0
  3
*D65
  1

  0
LINE
  5
6AA
330
6A9
100
AcDbEntity
  8
LC-001-100-D00-0
 62
     2
370
    -2
100
AcDbLine
 10
269.733579
 20
270.365531
 30
0.0
 11
147.707734
 21
270.365531
 31
0.0
  0
LINE
  5
6AB
330
6A9
100
AcDbEntity
  8
LC-001-100-D00-0
 62
     2
370
    -2
100
AcDbLine
 10
296.493745
 20
212.365531
 30
0.0
 11
147.707734
 21
212.365531
 31
0.0
  0
LINE
  5
6AC
330
6A9
100
AcDbEntity
  8
LC-001-100-D00-0
 62
     2
370
    -2
100
AcDbLine
 10
151.307734
 20
298.365531
 30
0.0
 11
151.307734
 21
326.365531
 31
0.0
  0
LINE
  5
6AD
330
6A9
100
AcDbEntity
  8
LC-001-100-D00-0
 62
     2
370
    -2
100
AcDbLine
 10
151.307734
 20
184.365531
 30
0.0
 11
151.307734
 21
156.365531
 31
0.0
  0
LINE
  5
6AE
330
6A9
100
AcDbEntity
  8
LC-001-100-D00-0
 62
     2
370
    -2
100
AcDbLine
 10
151.307734
 20
270.365531
 30
0.0
 11
151.307734
 21
212.365531
 31
0.0
  0
SOLID
  5
6AF
330
6A9
100
AcDbEntity
  8
LC-001-100-D00-0
 62
     2
100
AcDbTrace
 10
146.641067
 20
298.365531
 30
0.0
 11
155.974401
 21
298.365531
 31
0.0
 12
151.307734
 22
270.365531
 32
0.0
 13
151.307734
 23
270.365531
 33
0.0
  0
SOLID
  5
6B0
330
6A9
100
AcDbEntity
  8
LC-001-100-D00-0
 62
     2
100
AcDbTrace
 10
155.974401
 20
184.365531
 30
0.0
 11
146.641067
 21
184.365531
 31
0.0
 12
151.307734
 22
212.365531
 32
0.0
 13
151.307734
 23
212.365531
 33
0.0
  0
MTEXT
  5
6B1
330
6A9
100
AcDbEntity
  8
LC-001-100-D00-0
 62
     2
100
AcDbMText
 10
120.507734
 20
232.873859
 30
0.0
 40
28.0
 41
0.0
 71
     5
 72
     1
  1
\A1;58
  7
LCTX15-400-0-0pDIN-Schrift
 11
6.123031769111886E-17
 21
1.0
 31
0.0
 73
     1
 44
1.0
  0
POINT
  5
6B2
330
6A9
100
AcDbEntity
  8
Defpoints
 62
     0
100
AcDbPoint
 10
269.733579
 20
270.365531
 30
0.0
  0
POINT
  5
6B3
330
6A9
100
AcDbEntity
  8
Defpoints
 62
     0
100
AcDbPoint
 10
296.493745
 20
212.365531
 30
0.0
  0
POINT
  5
6B4
330
6A9
100
AcDbEntity
  8
Defpoints
 62
     0
100
AcDbPoint
 10
151.307734
 20
212.365531
 30
0.0
  0
ENDBLK
  5
6B6
330
6A9
100
AcDbEntity
  8
0
100
AcDbBlockEnd
  0
BLOCK
  5
6C3
330
6B8
100
AcDbEntity
  8
0
100
AcDbBlockBegin
  2
*D66
 70
     1
 71
     0
 10
0.0
 20
0.0
 30
0.0
  3
*D66
  1

  0
LINE
  5
6B9
330
6B8
100
AcDbEntity
  8
LC-001-100-D00-0
 62
     2
370
    -2
100
AcDbLine
 10
293.493745
 20
215.365531
 30
0.0
 11
293.493745
 21
191.851859
 31
0.0
  0
LINE
  5
6BA
330
6B8
100
AcDbEntity
  8
LC-001-100-D00-0
 62
     2
370
    -2
100
AcDbLine
 10
343.493745
 20
215.365531
 30
0.0
 11
343.493745
 21
191.851859
 31
0.0
  0
LINE
  5
6BB
330
6B8
100
AcDbEntity
  8
LC-001-100-D00-0
 62
     2
370
    -2
100
AcDbLine
 10
265.493745
 20
195.451859
 30
0.0
 11
237.493745
 21
195.451859
 31
0.0
  0
LINE
  5
6BC
330
6B8
100
AcDbEntity
  8
LC-001-100-D00-0
 62
     2
370
    -2
100
AcDbLine
 10
371.493745
 20
195.451859
 30
0.0
 11
461.434497
 21
195.451859
 31
0.0
  0
SOLID
  5
6BD
330
6B8
100
AcDbEntity
  8
LC-001-100-D00-0
 62
     2
100
AcDbTrace
 10
265.493745
 20
190.785192
 30
0.0
 11
265.493745
 21
200.118525
 31
0.0
 12
293.493745
 22
195.451859
 32
0.0
 13
293.493745
 23
195.451859
 33
0.0
  0
SOLID
  5
6BE
330
6B8
100
AcDbEntity
  8
LC-001-100-D00-0
 62
     2
100
AcDbTrace
 10
371.493745
 20
200.118525
 30
0.0
 11
371.493745
 21
190.785192
 31
0.0
 12
343.493745
 22
195.451859
 32
0.0
 13
343.493745
 23
195.451859
 33
0.0
  0
MTEXT
  5
6BF
330
6B8
100
AcDbEntity
  8
LC-001-100-D00-0
 62
     2
100
AcDbMText
 10
415.397739
 20
226.251859
 30
0.0
 40
28.0
 41
0.0
 71
     5
 72
     1
  1
\A1;DN50
  7
LCTX15-400-0-0pDIN-Schrift
 73
     1
 44
1.0
  0
POINT
  5
6C0
330
6B8
100
AcDbEntity
  8
Defpoints
 62
     0
100
AcDbPoint
 10
293.493745
 20
215.365531
 30
0.0
  0
POINT
  5
6C1
330
6B8
100
AcDbEntity
  8
Defpoints
 62
     0
100
AcDbPoint
 10
343.493745
 20
215.365531
 30
0.0
  0
POINT
  5
6C2
330
6B8
100
AcDbEntity
  8
Defpoints
 62
     0
100
AcDbPoint
 10
343.493745
 20
195.451859
 30
0.0
  0
ENDBLK
  5
6C4
330
6B8
100
AcDbEntity
  8
0
100
AcDbBlockEnd
  0
BLOCK
  5
6D0
330
6C6
100
AcDbEntity
  8
0
100
AcDbBlockBegin
  2
*D67
 70
     1
 71
     0
 10
0.0
 20
0.0
 30
0.0
  3
*D67
  1

  0
LINE
  5
6C7
330
6C6
100
AcDbEntity
  8
LC-001-100-D00-0
 62
     2
370
    -2
100
AcDbLine
 10
263.493745
 20
285.061798
 30
0.0
 11
263.493745
 21
138.391859
 31
0.0
  0
LINE
  5
6C8
330
6C6
100
AcDbEntity
  8
LC-001-100-D00-0
 62
     2
370
    -2
100
AcDbLine
 10
373.493745
 20
285.061798
 30
0.0
 11
373.493745
 21
138.391859
 31
0.0
  0
LINE
  5
6C9
330
6C6
100
AcDbEntity
  8
LC-001-100-D00-0
 62
     2
370
    -2
100
AcDbLine
 10
291.493745
 20
141.991859
 30
0.0
 11
345.493745
 21
141.991859
 31
0.0
  0
SOLID
  5
6CA
330
6C6
100
AcDbEntity
  8
LC-001-100-D00-0
 62
     2
100
AcDbTrace
 10
291.493745
 20
146.658525
 30
0.0
 11
291.493745
 21
137.325192
 31
0.0
 12
263.493745
 22
141.991859
 32
0.0
 13
263.493745
 23
141.991859
 33
0.0
  0
SOLID
  5
6CB
330
6C6
100
AcDbEntity
  8
LC-001-100-D00-0
 62
     2
100
AcDbTrace
 10
345.493745
 20
137.325192
 30
0.0
 11
345.493745
 21
146.658525
 31
0.0
 12
373.493745
 22
141.991859
 32
0.0
 13
373.493745
 23
141.991859
 33
0.0
  0
MTEXT
  5
6CC
330
6C6
100
AcDbEntity
  8
LC-001-100-D00-0
 62
     2
100
AcDbMText
 10
318.493745
 20
172.791859
 30
0.0
 40
28.0
 41
0.0
 71
     5
 72
     1
  1
\A1;%%c110
  7
LCTX15-400-0-0pDIN-Schrift
 73
     1
 44
1.0
  0
POINT
  5
6CD
330
6C6
100
AcDbEntity
  8
Defpoints
 62
     0
100
AcDbPoint
 10
263.493745
 20
285.061798
 30
0.0
  0
POINT
  5
6CE
330
6C6
100
AcDbEntity
  8
Defpoints
 62
     0
100
AcDbPoint
 10
373.493745
 20
285.061798
 30
0.0
  0
POINT
  5
6CF
330
6C6
100
AcDbEntity
  8
Defpoints
 62
     0
100
AcDbPoint
 10
373.493745
 20
141.991859
 30
0.0
  0
ENDBLK
  5
6D1
330
6C6
100
AcDbEntity
  8
0
100
AcDbBlockEnd
  0
BLOCK
  5
6DD
330
6D3
100
AcDbEntity
  8
0
100
AcDbBlockBegin
  2
*D68
 70
     1
 71
     0
 10
0.0
 20
0.0
 30
0.0
  3
*D68
  1

  0
LINE
  5
6D4
330
6D3
100
AcDbEntity
  8
LC-001-100-D00-0
 62
     2
370
    -2
100
AcDbLine
 10
255.493745
 20
330.365531
 30
0.0
 11
255.493745
 21
91.465859
 31
0.0
  0
LINE
  5
6D5
330
6D3
100
AcDbEntity
  8
LC-001-100-D00-0
 62
     2
370
    -2
100
AcDbLine
 10
381.493745
 20
330.365531
 30
0.0
 11
381.493745
 21
91.465859
 31
0.0
  0
LINE
  5
6D6
330
6D3
100
AcDbEntity
  8
LC-001-100-D00-0
 62
     2
370
    -2
100
AcDbLine
 10
283.493745
 20
95.065859
 30
0.0
 11
353.493745
 21
95.065859
 31
0.0
  0
SOLID
  5
6D7
330
6D3
100
AcDbEntity
  8
LC-001-100-D00-0
 62
     2
100
AcDbTrace
 10
283.493745
 20
99.732525
 30
0.0
 11
283.493745
 21
90.399192
 31
0.0
 12
255.493745
 22
95.065859
 32
0.0
 13
255.493745
 23
95.065859
 33
0.0
  0
SOLID
  5
6D8
330
6D3
100
AcDbEntity
  8
LC-001-100-D00-0
 62
     2
100
AcDbTrace
 10
353.493745
 20
90.399192
 30
0.0
 11
353.493745
 21
99.732525
 31
0.0
 12
381.493745
 22
95.065859
 32
0.0
 13
381.493745
 23
95.065859
 33
0.0
  0
MTEXT
  5
6D9
330
6D3
100
AcDbEntity
  8
LC-001-100-D00-0
 62
     2
100
AcDbMText
 10
318.493745
 20
125.865859
 30
0.0
 40
28.0
 41
0.0
 71
     5
 72
     1
  1
\A1;%%c126
  7
LCTX15-400-0-0pDIN-Schrift
 73
     1
 44
1.0
  0
POINT
  5
6DA
330
6D3
100
AcDbEntity
  8
Defpoints
 62
     0
100
AcDbPoint
 10
255.493745
 20
330.365531
 30
0.0
  0
POINT
  5
6DB
330
6D3
100
AcDbEntity
  8
Defpoints
 62
     0
100
AcDbPoint
 10
381.493745
 20
330.365531
 30
0.0
  0
POINT
  5
6DC
330
6D3
100
AcDbEntity
  8
Defpoints
 62
     0
100
AcDbPoint
 10
381.493745
 20
95.065859
 30
0.0
  0
ENDBLK
  5
6DE
330
6D3
100
AcDbEntity
  8
0
100
AcDbBlockEnd
  0
BLOCK
  5
6EA
330
6E0
100
AcDbEntity
  8
0
100
AcDbBlockBegin
  2
*D69
 70
     1
 71
     0
 10
0.0
 20
0.0
 30
0.0
  3
*D69
  1

  0
LINE
  5
6E1
330
6E0
100
AcDbEntity
  8
LC-001-100-D00-0
 62
     2
370
    -2
100
AcDbLine
 10
270.993745
 20
396.265531
 30
0.0
 11
270.993745
 21
410.515859
 31
0.0
  0
LINE
  5
6E2
330
6E0
100
AcDbEntity
  8
LC-001-100-D00-0
 62
     2
370
    -2
100
AcDbLine
 10
365.993745
 20
396.265531
 30
0.0
 11
365.993745
 21
410.515859
 31
0.0
  0
LINE
  5
6E3
330
6E0
100
AcDbEntity
  8
LC-001-100-D00-0
 62
     2
370
    -2
100
AcDbLine
 10
298.993745
 20
406.915859
 30
0.0
 11
337.993745
 21
406.915859
 31
0.0
  0
SOLID
  5
6E4
330
6E0
100
AcDbEntity
  8
LC-001-100-D00-0
 62
     2
100
AcDbTrace
 10
298.993745
 20
411.582525
 30
0.0
 11
298.993745
 21
402.249192
 31
0.0
 12
270.993745
 22
406.915859
 32
0.0
 13
270.993745
 23
406.915859
 33
0.0
  0
SOLID
  5
6E5
330
6E0
100
AcDbEntity
  8
LC-001-100-D00-0
 62
     2
100
AcDbTrace
 10
337.993745
 20
402.249192
 30
0.0
 11
337.993745
 21
411.582525
 31
0.0
 12
365.993745
 22
406.915859
 32
0.0
 13
365.993745
 23
406.915859
 33
0.0
  0
MTEXT
  5
6E6
330
6E0
100
AcDbEntity
  8
LC-001-100-D00-0
 62
     2
100
AcDbMText
 10
329.142536
 20
437.715859
 30
0.0
 40
28.0
 41
0.0
 71
     5
 72
     1
  1
\A1;95
  7
LCTX15-400-0-0pDIN-Schrift
 73
     1
 44
1.0
  0
POINT
  5
6E7
330
6E0
100
AcDbEntity
  8
Defpoints
 62
     0
100
AcDbPoint
 10
270.993745
 20
396.265531
 30
0.0
  0
POINT
  5
6E8
330
6E0
100
AcDbEntity
  8
Defpoints
 62
     0
100
AcDbPoint
 10
365.993745
 20
396.265531
 30
0.0
  0
POINT
  5
6E9
330
6E0
100
AcDbEntity
  8
Defpoints
 62
     0
100
AcDbPoint
 10
365.993745
 20
406.915859
 30
0.0
  0
ENDBLK
  5
6EB
330
6E0
100
AcDbEntity
  8
0
100
AcDbBlockEnd
  0
BLOCK
  5
6F7
330
6ED
100
AcDbEntity
  8
0
100
AcDbBlockBegin
  2
*D70
 70
     1
 71
     0
 10
0.0
 20
0.0
 30
0.0
  3
*D70
  1

  0
LINE
  5
6EE
330
6ED
100
AcDbEntity
  8
LC-001-100-D00-0
 62
     2
370
    -2
100
AcDbLine
 10
160.993745
 20
360.065531
 30
0.0
 11
160.993745
 21
471.103859
 31
0.0
  0
LINE
  5
6EF
330
6ED
100
AcDbEntity
  8
LC-001-100-D00-0
 62
     2
370
    -2
100
AcDbLine
 10
475.993745
 20
360.065531
 30
0.0
 11
475.993745
 21
471.103859
 31
0.0
  0
LINE
  5
6F0
330
6ED
100
AcDbEntity
  8
LC-001-100-D00-0
 62
     2
370
    -2
100
AcDbLine
 10
188.993745
 20
467.503859
 30
0.0
 11
447.993745
 21
467.503859
 31
0.0
  0
SOLID
  5
6F1
330
6ED
100
AcDbEntity
  8
LC-001-100-D00-0
 62
     2
100
AcDbTrace
 10
188.993745
 20
472.170525
 30
0.0
 11
188.993745
 21
462.837192
 31
0.0
 12
160.993745
 22
467.503859
 32
0.0
 13
160.993745
 23
467.503859
 33
0.0
  0
SOLID
  5
6F2
330
6ED
100
AcDbEntity
  8
LC-001-100-D00-0
 62
     2
100
AcDbTrace
 10
447.993745
 20
462.837192
 30
0.0
 11
447.993745
 21
472.170525
 31
0.0
 12
475.993745
 22
467.503859
 32
0.0
 13
475.993745
 23
467.503859
 33
0.0
  0
MTEXT
  5
6F3
330
6ED
100
AcDbEntity
  8
LC-001-100-D00-0
 62
     2
100
AcDbMText
 10
307.844955
 20
498.303859
 30
0.0
 40
28.0
 41
0.0
 71
     5
 72
     1
  1
\A1;%%c315
  7
LCTX15-400-0-0pDIN-Schrift
 73
     1
 44
1.0
  0
POINT
  5
6F4
330
6ED
100
AcDbEntity
  8
Defpoints
 62
     0
100
AcDbPoint
 10
160.993745
 20
360.065531
 30
0.0
  0
POINT
  5
6F5
330
6ED
100
AcDbEntity
  8
Defpoints
 62
     0
100
AcDbPoint
 10
475.993745
 20
360.065531
 30
0.0
  0
POINT
  5
6F6
330
6ED
100
AcDbEntity
  8
Defpoints
 62
     0
100
AcDbPoint
 10
475.993745
 20
467.503859
 30
0.0
  0
ENDBLK
  5
6F8
330
6ED
100
AcDbEntity
  8
0
100
AcDbBlockEnd
  0
BLOCK
  5
727
330
71C
100
AcDbEntity
  8
0
100
AcDbBlockBegin
  2
*D71
 70
     1
 71
     0
 10
0.0
 20
0.0
 30
0.0
  3
*D71
  1

  0
LINE
  5
71D
330
71C
100
AcDbEntity
  8
LC-002-003-----0
 62
     2
370
    -2
100
AcDbLine
 10
278.993745
 20
285.061799
 30
0.0
 11
211.600477
 21
285.061799
 31
0.0
  0
LINE
  5
71E
330
71C
100
AcDbEntity
  8
LC-002-003-----0
 62
     2
370
    -2
100
AcDbLine
 10
293.993745
 20
334.865531
 30
0.0
 11
211.600477
 21
334.865531
 31
0.0
  0
LINE
  5
71F
330
71C
100
AcDbEntity
  8
LC-002-003-----0
 62
     2
370
    -2
100
AcDbLine
 10
215.200477
 20
362.865531
 30
0.0
 11
215.200477
 21
390.865531
 31
0.0
  0
LINE
  5
720
330
71C
100
AcDbEntity
  8
LC-002-003-----0
 62
     2
370
    -2
100
AcDbLine
 10
215.200477
 20
257.061799
 30
0.0
 11
215.200477
 21
228.959632
 31
0.0
  0
SOLID
  5
721
330
71C
100
AcDbEntity
  8
LC-002-003-----0
 62
     2
100
AcDbTrace
 10
219.867144
 20
257.061799
 30
0.0
 11
210.533811
 21
257.061799
 31
0.0
 12
215.200477
 22
285.061799
 32
0.0
 13
215.200477
 23
285.061799
 33
0.0
  0
SOLID
  5
722
330
71C
100
AcDbEntity
  8
LC-002-003-----0
 62
     2
100
AcDbTrace
 10
210.533811
 20
362.865531
 30
0.0
 11
219.867144
 21
362.865531
 31
0.0
 12
215.200477
 22
334.865531
 32
0.0
 13
215.200477
 23
334.865531
 33
0.0
  0
MTEXT
  5
723
330
71C
100
AcDbEntity
  8
LC-002-003-----0
 62
     2
100
AcDbMText
 10
184.400477
 20
251.881859
 30
0.0
 40
28.0
 41
0.0
 71
     5
 72
     1
  1
\A1;50
  7
LCTX15-400-0-0pDIN-Schrift
 11
6.123031769111886E-17
 21
1.0
 31
0.0
 73
     1
 44
1.0
  0
POINT
  5
724
330
71C
100
AcDbEntity
  8
Defpoints
 62
     0
100
AcDbPoint
 10
278.993745
 20
285.061799
 30
0.0
  0
POINT
  5
725
330
71C
100
AcDbEntity
  8
Defpoints
 62
     0
100
AcDbPoint
 10
293.993745
 20
334.865531
 30
0.0
  0
POINT
  5
726
330
71C
100
AcDbEntity
  8
Defpoints
 62
     0
100
AcDbPoint
 10
215.200477
 20
334.865531
 30
0.0
  0
ENDBLK
  5
728
330
71C
100
AcDbEntity
  8
0
100
AcDbBlockEnd
  0
BLOCK
  5
735
330
72A
100
AcDbEntity
  8
0
100
AcDbBlockBegin
  2
*D72
 70
     1
 71
     0
 10
0.0
 20
0.0
 30
0.0
  3
*D72
  1

  0
LINE
  5
72B
330
72A
100
AcDbEntity
  8
LC-002-003-----0
 62
     2
370
    -2
100
AcDbLine
 10
475.993745
 20
363.065531
 30
0.0
 11
416.057256
 21
363.065531
 31
0.0
  0
LINE
  5
72C
330
72A
100
AcDbEntity
  8
LC-002-003-----0
 62
     2
370
    -2
100
AcDbLine
 10
365.993746
 20
396.265534
 30
0.0
 11
423.257256
 21
396.265534
 31
0.0
  0
LINE
  5
72D
330
72A
100
AcDbEntity
  8
LC-002-003-----0
 62
     2
370
    -2
100
AcDbLine
 10
419.657256
 20
335.065531
 30
0.0
 11
419.657256
 21
307.065531
 31
0.0
  0
LINE
  5
72E
330
72A
100
AcDbEntity
  8
LC-002-003-----0
 62
     2
370
    -2
100
AcDbLine
 10
419.657256
 20
424.265534
 30
0.0
 11
419.657256
 21
449.445916
 31
0.0
  0
SOLID
  5
72F
330
72A
100
AcDbEntity
  8
LC-002-003-----0
 62
     2
100
AcDbTrace
 10
424.323922
 20
335.065531
 30
0.0
 11
414.990589
 21
335.065531
 31
0.0
 12
419.657256
 22
363.065531
 32
0.0
 13
419.657256
 23
363.065531
 33
0.0
  0
SOLID
  5
730
330
72A
100
AcDbEntity
  8
LC-002-003-----0
 62
     2
100
AcDbTrace
 10
414.990589
 20
424.265534
 30
0.0
 11
424.323922
 21
424.265534
 31
0.0
 12
419.657256
 22
396.265534
 32
0.0
 13
419.657256
 23
396.265534
 33
0.0
  0
MTEXT
  5
731
330
72A
100
AcDbEntity
  8
LC-002-003-----0
 62
     2
100
AcDbMText
 10
388.857256
 20
402.163859
 30
0.0
 40
28.0
 41
0.0
 71
     5
 72
     1
  1
\A1;6-33
  7
LCTX15-400-0-0pDIN-Schrift
 11
6.123031769111886E-17
 21
1.0
 31
0.0
 73
     1
 44
1.0
  0
POINT
  5
732
330
72A
100
AcDbEntity
  8
Defpoints
 62
     0
100
AcDbPoint
 10
475.993745
 20
363.065531
 30
0.0
  0
POINT
  5
733
330
72A
100
AcDbEntity
  8
Defpoints
 62
     0
100
AcDbPoint
 10
365.993746
 20
396.265534
 30
0.0
  0
POINT
  5
734
330
72A
100
AcDbEntity
  8
Defpoints
 62
     0
100
AcDbPoint
 10
419.657256
 20
396.265534
 30
0.0
  0
ENDBLK
  5
736
330
72A
100
AcDbEntity
  8
0
100
AcDbBlockEnd
  0
ENDSEC
  0
SECTION
  2
ENTITIES
  0
LINE
  5
31
330
1F
100
AcDbEntity
  8
LC-001-100-D00-0
 62
     7
370
    50
100
AcDbLine
 10
365.993746
 20
-31.476142
 30
0.0
 11
270.993747
 21
-31.476142
 31
0.0
  0
LINE
  5
32
330
1F
100
AcDbEntity
  8
LC-001-100-D00-0
 62
     7
370
    50
100
AcDbLine
 10
365.993746
 20
-78.976141
 30
0.0
 11
365.993746
 21
-31.476142
 31
0.0
  0
LINE
  5
33
330
1F
100
AcDbEntity
  8
LC-001-100-D00-0
 62
     7
370
    50
100
AcDbLine
 10
270.993747
 20
-31.476142
 30
0.0
 11
270.993747
 21
-78.976141
 31
0.0
  0
LINE
  5
34
330
1F
100
AcDbEntity
  8
LC-001-100-D00-0
 62
     7
370
    50
100
AcDbLine
 10
364.493747
 20
-32.976141
 30
0.0
 11
272.493747
 21
-32.976141
 31
0.0
  0
LINE
  5
35
330
1F
100
AcDbEntity
  8
LC-001-100-D00-0
 62
     7
370
    50
100
AcDbLine
 10
364.493747
 20
-78.976141
 30
0.0
 11
364.493747
 21
-32.976141
 31
0.0
  0
LINE
  5
36
330
1F
100
AcDbEntity
  8
LC-001-100-D00-0
 62
     7
370
    50
100
AcDbLine
 10
272.493747
 20
-32.976141
 30
0.0
 11
272.493747
 21
-78.976141
 31
0.0
  0
INSERT
  5
3C
330
1F
100
AcDbEntity
  8
LC-001-100-D00-0
 62
     7
370
    50
100
AcDbBlockReference
  2
KLON1
 10
0.0
 20
0.0
 30
0.0
  0
INSERT
  5
42
330
1F
100
AcDbEntity
  8
LC-001-100-D00-0
 62
     7
370
    50
100
AcDbBlockReference
  2
KLON2
 10
0.0
 20
0.0
 30
0.0
  0
INSERT
  5
48
330
1F
100
AcDbEntity
  8
LC-001-100-D00-0
 62
     7
370
    50
100
AcDbBlockReference
  2
KLON3
 10
0.0
 20
0.0
 30
0.0
  0
INSERT
  5
4E
330
1F
100
AcDbEntity
  8
LC-001-100-D00-0
 62
     7
370
    50
100
AcDbBlockReference
  2
KLON4
 10
0.0
 20
0.0
 30
0.0
  0
INSERT
  5
54
330
1F
100
AcDbEntity
  8
LC-001-100-D00-0
 62
     7
370
    50
100
AcDbBlockReference
  2
KLON5
 10
0.0
 20
0.0
 30
0.0
  0
INSERT
  5
5A
330
1F
100
AcDbEntity
  8
LC-001-100-D00-0
 62
     7
370
    50
100
AcDbBlockReference
  2
KLON6
 10
0.0
 20
0.0
 30
0.0
  0
INSERT
  5
60
330
1F
100
AcDbEntity
  8
LC-001-100-D00-0
 62
     7
370
    50
100
AcDbBlockReference
  2
KLON7
 10
0.0
 20
0.0
 30
0.0
  0
INSERT
  5
66
330
1F
100
AcDbEntity
  8
LC-001-100-D00-0
 62
     7
370
    50
100
AcDbBlockReference
  2
KLON8
 10
0.0
 20
0.0
 30
0.0
  0
ARC
  5
67
330
1F
100
AcDbEntity
  8
LC-001-100-D00-0
 62
     7
370
    50
100
AcDbCircle
 10
620.243745
 20
-78.976163
 30
0.0
 40
350.7499999999906
100
AcDbArc
 50
175.786376
 51
179.999996
  0
ARC
  5
68
330
1F
100
AcDbEntity
  8
LC-001-100-D00-0
 62
     7
370
    50
100
AcDbCircle
 10
275.428296
 20
-53.572066
 30
0.0
 40
5.000000000000023
100
AcDbArc
 50
152.487499
 51
175.786376
  0
ARC
  5
69
330
1F
100
AcDbEntity
  8
LC-001-100-D00-0
 62
     7
370
    50
100
AcDbCircle
 10
16.743745
 20
-78.976119
 30
0.0
 40
350.7499999999906
100
AcDbArc
 50
359.999996
 51
4.213615
  0
ARC
  5
6A
330
1F
100
AcDbEntity
  8
LC-001-100-D00-0
 62
     7
370
    50
100
AcDbCircle
 10
361.559199
 20
-53.572072
 30
0.0
 40
5.000000000000072
100
AcDbArc
 50
4.213615
 51
27.512593
  0
ARC
  5
6B
330
1F
100
AcDbEntity
  8
LC-001-100-D00-0
 62
     7
370
    50
100
AcDbCircle
 10
318.493723
 20
-380.726141
 30
0.0
 40
350.7499999999904
100
AcDbArc
 50
85.786376
 51
94.213615
  0
ARC
  5
6C
330
1F
100
AcDbEntity
  8
LC-001-100-D00-0
 62
     7
370
    50
100
AcDbCircle
 10
343.897821
 20
-35.910692
 30
0.0
 40
4.999999999999909
100
AcDbArc
 50
62.487499
 51
85.786376
  0
ARC
  5
6D
330
1F
100
AcDbEntity
  8
LC-001-100-D00-0
 62
     7
370
    50
100
AcDbCircle
 10
293.089676
 20
-35.910688
 30
0.0
 40
4.999999999999929
100
AcDbArc
 50
94.213615
 51
117.512593
  0
ARC
  5
6E
330
1F
100
AcDbEntity
  8
LC-001-100-D00-0
 62
     7
370
    50
100
AcDbCircle
 10
318.493745
 20
-29.976141
 30
0.0
 40
2.000000000000002
100
AcDbArc
 50
359.836648
 51
180.163352
  0
ARC
  5
6F
330
1F
100
AcDbEntity
  8
LC-001-100-D00-0
 62
     7
370
    50
100
AcDbCircle
 10
269.493745
 20
-78.976141
 30
0.0
 40
2.000000000000028
100
AcDbArc
 50
89.836646
 51
180.0
  0
ARC
  5
70
330
1F
100
AcDbEntity
  8
LC-001-100-D00-0
 62
     7
370
    50
100
AcDbCircle
 10
367.493746
 20
-78.976141
 30
0.0
 40
2.000000000003809
100
AcDbArc
 50
0.0
 51
90.163463
  0
ARC
  5
71
330
1F
100
AcDbEntity
  8
LC-001-100-D00-0
 62
     7
370
    50
100
AcDbCircle
 10
318.493745
 20
-78.976141
 30
0.0
 40
83.50000000000011
100
AcDbArc
 50
0.0
 51
180.0
  0
ARC
  5
72
330
1F
100
AcDbEntity
  8
LC-001-100-D00-0
 62
     7
370
    50
100
AcDbCircle
 10
314.993745
 20
-66.976141
 30
0.0
 40
3.000000000000227
100
AcDbArc
 50
90.0
 51
270.0
  0
LINE
  5
73
330
1F
100
AcDbEntity
  8
LC-001-100-D00-0
 62
     7
370
    50
100
AcDbLine
 10
314.993745
 20
-69.976142
 30
0.0
 11
321.993745
 21
-69.976142
 31
0.0
  0
LINE
  5
74
330
1F
100
AcDbEntity
  8
LC-001-100-D00-0
 62
     7
370
    50
100
AcDbLine
 10
357.493746
 20
-78.976141
 30
0.0
 11
357.493746
 21
-52.976141
 31
0.0
  0
ARC
  5
75
330
1F
100
AcDbEntity
  8
LC-001-100-D00-0
 62
     7
370
    50
100
AcDbCircle
 10
282.493745
 20
-52.976141
 30
0.0
 40
3.000000000000114
100
AcDbArc
 50
0.0
 51
180.0
  0
LINE
  5
76
330
1F
100
AcDbEntity
  8
LC-001-100-D00-0
 62
     7
370
    50
100
AcDbLine
 10
279.493746
 20
-52.976141
 30
0.0
 11
279.493746
 21
-78.976141
 31
0.0
  0
LINE
  5
77
330
1F
100
AcDbEntity
  8
LC-001-100-D00-0
 62
     7
370
    50
100
AcDbLine
 10
363.993746
 20
-35.97614
 30
0.0
 11
363.993746
 21
-78.976141
 31
0.0
  0
LINE
  5
78
330
1F
100
AcDbEntity
  8
LC-001-100-D00-0
 62
     7
370
    50
100
AcDbLine
 10
345.493745
 20
-78.976141
 30
0.0
 11
345.493745
 21
-63.976142
 31
0.0
  0
LINE
  5
79
330
1F
100
AcDbEntity
  8
LC-001-100-D00-0
 62
     7
370
    50
100
AcDbLine
 10
275.493745
 20
-33.476142
 30
0.0
 11
361.493744
 21
-33.476142
 31
0.0
  0
ARC
  5
7A
330
1F
100
AcDbEntity
  8
LC-001-100-D00-0
 62
     7
370
    50
100
AcDbCircle
 10
344.493745
 20
-42.976141
 30
0.0
 40
3.000000000000057
100
AcDbArc
 50
270.0
 51
90.0
  0
LINE
  5
7B
330
1F
100
AcDbEntity
  8
LC-001-100-D00-0
 62
     7
370
    50
100
AcDbLine
 10
292.493746
 20
-45.976141
 30
0.0
 11
344.493745
 21
-45.976141
 31
0.0
  0
ARC
  5
7C
330
1F
100
AcDbEntity
  8
LC-001-100-D00-0
 62
     7
370
    50
100
AcDbCircle
 10
354.493745
 20
-52.976141
 30
0.0
 40
3.0
100
AcDbArc
 50
0.0
 51
180.0
  0
LINE
  5
7D
330
1F
100
AcDbEntity
  8
LC-001-100-D00-0
 62
     7
370
    50
100
AcDbLine
 10
321.993745
 20
-63.976142
 30
0.0
 11
314.993745
 21
-63.976142
 31
0.0
  0
LINE
  5
7E
330
1F
100
AcDbEntity
  8
LC-001-100-D00-0
 62
     7
370
    50
100
AcDbLine
 10
339.493745
 20
-63.976142
 30
0.0
 11
339.493745
 21
-78.976141
 31
0.0
  0
ARC
  5
7F
330
1F
100
AcDbEntity
  8
LC-001-100-D00-0
 62
     7
370
    50
100
AcDbCircle
 10
321.993745
 20
-66.976141
 30
0.0
 40
3.000000000000057
100
AcDbArc
 50
270.0
 51
90.0
  0
ARC
  5
80
330
1F
100
AcDbEntity
  8
LC-001-100-D00-0
 62
     7
370
    50
100
AcDbCircle
 10
303.493745
 20
-54.976141
 30
0.0
 40
3.000000000000171
100
AcDbArc
 50
90.0
 51
270.0
  0
LINE
  5
81
330
1F
100
AcDbEntity
  8
LC-001-100-D00-0
 62
     7
370
    50
100
AcDbLine
 10
303.493746
 20
-57.976142
 30
0.0
 11
333.493745
 21
-57.976142
 31
0.0
  0
LINE
  5
82
330
1F
100
AcDbEntity
  8
LC-001-100-D00-0
 62
     7
370
    50
100
AcDbLine
 10
285.493747
 20
-78.976141
 30
0.0
 11
285.493747
 21
-52.976141
 31
0.0
  0
LINE
  5
83
330
1F
100
AcDbEntity
  8
LC-001-100-D00-0
 62
     7
370
    50
100
AcDbLine
 10
351.493745
 20
-52.976141
 30
0.0
 11
351.493745
 21
-78.976141
 31
0.0
  0
ARC
  5
84
330
1F
100
AcDbEntity
  8
LC-001-100-D00-0
 62
     7
370
    50
100
AcDbCircle
 10
292.493745
 20
-42.976141
 30
0.0
 40
3.000000000000057
100
AcDbArc
 50
90.0
 51
270.0
  0
LINE
  5
85
330
1F
100
AcDbEntity
  8
LC-001-100-D00-0
 62
     7
370
    50
100
AcDbLine
 10
272.993744
 20
-78.976141
 30
0.0
 11
272.993744
 21
-35.97614
 31
0.0
  0
LINE
  5
86
330
1F
100
AcDbEntity
  8
LC-001-100-D00-0
 62
     7
370
    50
100
AcDbLine
 10
344.493745
 20
-39.97614
 30
0.0
 11
292.493746
 21
-39.97614
 31
0.0
  0
ARC
  5
87
330
1F
100
AcDbEntity
  8
LC-001-100-D00-0
 62
     7
370
    50
100
AcDbCircle
 10
294.493745
 20
-63.976141
 30
0.0
 40
3.0
100
AcDbArc
 50
0.0
 51
180.0
  0
LINE
  5
88
330
1F
100
AcDbEntity
  8
LC-001-100-D00-0
 62
     7
370
    50
100
AcDbLine
 10
291.493744
 20
-63.976142
 30
0.0
 11
291.493744
 21
-78.976141
 31
0.0
  0
ARC
  5
89
330
1F
100
AcDbEntity
  8
LC-001-100-D00-0
 62
     7
370
    50
100
AcDbCircle
 10
275.493745
 20
-35.976141
 30
0.0
 40
2.500000000000227
100
AcDbArc
 50
90.0
 51
180.0
  0
LINE
  5
8A
330
1F
100
AcDbEntity
  8
LC-001-100-D00-0
 62
     7
370
    50
100
AcDbLine
 10
297.493745
 20
-78.976141
 30
0.0
 11
297.493745
 21
-63.976142
 31
0.0
  0
ARC
  5
8B
330
1F
100
AcDbEntity
  8
LC-001-100-D00-0
 62
     7
370
    50
100
AcDbCircle
 10
333.493745
 20
-54.976141
 30
0.0
 40
3.000000000000114
100
AcDbArc
 50
270.0
 51
90.0
  0
ARC
  5
8C
330
1F
100
AcDbEntity
  8
LC-001-100-D00-0
 62
     7
370
    50
100
AcDbCircle
 10
361.493745
 20
-35.976141
 30
0.0
 40
2.500000000000057
100
AcDbArc
 50
0.0
 51
90.0
  0
ARC
  5
8D
330
1F
100
AcDbEntity
  8
LC-001-100-D00-0
 62
     7
370
    50
100
AcDbCircle
 10
342.493745
 20
-63.976141
 30
0.0
 40
3.0
100
AcDbArc
 50
0.0
 51
180.0
  0
LINE
  5
8E
330
1F
100
AcDbEntity
  8
LC-001-100-D00-0
 62
     7
370
    50
100
AcDbLine
 10
333.493745
 20
-51.976141
 30
0.0
 11
303.493746
 21
-51.976141
 31
0.0
  0
ARC
  5
8F
330
1F
100
AcDbEntity
  8
LC-001-100-D00-0
 62
     7
370
    50
100
AcDbCircle
 10
318.493745
 20
-78.976141
 30
0.0
 40
89.00000000000011
100
AcDbArc
 50
0.0
 51
180.0
  0
ARC
  5
90
330
1F
100
AcDbEntity
  8
LC-001-100-D00-0
 62
     7
370
    50
100
AcDbCircle
 10
318.493745
 20
-78.976141
 30
0.0
 40
91.31000000000006
100
AcDbArc
 50
0.0
 51
180.0
  0
ARC
  5
91
330
1F
100
AcDbEntity
  8
LC-001-100-D00-0
 62
     7
370
    50
100
AcDbCircle
 10
318.493745
 20
-78.976141
 30
0.0
 40
135.0000000000001
100
AcDbArc
 50
0.0
 51
180.0
  0
ARC
  5
92
330
1F
100
AcDbEntity
  8
LC-001-100-D00-0
 62
     7
370
    50
100
AcDbCircle
 10
360.369363
 20
59.845445
 30
0.0
 40
7.00000000000002
100
AcDbArc
 50
73.214031
 51
253.214031
  0
ARC
  5
93
330
1F
100
AcDbEntity
  8
LC-001-100-D00-0
 62
     7
370
    50
100
AcDbCircle
 10
360.369363
 20
59.845445
 30
0.0
 40
5.908089297201427
100
AcDbArc
 50
73.214031
 51
253.214031
  0
ARC
  5
94
330
1F
100
AcDbEntity
  8
LC-001-100-D00-0
 62
     7
370
    50
100
AcDbCircle
 10
453.04083
 20
-24.919856
 30
0.0
 40
7.000000000000117
100
AcDbArc
 50
201.888526
 51
21.888526
  0
ARC
  5
95
330
1F
100
AcDbEntity
  8
LC-001-100-D00-0
 62
     7
370
    50
100
AcDbCircle
 10
453.04083
 20
-24.919856
 30
0.0
 40
5.908089297201408
100
AcDbArc
 50
201.888526
 51
21.888526
  0
ARC
  5
96
330
1F
100
AcDbEntity
  8
LC-001-100-D00-0
 62
     7
370
    50
100
AcDbCircle
 10
318.493745
 20
-78.976141
 30
0.0
 40
137.9999999999998
100
AcDbArc
 50
66.888526
 51
73.214031
  0
ARC
  5
97
330
1F
100
AcDbEntity
  8
LC-001-100-D00-0
 62
     7
370
    50
100
AcDbCircle
 10
318.493745
 20
-78.976141
 30
0.0
 40
139.0919107027985
100
AcDbArc
 50
66.888526
 51
73.214031
  0
ARC
  5
98
330
1F
100
AcDbEntity
  8
LC-001-100-D00-0
 62
     7
370
    50
100
AcDbCircle
 10
318.493745
 20
-78.976141
 30
0.0
 40
151.9999999999999
100
AcDbArc
 50
66.888526
 51
73.214031
  0
ARC
  5
99
330
1F
100
AcDbEntity
  8
LC-001-100-D00-0
 62
     7
370
    50
100
AcDbCircle
 10
318.493745
 20
-78.976141
 30
0.0
 40
150.9080892972013
100
AcDbArc
 50
66.888526
 51
73.214031
  0
ARC
  5
9A
330
1F
100
AcDbEntity
  8
LC-001-100-D00-0
 62
     7
370
    50
100
AcDbCircle
 10
212.640058
 20
20.119756
 30
0.0
 40
7.000000000000018
100
AcDbArc
 50
316.888526
 51
136.888526
  0
ARC
  5
9B
330
1F
100
AcDbEntity
  8
LC-001-100-D00-0
 62
     7
370
    50
100
AcDbCircle
 10
212.640058
 20
20.119756
 30
0.0
 40
5.908089297201444
100
AcDbArc
 50
316.888526
 51
136.888526
  0
ARC
  5
9C
330
1F
100
AcDbEntity
  8
LC-001-100-D00-0
 62
     7
370
    50
100
AcDbCircle
 10
318.493745
 20
-78.976141
 30
0.0
 40
137.9999999999998
100
AcDbArc
 50
136.888526
 51
143.214031
  0
ARC
  5
9D
330
1F
100
AcDbEntity
  8
LC-001-100-D00-0
 62
     7
370
    50
100
AcDbCircle
 10
318.493745
 20
-78.976141
 30
0.0
 40
139.0919107027985
100
AcDbArc
 50
136.888526
 51
143.214031
  0
ARC
  5
9E
330
1F
100
AcDbEntity
  8
LC-001-100-D00-0
 62
     7
370
    50
100
AcDbCircle
 10
202.36643
 20
7.853846
 30
0.0
 40
7.000000000000087
100
AcDbArc
 50
143.214031
 51
323.214031
  0
ARC
  5
9F
330
1F
100
AcDbEntity
  8
LC-001-100-D00-0
 62
     7
370
    50
100
AcDbCircle
 10
202.36643
 20
7.853846
 30
0.0
 40
5.908089297201393
100
AcDbArc
 50
143.214031
 51
323.214031
  0
ARC
  5
A0
330
1F
100
AcDbEntity
  8
LC-001-100-D00-0
 62
     7
370
    50
100
AcDbCircle
 10
230.120419
 20
35.981047
 30
0.0
 40
7.471019057874676
100
AcDbArc
 50
331.226493
 51
283.876063
  0
CIRCLE
  5
A1
330
1F
100
AcDbEntity
  8
LC-001-100-D00-0
 62
     7
370
    50
100
AcDbCircle
 10
230.120419
 20
35.981047
 30
0.0
 40
8.000000000000057
  0
ARC
  5
A2
330
1F
100
AcDbEntity
  8
LC-001-100-D00-0
 62
     7
370
    50
100
AcDbCircle
 10
318.493745
 20
-78.976141
 30
0.0
 40
137.9999999999999
100
AcDbArc
 50
21.888526
 51
28.214031
  0
ARC
  5
A3
330
1F
100
AcDbEntity
  8
LC-001-100-D00-0
 62
     7
370
    50
100
AcDbCircle
 10
318.493745
 20
-78.976141
 30
0.0
 40
139.0919107027985
100
AcDbArc
 50
21.888526
 51
28.214031
  0
ARC
  5
A4
330
1F
100
AcDbEntity
  8
LC-001-100-D00-0
 62
     7
370
    50
100
AcDbCircle
 10
446.265963
 20
-10.424989
 30
0.0
 40
7.000000000000122
100
AcDbArc
 50
28.214031
 51
208.214031
  0
ARC
  5
A5
330
1F
100
AcDbEntity
  8
LC-001-100-D00-0
 62
     7
370
    50
100
AcDbCircle
 10
446.265963
 20
-10.424989
 30
0.0
 40
5.908089297201574
100
AcDbArc
 50
28.214031
 51
208.214031
  0
ARC
  5
A6
330
1F
100
AcDbEntity
  8
LC-001-100-D00-0
 62
     7
370
    50
100
AcDbCircle
 10
318.493745
 20
-78.976141
 30
0.0
 40
151.9999999999999
100
AcDbArc
 50
21.888526
 51
28.214031
  0
ARC
  5
A7
330
1F
100
AcDbEntity
  8
LC-001-100-D00-0
 62
     7
370
    50
100
AcDbCircle
 10
318.493745
 20
-78.976141
 30
0.0
 40
150.9080892972012
100
AcDbArc
 50
21.888526
 51
28.214031
  0
ARC
  5
A8
330
1F
100
AcDbEntity
  8
LC-001-100-D00-0
 62
     7
370
    50
100
AcDbCircle
 10
375.409336
 20
54.38658
 30
0.0
 40
7.000000000000044
100
AcDbArc
 50
246.888526
 51
66.888526
  0
ARC
  5
A9
330
1F
100
AcDbEntity
  8
LC-001-100-D00-0
 62
     7
370
    50
100
AcDbCircle
 10
375.409336
 20
54.38658
 30
0.0
 40
5.908089297201501
100
AcDbArc
 50
246.888526
 51
66.888526
  0
ARC
  5
AA
330
1F
100
AcDbEntity
  8
LC-001-100-D00-0
 62
     7
370
    50
100
AcDbCircle
 10
318.493745
 20
-78.976141
 30
0.0
 40
151.9999999999999
100
AcDbArc
 50
1.888526
 51
8.214031
  0
ARC
  5
AB
330
1F
100
AcDbEntity
  8
LC-001-100-D00-0
 62
     7
370
    50
100
AcDbCircle
 10
318.493745
 20
-78.976141
 30
0.0
 40
150.9080892972013
100
AcDbArc
 50
1.888526
 51
8.214031
  0
ARC
  5
AC
330
1F
100
AcDbEntity
  8
LC-001-100-D00-0
 62
     7
370
    50
100
AcDbCircle
 10
417.589643
 20
26.877546
 30
0.0
 40
7.000000000000198
100
AcDbArc
 50
226.888526
 51
46.888526
  0
ARC
  5
AD
330
1F
100
AcDbEntity
  8
LC-001-100-D00-0
 62
     7
370
    50
100
AcDbCircle
 10
417.589643
 20
26.877546
 30
0.0
 40
5.908089297201464
100
AcDbArc
 50
226.888526
 51
46.888526
  0
ARC
  5
AE
330
1F
100
AcDbEntity
  8
LC-001-100-D00-0
 62
     7
370
    50
100
AcDbCircle
 10
249.942594
 20
48.796076
 30
0.0
 40
7.000000000000047
100
AcDbArc
 50
118.214031
 51
298.214031
  0
ARC
  5
AF
330
1F
100
AcDbEntity
  8
LC-001-100-D00-0
 62
     7
370
    50
100
AcDbCircle
 10
249.942594
 20
48.796076
 30
0.0
 40
5.908089297201421
100
AcDbArc
 50
118.214031
 51
298.214031
  0
ARC
  5
B0
330
1F
100
AcDbEntity
  8
LC-001-100-D00-0
 62
     7
370
    50
100
AcDbCircle
 10
318.493745
 20
-78.976141
 30
0.0
 40
137.9999999999998
100
AcDbArc
 50
46.888526
 51
53.214031
  0
ARC
  5
B1
330
1F
100
AcDbEntity
  8
LC-001-100-D00-0
 62
     7
370
    50
100
AcDbCircle
 10
318.493745
 20
-78.976141
 30
0.0
 40
139.0919107027984
100
AcDbArc
 50
46.888526
 51
53.214031
  0
ARC
  5
B2
330
1F
100
AcDbEntity
  8
LC-001-100-D00-0
 62
     7
370
    50
100
AcDbCircle
 10
433.450934
 20
9.397185
 30
0.0
 40
7.471019057874687
100
AcDbArc
 50
241.226493
 51
193.876063
  0
CIRCLE
  5
B3
330
1F
100
AcDbEntity
  8
LC-001-100-D00-0
 62
     7
370
    50
100
AcDbCircle
 10
433.450934
 20
9.397185
 30
0.0
 40
8.0
  0
ARC
  5
B4
330
1F
100
AcDbEntity
  8
LC-001-100-D00-0
 62
     7
370
    50
100
AcDbCircle
 10
337.291375
 20
64.800245
 30
0.0
 40
7.471019057874631
100
AcDbArc
 50
286.226493
 51
238.876063
  0
CIRCLE
  5
B5
330
1F
100
AcDbEntity
  8
LC-001-100-D00-0
 62
     7
370
    50
100
AcDbCircle
 10
337.291375
 20
64.800245
 30
0.0
 40
8.000000000000057
  0
ARC
  5
B6
330
1F
100
AcDbEntity
  8
LC-001-100-D00-0
 62
     7
370
    50
100
AcDbCircle
 10
318.493745
 20
-78.976141
 30
0.0
 40
151.9999999999999
100
AcDbArc
 50
46.888526
 51
53.214031
  0
ARC
  5
B7
330
1F
100
AcDbEntity
  8
LC-001-100-D00-0
 62
     7
370
    50
100
AcDbCircle
 10
318.493745
 20
-78.976141
 30
0.0
 40
150.9080892972012
100
AcDbArc
 50
46.888526
 51
53.214031
  0
ARC
  5
B8
330
1F
100
AcDbEntity
  8
LC-001-100-D00-0
 62
     7
370
    50
100
AcDbCircle
 10
318.493745
 20
-78.976141
 30
0.0
 40
151.9999999999999
100
AcDbArc
 50
136.888526
 51
143.214031
  0
ARC
  5
B9
330
1F
100
AcDbEntity
  8
LC-001-100-D00-0
 62
     7
370
    50
100
AcDbCircle
 10
318.493745
 20
-78.976141
 30
0.0
 40
150.9080892972013
100
AcDbArc
 50
136.888526
 51
143.214031
  0
ARC
  5
BA
330
1F
100
AcDbEntity
  8
LC-001-100-D00-0
 62
     7
370
    50
100
AcDbCircle
 10
313.715267
 20
65.9451
 30
0.0
 40
7.000000000000076
100
AcDbArc
 50
271.888526
 51
91.888526
  0
ARC
  5
BB
330
1F
100
AcDbEntity
  8
LC-001-100-D00-0
 62
     7
370
    50
100
AcDbCircle
 10
313.715267
 20
65.9451
 30
0.0
 40
5.908089297201443
100
AcDbArc
 50
271.888526
 51
91.888526
  0
ARC
  5
BC
330
1F
100
AcDbEntity
  8
LC-001-100-D00-0
 62
     7
370
    50
100
AcDbCircle
 10
318.493745
 20
-78.976141
 30
0.0
 40
137.9999999999999
100
AcDbArc
 50
91.888526
 51
98.214031
  0
ARC
  5
BD
330
1F
100
AcDbEntity
  8
LC-001-100-D00-0
 62
     7
370
    50
100
AcDbCircle
 10
318.493745
 20
-78.976141
 30
0.0
 40
139.0919107027984
100
AcDbArc
 50
91.888526
 51
98.214031
  0
ARC
  5
BE
330
1F
100
AcDbEntity
  8
LC-001-100-D00-0
 62
     7
370
    50
100
AcDbCircle
 10
463.414987
 20
-74.197663
 30
0.0
 40
7.000000000000132
100
AcDbArc
 50
181.888526
 51
223.050274
  0
ARC
  5
BF
330
1F
100
AcDbEntity
  8
LC-001-100-D00-0
 62
     7
370
    50
100
AcDbCircle
 10
463.414987
 20
-74.197663
 30
0.0
 40
5.908089297201499
100
AcDbArc
 50
181.888526
 51
233.979119
  0
ARC
  5
C0
330
1F
100
AcDbEntity
  8
LC-001-100-D00-0
 62
     7
370
    50
100
AcDbCircle
 10
318.493745
 20
-78.976141
 30
0.0
 40
137.9999999999999
100
AcDbArc
 50
1.888526
 51
8.214031
  0
ARC
  5
C1
330
1F
100
AcDbEntity
  8
LC-001-100-D00-0
 62
     7
370
    50
100
AcDbCircle
 10
318.493745
 20
-78.976141
 30
0.0
 40
139.0919107027984
100
AcDbArc
 50
1.888526
 51
8.214031
  0
ARC
  5
C2
330
1F
100
AcDbEntity
  8
LC-001-100-D00-0
 62
     7
370
    50
100
AcDbCircle
 10
462.00623
 20
-58.259802
 30
0.0
 40
7.000000000000034
100
AcDbArc
 50
8.214031
 51
188.214031
  0
ARC
  5
C3
330
1F
100
AcDbEntity
  8
LC-001-100-D00-0
 62
     7
370
    50
100
AcDbCircle
 10
462.00623
 20
-58.259802
 30
0.0
 40
5.908089297201481
100
AcDbArc
 50
8.214031
 51
188.214031
  0
ARC
  5
C4
330
1F
100
AcDbEntity
  8
LC-001-100-D00-0
 62
     7
370
    50
100
AcDbCircle
 10
318.493745
 20
-78.976141
 30
0.0
 40
151.9999999999999
100
AcDbArc
 50
111.888526
 51
118.214031
  0
ARC
  5
C5
330
1F
100
AcDbEntity
  8
LC-001-100-D00-0
 62
     7
370
    50
100
AcDbCircle
 10
318.493745
 20
-78.976141
 30
0.0
 40
150.9080892972013
100
AcDbArc
 50
111.888526
 51
118.214031
  0
ARC
  5
C6
330
1F
100
AcDbEntity
  8
LC-001-100-D00-0
 62
     7
370
    50
100
AcDbCircle
 10
405.323733
 20
37.151174
 30
0.0
 40
7.00000000000007
100
AcDbArc
 50
53.214031
 51
233.214031
  0
ARC
  5
C7
330
1F
100
AcDbEntity
  8
LC-001-100-D00-0
 62
     7
370
    50
100
AcDbCircle
 10
405.323733
 20
37.151174
 30
0.0
 40
5.908089297201454
100
AcDbArc
 50
53.214031
 51
233.214031
  0
ARC
  5
C8
330
1F
100
AcDbEntity
  8
LC-001-100-D00-0
 62
     7
370
    50
100
AcDbCircle
 10
185.131024
 20
-22.060551
 30
0.0
 40
7.00000000000002
100
AcDbArc
 50
336.888526
 51
156.888526
  0
ARC
  5
C9
330
1F
100
AcDbEntity
  8
LC-001-100-D00-0
 62
     7
370
    50
100
AcDbCircle
 10
185.131024
 20
-22.060551
 30
0.0
 40
5.908089297201387
100
AcDbArc
 50
336.888526
 51
156.888526
  0
ARC
  5
CA
330
1F
100
AcDbEntity
  8
LC-001-100-D00-0
 62
     7
370
    50
100
AcDbCircle
 10
179.67216
 20
-37.100524
 30
0.0
 40
7.000000000000028
100
AcDbArc
 50
163.214031
 51
343.214031
  0
ARC
  5
CB
330
1F
100
AcDbEntity
  8
LC-001-100-D00-0
 62
     7
370
    50
100
AcDbCircle
 10
179.67216
 20
-37.100524
 30
0.0
 40
5.908089297201364
100
AcDbArc
 50
163.214031
 51
343.214031
  0
ARC
  5
CC
330
1F
100
AcDbEntity
  8
LC-001-100-D00-0
 62
     7
370
    50
100
AcDbCircle
 10
297.777406
 20
64.536343
 30
0.0
 40
6.999999999999973
100
AcDbArc
 50
98.214031
 51
278.214031
  0
ARC
  5
CD
330
1F
100
AcDbEntity
  8
LC-001-100-D00-0
 62
     7
370
    50
100
AcDbCircle
 10
297.777406
 20
64.536343
 30
0.0
 40
5.908089297201425
100
AcDbArc
 50
98.214031
 51
278.214031
  0
ARC
  5
CE
330
1F
100
AcDbEntity
  8
LC-001-100-D00-0
 62
     7
370
    50
100
AcDbCircle
 10
318.493745
 20
-78.976141
 30
0.0
 40
151.9999999999999
100
AcDbArc
 50
91.888526
 51
98.214031
  0
ARC
  5
CF
330
1F
100
AcDbEntity
  8
LC-001-100-D00-0
 62
     7
370
    50
100
AcDbCircle
 10
318.493745
 20
-78.976141
 30
0.0
 40
150.9080892972013
100
AcDbArc
 50
91.888526
 51
98.214031
  0
ARC
  5
D0
330
1F
100
AcDbEntity
  8
LC-001-100-D00-0
 62
     7
370
    50
100
AcDbCircle
 10
264.437461
 20
55.570944
 30
0.0
 40
7.000000000000017
100
AcDbArc
 50
291.888526
 51
111.888526
  0
ARC
  5
D1
330
1F
100
AcDbEntity
  8
LC-001-100-D00-0
 62
     7
370
    50
100
AcDbCircle
 10
264.437461
 20
55.570944
 30
0.0
 40
5.908089297201397
100
AcDbArc
 50
291.888526
 51
111.888526
  0
ARC
  5
D2
330
1F
100
AcDbEntity
  8
LC-001-100-D00-0
 62
     7
370
    50
100
AcDbCircle
 10
318.493745
 20
-78.976141
 30
0.0
 40
137.9999999999999
100
AcDbArc
 50
111.888526
 51
118.214031
  0
ARC
  5
D3
330
1F
100
AcDbEntity
  8
LC-001-100-D00-0
 62
     7
370
    50
100
AcDbCircle
 10
318.493745
 20
-78.976141
 30
0.0
 40
139.0919107027985
100
AcDbArc
 50
111.888526
 51
118.214031
  0
ARC
  5
D4
330
1F
100
AcDbEntity
  8
LC-001-100-D00-0
 62
     7
370
    50
100
AcDbCircle
 10
318.493745
 20
-78.976141
 30
0.0
 40
151.9999999999999
100
AcDbArc
 50
156.888526
 51
163.214031
  0
ARC
  5
D5
330
1F
100
AcDbEntity
  8
LC-001-100-D00-0
 62
     7
370
    50
100
AcDbCircle
 10
318.493745
 20
-78.976141
 30
0.0
 40
150.9080892972013
100
AcDbArc
 50
156.888526
 51
163.214031
  0
ARC
  5
D6
330
1F
100
AcDbEntity
  8
LC-001-100-D00-0
 62
     7
370
    50
100
AcDbCircle
 10
174.71736
 20
-60.178512
 30
0.0
 40
7.471019057874631
100
AcDbArc
 50
16.226493
 51
328.876063
  0
CIRCLE
  5
D7
330
1F
100
AcDbEntity
  8
LC-001-100-D00-0
 62
     7
370
    50
100
AcDbCircle
 10
174.71736
 20
-60.178512
 30
0.0
 40
8.000000000000057
  0
ARC
  5
D8
330
1F
100
AcDbEntity
  8
LC-001-100-D00-0
 62
     7
370
    50
100
AcDbCircle
 10
318.493745
 20
-78.976141
 30
0.0
 40
137.9999999999998
100
AcDbArc
 50
156.888526
 51
163.214031
  0
ARC
  5
D9
330
1F
100
AcDbEntity
  8
LC-001-100-D00-0
 62
     7
370
    50
100
AcDbCircle
 10
318.493745
 20
-78.976141
 30
0.0
 40
139.0919107027985
100
AcDbArc
 50
156.888526
 51
163.214031
  0
CIRCLE
  5
DA
330
1F
100
AcDbEntity
  8
LC-001-100-D00-0
 62
     7
370
    50
100
AcDbCircle
 10
280.83965
 20
61.04946
 30
0.0
 40
5.000000000000227
  0
CIRCLE
  5
DB
330
1F
100
AcDbEntity
  8
LC-001-100-D00-0
 62
     7
370
    50
100
AcDbCircle
 10
458.519347
 20
-41.322045
 30
0.0
 40
5.000000000000227
  0
ARC
  5
DC
330
1F
100
AcDbEntity
  8
LC-001-100-D00-0
 62
     7
370
    50
100
AcDbCircle
 10
318.493745
 20
-78.976141
 30
0.0
 40
157.5000000000001
100
AcDbArc
 50
0.0
 51
180.0
  0
CIRCLE
  5
DD
330
1F
100
AcDbEntity
  8
LC-001-100-D00-0
 62
     7
370
    50
100
AcDbCircle
 10
458.519347
 20
-41.322045
 30
0.0
 40
2.0
  0
CIRCLE
  5
DE
330
1F
100
AcDbEntity
  8
LC-001-100-D00-0
 62
     7
370
    50
100
AcDbCircle
 10
280.83965
 20
61.04946
 30
0.0
 40
2.000000000000057
  0
LINE
  5
DF
330
1F
100
AcDbEntity
  8
LC-001-100-D00-0
 62
     7
370
    50
100
AcDbLine
 10
178.684138
 20
-63.722668
 30
0.0
 11
181.112938
 21
-64.040215
 31
0.0
  0
INSERT
  5
EF
330
1F
100
AcDbEntity
  8
LC-001-100-D00-0
 62
     7
370
    50
100
AcDbBlockReference
  2
POLY1
 10
0.0
 20
0.0
 30
0.0
  0
LINE
  5
F0
330
1F
100
AcDbEntity
  8
LC-001-100-D00-0
 62
     7
370
    50
100
AcDbLine
 10
181.890764
 20
-58.090847
 30
0.0
 11
179.461964
 21
-57.773301
 31
0.0
  0
LINE
  5
F1
330
1F
100
AcDbEntity
  8
LC-001-100-D00-0
 62
     7
370
    50
100
AcDbLine
 10
428.139903
 20
9.098349
 30
0.0
 11
426.197947
 21
7.605469
 31
0.0
  0
INSERT
  5
101
330
1F
100
AcDbEntity
  8
LC-001-100-D00-0
 62
     7
370
    50
100
AcDbBlockReference
  2
POLY2
 10
0.0
 20
0.0
 30
0.0
  0
LINE
  5
102
330
1F
100
AcDbEntity
  8
LC-001-100-D00-0
 62
     7
370
    50
100
AcDbLine
 10
429.854773
 20
2.848616
 30
0.0
 11
431.79673
 21
4.341496
 31
0.0
  0
LINE
  5
103
330
1F
100
AcDbEntity
  8
LC-001-100-D00-0
 62
     7
370
    50
100
AcDbLine
 10
333.747218
 20
60.833467
 30
0.0
 11
333.429672
 21
58.404667
 31
0.0
  0
INSERT
  5
113
330
1F
100
AcDbEntity
  8
LC-001-100-D00-0
 62
     7
370
    50
100
AcDbBlockReference
  2
POLY3
 10
0.0
 20
0.0
 30
0.0
  0
LINE
  5
114
330
1F
100
AcDbEntity
  8
LC-001-100-D00-0
 62
     7
370
    50
100
AcDbLine
 10
339.37904
 20
57.626842
 30
0.0
 11
339.696587
 21
60.055641
 31
0.0
  0
LINE
  5
115
330
1F
100
AcDbEntity
  8
LC-001-100-D00-0
 62
     7
370
    50
100
AcDbLine
 10
230.419256
 20
30.670015
 30
0.0
 11
231.912137
 21
28.728059
 31
0.0
  0
INSERT
  5
125
330
1F
100
AcDbEntity
  8
LC-001-100-D00-0
 62
     7
370
    50
100
AcDbBlockReference
  2
POLY4
 10
0.0
 20
0.0
 30
0.0
  0
LINE
  5
126
330
1F
100
AcDbEntity
  8
LC-001-100-D00-0
 62
     7
370
    50
100
AcDbLine
 10
236.668989
 20
32.384885
 30
0.0
 11
235.176109
 21
34.326842
 31
0.0
  0
ARC
  5
127
330
1F
100
AcDbEntity
  8
LC-001-100-D00-0
 62
     7
370
    50
100
AcDbCircle
 10
433.450934
 20
9.397185
 30
0.0
 40
5.355095289373084
100
AcDbArc
 50
251.621885
 51
183.480671
  0
ARC
  5
128
330
1F
100
AcDbEntity
  8
LC-001-100-D00-0
 62
     7
370
    50
100
AcDbCircle
 10
230.120419
 20
35.981047
 30
0.0
 40
5.355095289373014
100
AcDbArc
 50
341.621885
 51
273.480671
  0
ARC
  5
129
330
1F
100
AcDbEntity
  8
LC-001-100-D00-0
 62
     7
370
    50
100
AcDbCircle
 10
174.71736
 20
-60.178512
 30
0.0
 40
5.355095289373036
100
AcDbArc
 50
26.621885
 51
318.480671
  0
ARC
  5
12A
330
1F
100
AcDbEntity
  8
LC-001-100-D00-0
 62
     7
370
    50
100
AcDbCircle
 10
337.291375
 20
64.800245
 30
0.0
 40
5.355095289373036
100
AcDbArc
 50
296.621885
 51
228.480671
  0
LINE
  5
12B
330
1F
100
AcDbEntity
  8
LC-001-100-D00-0
 62
     7
370
    50
100
AcDbLine
 10
322.399272
 20
-69.893796
 30
0.0
 11
322.325232
 21
-69.811343
 31
0.0
  0
INSERT
  5
13B
330
1F
100
AcDbEntity
  8
LC-001-100-D00-0
 62
     7
370
    50
100
AcDbBlockReference
  2
POLY5
 10
0.0
 20
0.0
 30
0.0
  0
INSERT
  5
14B
330
1F
100
AcDbEntity
  8
LC-001-100-D00-0
 62
     7
370
    50
100
AcDbBlockReference
  2
POLY6
 10
0.0
 20
0.0
 30
0.0
  0
INSERT
  5
159
330
1F
100
AcDbEntity
  8
LC-001-100-D00-0
 62
     7
370
    50
100
AcDbBlockReference
  2
POLY7
 10
0.0
 20
0.0
 30
0.0
  0
INSERT
  5
165
330
1F
100
AcDbEntity
  8
LC-001-100-D00-0
 62
     7
370
    50
100
AcDbBlockReference
  2
POLY8
 10
0.0
 20
0.0
 30
0.0
  0
LINE
  5
166
330
1F
100
AcDbEntity
  8
LC-001-100-D00-0
 62
     7
370
    50
100
AcDbLine
 10
314.661024
 20
-68.921486
 30
0.0
 11
314.661024
 21
-69.184904
 31
0.0
  0
LINE
  5
167
330
1F
100
AcDbEntity
  8
LC-001-100-D00-0
 62
     7
370
    50
100
AcDbLine
 10
314.661024
 20
-69.184904
 30
0.0
 11
314.344923
 21
-69.184904
 31
0.0
  0
LINE
  5
168
330
1F
100
AcDbEntity
  8
LC-001-100-D00-0
 62
     7
370
    50
100
AcDbLine
 10
314.344923
 20
-69.184904
 30
0.0
 11
314.344923
 21
-68.921486
 31
0.0
  0
LINE
  5
169
330
1F
100
AcDbEntity
  8
LC-001-100-D00-0
 62
     7
370
    50
100
AcDbLine
 10
314.344923
 20
-68.921486
 30
0.0
 11
314.661024
 21
-68.921486
 31
0.0
  0
LINE
  5
16A
330
1F
100
AcDbEntity
  8
LC-001-100-D00-0
 62
     7
370
    50
100
AcDbLine
 10
314.344923
 20
-69.474663
 30
0.0
 11
314.661024
 21
-69.474663
 31
0.0
  0
LINE
  5
16B
330
1F
100
AcDbEntity
  8
LC-001-100-D00-0
 62
     7
370
    50
100
AcDbLine
 10
314.661024
 20
-69.474663
 30
0.0
 11
314.661024
 21
-69.957634
 31
0.0
  0
LINE
  5
16C
330
1F
100
AcDbEntity
  8
LC-001-100-D00-0
 62
     7
370
    50
100
AcDbLine
 10
314.344923
 20
-69.90514
 30
0.0
 11
314.344923
 21
-69.474663
 31
0.0
  0
LINE
  5
16D
330
1F
100
AcDbEntity
  8
LC-001-100-D00-0
 62
     7
370
    50
100
AcDbLine
 10
315.161516
 20
-69.976142
 30
0.0
 11
315.161516
 21
-69.474663
 31
0.0
  0
LINE
  5
16E
330
1F
100
AcDbEntity
  8
LC-001-100-D00-0
 62
     7
370
    50
100
AcDbLine
 10
315.161516
 20
-69.474663
 30
0.0
 11
315.477618
 21
-69.474663
 31
0.0
  0
LINE
  5
16F
330
1F
100
AcDbEntity
  8
LC-001-100-D00-0
 62
     7
370
    50
100
AcDbLine
 10
315.477618
 20
-69.474663
 30
0.0
 11
315.477618
 21
-69.684162
 31
0.0
  0
INSERT
  5
17D
330
1F
100
AcDbEntity
  8
LC-001-100-D00-0
 62
     7
370
    50
100
AcDbBlockReference
  2
POLY9
 10
0.0
 20
0.0
 30
0.0
  0
INSERT
  5
18B
330
1F
100
AcDbEntity
  8
LC-001-100-D00-0
 62
     7
370
    50
100
AcDbBlockReference
  2
POLY10
 10
0.0
 20
0.0
 30
0.0
  0
INSERT
  5
199
330
1F
100
AcDbEntity
  8
LC-001-100-D00-0
 62
     7
370
    50
100
AcDbBlockReference
  2
POLY11
 10
0.0
 20
0.0
 30
0.0
  0
INSERT
  5
1A9
330
1F
100
AcDbEntity
  8
LC-001-100-D00-0
 62
     7
370
    50
100
AcDbBlockReference
  2
POLY12
 10
0.0
 20
0.0
 30
0.0
  0
INSERT
  5
1B5
330
1F
100
AcDbEntity
  8
LC-001-100-D00-0
 62
     7
370
    50
100
AcDbBlockReference
  2
POLY13
 10
0.0
 20
0.0
 30
0.0
  0
LINE
  5
1B6
330
1F
100
AcDbEntity
  8
LC-001-100-D00-0
 62
     7
370
    50
100
AcDbLine
 10
319.507902
 20
-69.922472
 30
0.0
 11
320.614255
 21
-69.922472
 31
0.0
  0
LINE
  5
1B7
330
1F
100
AcDbEntity
  8
LC-001-100-D00-0
 62
     7
370
    50
100
AcDbLine
 10
320.614255
 20
-69.922472
 30
0.0
 11
320.614255
 21
-69.976142
 31
0.0
  0
LINE
  5
1B8
330
1F
100
AcDbEntity
  8
LC-001-100-D00-0
 62
     7
370
    50
100
AcDbLine
 10
320.574742
 20
-69.500593
 30
0.0
 11
320.259464
 21
-69.567271
 31
0.0
  0
INSERT
  5
1C6
330
1F
100
AcDbEntity
  8
LC-001-100-D00-0
 62
     7
370
    50
100
AcDbBlockReference
  2
POLY14
 10
0.0
 20
0.0
 30
0.0
  0
LINE
  5
1C7
330
1F
100
AcDbEntity
  8
LC-001-100-D00-0
 62
     7
370
    50
100
AcDbLine
 10
319.507902
 20
-69.976142
 30
0.0
 11
319.507902
 21
-69.922472
 31
0.0
  0
INSERT
  5
1D7
330
1F
100
AcDbEntity
  8
LC-001-100-D00-0
 62
     7
370
    50
100
AcDbBlockReference
  2
POLY15
 10
0.0
 20
0.0
 30
0.0
  0
INSERT
  5
1E5
330
1F
100
AcDbEntity
  8
LC-001-100-D00-0
 62
     7
370
    50
100
AcDbBlockReference
  2
POLY16
 10
0.0
 20
0.0
 30
0.0
  0
INSERT
  5
1F3
330
1F
100
AcDbEntity
  8
LC-001-100-D00-0
 62
     7
370
    50
100
AcDbBlockReference
  2
POLY17
 10
0.0
 20
0.0
 30
0.0
  0
INSERT
  5
1FF
330
1F
100
AcDbEntity
  8
LC-001-100-D00-0
 62
     7
370
    50
100
AcDbBlockReference
  2
POLY18
 10
0.0
 20
0.0
 30
0.0
  0
LINE
  5
200
330
1F
100
AcDbEntity
  8
LC-001-100-D00-0
 62
     7
370
    50
100
AcDbLine
 10
317.206346
 20
-63.976142
 30
0.0
 11
317.206346
 21
-64.651174
 31
0.0
  0
LINE
  5
201
330
1F
100
AcDbEntity
  8
LC-001-100-D00-0
 62
     7
370
    50
100
AcDbLine
 10
317.206346
 20
-64.651174
 30
0.0
 11
318.481672
 21
-64.651174
 31
0.0
  0
LINE
  5
202
330
1F
100
AcDbEntity
  8
LC-001-100-D00-0
 62
     7
370
    50
100
AcDbLine
 10
316.162897
 20
-63.976142
 30
0.0
 11
316.162897
 21
-65.694623
 31
0.0
  0
LINE
  5
203
330
1F
100
AcDbEntity
  8
LC-001-100-D00-0
 62
     7
370
    50
100
AcDbLine
 10
318.481672
 20
-64.651174
 30
0.0
 11
318.481672
 21
-65.694623
 31
0.0
  0
LINE
  5
204
330
1F
100
AcDbEntity
  8
LC-001-100-D00-0
 62
     7
370
    50
100
AcDbLine
 10
316.162897
 20
-65.694623
 30
0.0
 11
318.481672
 21
-65.694623
 31
0.0
  0
LINE
  5
205
330
1F
100
AcDbEntity
  8
LC-001-100-D00-0
 62
     7
370
    50
100
AcDbLine
 10
318.65558
 20
-65.694623
 30
0.0
 11
320.974356
 21
-65.694623
 31
0.0
  0
LINE
  5
206
330
1F
100
AcDbEntity
  8
LC-001-100-D00-0
 62
     7
370
    50
100
AcDbLine
 10
318.65558
 20
-63.976142
 30
0.0
 11
318.65558
 21
-65.694623
 31
0.0
  0
LINE
  5
207
330
1F
100
AcDbEntity
  8
LC-001-100-D00-0
 62
     7
370
    50
100
AcDbLine
 10
319.699029
 20
-63.976142
 30
0.0
 11
319.699029
 21
-64.651174
 31
0.0
  0
LINE
  5
208
330
1F
100
AcDbEntity
  8
LC-001-100-D00-0
 62
     7
370
    50
100
AcDbLine
 10
319.699029
 20
-64.651174
 30
0.0
 11
320.974356
 21
-64.651174
 31
0.0
  0
LINE
  5
209
330
1F
100
AcDbEntity
  8
LC-001-100-D00-0
 62
     7
370
    50
100
AcDbLine
 10
320.974356
 20
-64.651174
 30
0.0
 11
320.974356
 21
-65.694623
 31
0.0
  0
LINE
  5
20A
330
1F
100
AcDbEntity
  8
LC-001-100-D00-0
 62
     7
370
    50
100
AcDbLine
 10
322.945315
 20
-65.694623
 30
0.0
 11
324.046733
 21
-65.694623
 31
0.0
  0
LINE
  5
20B
330
1F
100
AcDbEntity
  8
LC-001-100-D00-0
 62
     7
370
    50
100
AcDbLine
 10
322.945315
 20
-64.131055
 30
0.0
 11
322.945315
 21
-65.694623
 31
0.0
  0
LINE
  5
20C
330
1F
100
AcDbEntity
  8
LC-001-100-D00-0
 62
     7
370
    50
100
AcDbLine
 10
322.191713
 20
-63.98268
 30
0.0
 11
322.191713
 21
-65.694623
 31
0.0
  0
LINE
  5
20D
330
1F
100
AcDbEntity
  8
LC-001-100-D00-0
 62
     7
370
    50
100
AcDbLine
 10
321.148264
 20
-65.694623
 30
0.0
 11
322.191713
 21
-65.694623
 31
0.0
  0
LINE
  5
20E
330
1F
100
AcDbEntity
  8
LC-001-100-D00-0
 62
     7
370
    50
100
AcDbLine
 10
321.148264
 20
-63.976142
 30
0.0
 11
321.148264
 21
-65.694623
 31
0.0
  0
LINE
  5
20F
330
1F
100
AcDbEntity
  8
LC-001-100-D00-0
 62
     7
370
    50
100
AcDbLine
 10
324.046733
 20
-64.788622
 30
0.0
 11
324.046733
 21
-65.694623
 31
0.0
  0
LINE
  5
210
330
1F
100
AcDbEntity
  8
LC-001-100-D00-0
 62
     7
370
    50
100
AcDbLine
 10
314.539754
 20
-65.694623
 30
0.0
 11
315.583203
 21
-65.694623
 31
0.0
  0
LINE
  5
211
330
1F
100
AcDbEntity
  8
LC-001-100-D00-0
 62
     7
370
    50
100
AcDbLine
 10
314.539754
 20
-64.535227
 30
0.0
 11
314.539754
 21
-65.694623
 31
0.0
  0
LINE
  5
212
330
1F
100
AcDbEntity
  8
LC-001-100-D00-0
 62
     7
370
    50
100
AcDbLine
 10
313.496305
 20
-64.535227
 30
0.0
 11
314.539754
 21
-64.535227
 31
0.0
  0
LINE
  5
213
330
1F
100
AcDbEntity
  8
LC-001-100-D00-0
 62
     7
370
    50
100
AcDbLine
 10
313.496305
 20
-64.535227
 30
0.0
 11
313.496305
 21
-65.694623
 31
0.0
  0
LINE
  5
214
330
1F
100
AcDbEntity
  8
LC-001-100-D00-0
 62
     7
370
    50
100
AcDbLine
 10
312.452856
 20
-65.694623
 30
0.0
 11
313.496305
 21
-65.694623
 31
0.0
  0
LINE
  5
215
330
1F
100
AcDbEntity
  8
LC-001-100-D00-0
 62
     7
370
    50
100
AcDbLine
 10
312.452856
 20
-65.381186
 30
0.0
 11
312.452856
 21
-65.694623
 31
0.0
  0
LINE
  5
216
330
1F
100
AcDbEntity
  8
LC-001-100-D00-0
 62
     7
370
    50
100
AcDbLine
 10
315.583203
 20
-63.976142
 30
0.0
 11
315.583203
 21
-65.694623
 31
0.0
  0
LINE
  5
217
330
1F
100
AcDbEntity
  8
LC-001-100-D00-0
 62
     7
370
    50
100
AcDbLine
 10
323.169403
 20
-69.736183
 30
0.0
 11
323.169403
 21
-69.474663
 31
0.0
  0
LINE
  5
218
330
1F
100
AcDbEntity
  8
LC-001-100-D00-0
 62
     7
370
    50
100
AcDbLine
 10
323.169403
 20
-69.474663
 30
0.0
 11
323.43282
 21
-69.474663
 31
0.0
  0
LINE
  5
219
330
1F
100
AcDbEntity
  8
LC-001-100-D00-0
 62
     7
370
    50
100
AcDbLine
 10
323.43282
 20
-69.474663
 30
0.0
 11
323.43282
 21
-69.608453
 31
0.0
  0
ARC
  5
21A
330
1F
100
AcDbEntity
  8
LC-001-100-D00-0
 62
     7
370
    50
100
AcDbCircle
 10
318.493745
 20
-78.976141
 30
0.0
 40
39.50000000000002
100
AcDbArc
 50
56.661999
 51
80.873941
  0
ARC
  5
21B
330
1F
100
AcDbEntity
  8
LC-001-100-D00-0
 62
     7
370
    50
100
AcDbCircle
 10
318.493745
 20
-78.976141
 30
0.0
 40
39.49999999999997
100
AcDbArc
 50
9.126059
 51
33.338001
  0
ARC
  5
21C
330
1F
100
AcDbEntity
  8
LC-001-100-D00-0
 62
     7
370
    50
100
AcDbCircle
 10
318.493745
 20
-78.976141
 30
0.0
 40
39.50000000000003
100
AcDbArc
 50
146.661999
 51
170.873941
  0
ARC
  5
21D
330
1F
100
AcDbEntity
  8
LC-001-100-D00-0
 62
     7
370
    50
100
AcDbCircle
 10
318.493745
 20
-78.976141
 30
0.0
 40
39.5
100
AcDbArc
 50
99.126059
 51
123.338001
  0
LINE
  5
21E
330
1F
100
AcDbEntity
  8
LC-001-100-D00-0
 62
     7
370
    50
100
AcDbLine
 10
169.36227
 20
348.06553
 30
0.0
 11
169.745543
 21
345.891883
 31
0.0
  0
ARC
  5
21F
330
1F
100
AcDbEntity
  8
LC-001-100-D00-0
 62
     7
370
    50
100
AcDbCircle
 10
170.730345
 20
346.065531
 30
0.0
 40
0.9999999999999931
100
AcDbArc
 50
190.0
 51
270.0
  0
LINE
  5
220
330
1F
100
AcDbEntity
  8
LC-001-100-D00-0
 62
     7
370
    50
100
AcDbLine
 10
182.657458
 20
345.805028
 30
0.0
 11
185.166665
 21
360.065532
 31
0.0
  0
ARC
  5
221
330
1F
100
AcDbEntity
  8
LC-001-100-D00-0
 62
     7
370
    50
100
AcDbCircle
 10
181.704032
 20
346.065551
 30
0.0
 40
1.000019060009612
100
AcDbArc
 50
270.000314
 51
348.965274
  0
LINE
  5
222
330
1F
100
AcDbEntity
  8
LC-001-100-D00-0
 62
     7
370
    50
100
AcDbLine
 10
438.422755
 20
345.891883
 30
0.0
 11
438.806028
 21
348.06553
 31
0.0
  0
ARC
  5
223
330
1F
100
AcDbEntity
  8
LC-001-100-D00-0
 62
     7
370
    50
100
AcDbCircle
 10
437.437949
 20
346.065531
 30
0.0
 40
1.0
100
AcDbArc
 50
270.0
 51
350.0
  0
LINE
  5
224
330
1F
100
AcDbEntity
  8
LC-001-100-D00-0
 62
     7
370
    50
100
AcDbLine
 10
423.895285
 20
360.063871
 30
0.0
 11
425.93623
 21
345.922654
 31
0.0
  0
ARC
  5
225
330
1F
100
AcDbEntity
  8
LC-001-100-D00-0
 62
     7
370
    50
100
AcDbCircle
 10
426.925762
 20
346.065531
 30
0.0
 40
1.000000000000046
100
AcDbArc
 50
188.216986
 51
270.0
  0
LINE
  5
226
330
1F
100
AcDbEntity
  8
LC-001-100-D00-0
 62
     7
370
    50
100
AcDbLine
 10
224.765324
 20
348.06553
 30
0.0
 11
225.148596
 21
345.891883
 31
0.0
  0
INSERT
  5
232
330
1F
100
AcDbEntity
  8
LC-001-100-D00-0
 62
     7
370
    50
100
AcDbBlockReference
  2
POLY19
 10
0.0
 20
0.0
 30
0.0
  0
ARC
  5
233
330
1F
100
AcDbEntity
  8
LC-001-100-D00-0
 62
     7
370
    50
100
AcDbCircle
 10
226.133404
 20
346.065531
 30
0.0
 40
1.000000000000059
100
AcDbArc
 50
190.0
 51
270.0
  0
ARC
  5
234
330
1F
100
AcDbEntity
  8
LC-001-100-D00-0
 62
     7
370
    50
100
AcDbCircle
 10
235.785199
 20
346.065531
 30
0.0
 40
1.0
100
AcDbArc
 50
270.0
 51
353.665463
  0
ARC
  5
235
330
1F
100
AcDbEntity
  8
LC-001-100-D00-0
 62
     7
370
    50
100
AcDbCircle
 10
309.493745
 20
393.765531
 30
0.0
 40
1.0
100
AcDbArc
 50
0.0
 51
90.0
  0
ARC
  5
236
330
1F
100
AcDbEntity
  8
LC-001-100-D00-0
 62
     7
370
    50
100
AcDbCircle
 10
327.493745
 20
393.765531
 30
0.0
 40
1.000000000000114
100
AcDbArc
 50
90.0
 51
180.0
  0
LINE
  5
237
330
1F
100
AcDbEntity
  8
LC-001-100-D00-0
 62
     7
370
    50
100
AcDbLine
 10
326.493745
 20
392.265534
 30
0.0
 11
326.493745
 21
393.765529
 31
0.0
  0
LINE
  5
238
330
1F
100
AcDbEntity
  8
LC-001-100-D00-0
 62
     7
370
    50
100
AcDbLine
 10
310.493745
 20
393.765529
 30
0.0
 11
310.493745
 21
392.265534
 31
0.0
  0
ARC
  5
239
330
1F
100
AcDbEntity
  8
LC-001-100-D00-0
 62
     7
370
    50
100
AcDbCircle
 10
286.993745
 20
393.765531
 30
0.0
 40
1.0
100
AcDbArc
 50
0.0
 51
60.0
  0
ARC
  5
23A
330
1F
100
AcDbEntity
  8
LC-001-100-D00-0
 62
     7
370
    50
100
AcDbCircle
 10
349.993745
 20
393.765531
 30
0.0
 40
0.9999999999999836
100
AcDbArc
 50
120.0
 51
180.0
  0
LINE
  5
23B
330
1F
100
AcDbEntity
  8
LC-001-100-D00-0
 62
     7
370
    50
100
AcDbLine
 10
348.993745
 20
392.265534
 30
0.0
 11
348.993745
 21
393.765529
 31
0.0
  0
LINE
  5
23C
330
1F
100
AcDbEntity
  8
LC-001-100-D00-0
 62
     7
370
    50
100
AcDbLine
 10
287.993744
 20
393.765529
 30
0.0
 11
287.993744
 21
392.265534
 31
0.0
  0
LINE
  5
23D
330
1F
100
AcDbEntity
  8
LC-001-100-D00-0
 62
     7
370
    50
100
AcDbLine
 10
302.742893
 20
349.965529
 30
0.0
 11
302.742893
 21
349.865531
 31
0.0
  0
LINE
  5
23E
330
1F
100
AcDbEntity
  8
LC-001-100-D00-0
 62
     7
370
    50
100
AcDbLine
 10
183.493741
 20
362.56553
 30
0.0
 11
183.493741
 21
363.065531
 31
0.0
  0
LINE
  5
23F
330
1F
100
AcDbEntity
  8
LC-001-100-D00-0
 62
     7
370
    50
100
AcDbLine
 10
453.493752
 20
363.065531
 30
0.0
 11
453.493752
 21
362.56553
 31
0.0
  0
LINE
  5
240
330
1F
100
AcDbEntity
  8
LC-001-100-D00-0
 62
     7
370
    50
100
AcDbLine
 10
410.092384
 20
362.56553
 30
0.0
 11
407.782384
 21
358.565529
 31
0.0
  0
LINE
  5
241
330
1F
100
AcDbEntity
  8
LC-001-100-D00-0
 62
     7
370
    50
100
AcDbLine
 10
229.20511
 20
358.565529
 30
0.0
 11
226.895109
 21
362.56553
 31
0.0
  0
LINE
  5
242
330
1F
100
AcDbEntity
  8
LC-001-100-D00-0
 62
     7
370
    50
100
AcDbLine
 10
407.493748
 20
359.06553
 30
0.0
 11
409.803749
 21
363.065531
 31
0.0
  0
LINE
  5
243
330
1F
100
AcDbEntity
  8
LC-001-100-D00-0
 62
     7
370
    50
100
AcDbLine
 10
227.183745
 20
363.065531
 30
0.0
 11
229.493745
 21
359.06553
 31
0.0
  0
LINE
  5
244
330
1F
100
AcDbEntity
  8
LC-001-100-D00-0
 62
     7
370
    50
100
AcDbLine
 10
227.183745
 20
363.065531
 30
0.0
 11
269.493744
 21
363.065531
 31
0.0
  0
LINE
  5
245
330
1F
100
AcDbEntity
  8
LC-001-100-D00-0
 62
     7
370
    50
100
AcDbLine
 10
367.493745
 20
363.065531
 30
0.0
 11
409.803749
 21
363.065531
 31
0.0
  0
LINE
  5
246
330
1F
100
AcDbEntity
  8
LC-001-100-D00-0
 62
     7
370
    50
100
AcDbLine
 10
382.700853
 20
358.565529
 30
0.0
 11
378.493745
 21
354.358425
 31
0.0
  0
LINE
  5
247
330
1F
100
AcDbEntity
  8
LC-001-100-D00-0
 62
     7
370
    50
100
AcDbLine
 10
258.493744
 20
354.358425
 30
0.0
 11
254.28664
 21
358.565529
 31
0.0
  0
LINE
  5
248
330
1F
100
AcDbEntity
  8
LC-001-100-D00-0
 62
     7
370
    50
100
AcDbLine
 10
258.493744
 20
354.358425
 30
0.0
 11
305.449186
 21
354.358425
 31
0.0
  0
LINE
  5
249
330
1F
100
AcDbEntity
  8
LC-001-100-D00-0
 62
     7
370
    50
100
AcDbLine
 10
310.16608
 20
354.358425
 30
0.0
 11
326.821412
 21
354.358425
 31
0.0
  0
LINE
  5
24A
330
1F
100
AcDbEntity
  8
LC-001-100-D00-0
 62
     7
370
    50
100
AcDbLine
 10
331.538304
 20
354.358425
 30
0.0
 11
378.493745
 21
354.358425
 31
0.0
  0
LINE
  5
24B
330
1F
100
AcDbEntity
  8
LC-001-100-D00-0
 62
     7
370
    50
100
AcDbLine
 10
378.493745
 20
355.06553
 30
0.0
 11
382.493746
 21
359.06553
 31
0.0
  0
LINE
  5
24C
330
1F
100
AcDbEntity
  8
LC-001-100-D00-0
 62
     7
370
    50
100
AcDbLine
 10
258.493744
 20
355.06553
 30
0.0
 11
305.783846
 21
355.06553
 31
0.0
  0
LINE
  5
24D
330
1F
100
AcDbEntity
  8
LC-001-100-D00-0
 62
     7
370
    50
100
AcDbLine
 10
311.030813
 20
355.06553
 30
0.0
 11
325.956677
 21
355.06553
 31
0.0
  0
LINE
  5
24E
330
1F
100
AcDbEntity
  8
LC-001-100-D00-0
 62
     7
370
    50
100
AcDbLine
 10
331.203645
 20
355.06553
 30
0.0
 11
378.493745
 21
355.06553
 31
0.0
  0
LINE
  5
24F
330
1F
100
AcDbEntity
  8
LC-001-100-D00-0
 62
     7
370
    50
100
AcDbLine
 10
254.493744
 20
359.06553
 30
0.0
 11
258.493744
 21
355.06553
 31
0.0
  0
LINE
  5
250
330
1F
100
AcDbEntity
  8
LC-001-100-D00-0
 62
     7
370
    50
100
AcDbLine
 10
254.493744
 20
359.06553
 30
0.0
 11
310.034298
 21
359.06553
 31
0.0
  0
LINE
  5
251
330
1F
100
AcDbEntity
  8
LC-001-100-D00-0
 62
     7
370
    50
100
AcDbLine
 10
326.953193
 20
359.06553
 30
0.0
 11
382.493746
 21
359.06553
 31
0.0
  0
LINE
  5
252
330
1F
100
AcDbEntity
  8
LC-001-100-D00-0
 62
     7
370
    50
100
AcDbLine
 10
258.493744
 20
355.06553
 30
0.0
 11
258.493744
 21
354.358425
 31
0.0
  0
LINE
  5
253
330
1F
100
AcDbEntity
  8
LC-001-100-D00-0
 62
     7
370
    50
100
AcDbLine
 10
378.493745
 20
354.358425
 30
0.0
 11
378.493745
 21
355.06553
 31
0.0
  0
LINE
  5
254
330
1F
100
AcDbEntity
  8
LC-001-100-D00-0
 62
     7
370
    50
100
AcDbLine
 10
382.493746
 20
359.06553
 30
0.0
 11
407.493748
 21
359.06553
 31
0.0
  0
LINE
  5
255
330
1F
100
AcDbEntity
  8
LC-001-100-D00-0
 62
     7
370
    50
100
AcDbLine
 10
407.782384
 20
358.565529
 30
0.0
 11
382.700853
 21
358.565529
 31
0.0
  0
LINE
  5
256
330
1F
100
AcDbEntity
  8
LC-001-100-D00-0
 62
     7
370
    50
100
AcDbLine
 10
453.493752
 20
362.56553
 30
0.0
 11
410.092384
 21
362.56553
 31
0.0
  0
LINE
  5
257
330
1F
100
AcDbEntity
  8
LC-001-100-D00-0
 62
     7
370
    50
100
AcDbLine
 10
409.803749
 20
363.065531
 30
0.0
 11
453.493752
 21
363.065531
 31
0.0
  0
LINE
  5
258
330
1F
100
AcDbEntity
  8
LC-001-100-D00-0
 62
     7
370
    50
100
AcDbLine
 10
229.493745
 20
359.06553
 30
0.0
 11
254.493744
 21
359.06553
 31
0.0
  0
LINE
  5
259
330
1F
100
AcDbEntity
  8
LC-001-100-D00-0
 62
     7
370
    50
100
AcDbLine
 10
254.28664
 20
358.565529
 30
0.0
 11
229.20511
 21
358.565529
 31
0.0
  0
LINE
  5
25A
330
1F
100
AcDbEntity
  8
LC-001-100-D00-0
 62
     7
370
    50
100
AcDbLine
 10
226.895109
 20
362.56553
 30
0.0
 11
183.493741
 21
362.56553
 31
0.0
  0
LINE
  5
25B
330
1F
100
AcDbEntity
  8
LC-001-100-D00-0
 62
     7
370
    50
100
AcDbLine
 10
183.493741
 20
363.065531
 30
0.0
 11
227.183745
 21
363.065531
 31
0.0
  0
LINE
  5
25C
330
1F
100
AcDbEntity
  8
LC-001-100-D00-0
 62
     7
370
    50
100
AcDbLine
 10
160.993748
 20
360.065532
 30
0.0
 11
160.993748
 21
363.065531
 31
0.0
  0
LINE
  5
25D
330
1F
100
AcDbEntity
  8
LC-001-100-D00-0
 62
     7
370
    50
100
AcDbLine
 10
475.993745
 20
363.065531
 30
0.0
 11
475.993745
 21
360.065532
 31
0.0
  0
LINE
  5
25E
330
1F
100
AcDbEntity
  8
LC-001-100-D00-0
 62
     7
370
    50
100
AcDbLine
 10
409.243748
 20
356.065532
 30
0.0
 11
411.553145
 21
360.065532
 31
0.0
  0
LINE
  5
25F
330
1F
100
AcDbEntity
  8
LC-001-100-D00-0
 62
     7
370
    50
100
AcDbLine
 10
225.434341
 20
360.065532
 30
0.0
 11
227.743745
 21
356.065532
 31
0.0
  0
LINE
  5
260
330
1F
100
AcDbEntity
  8
LC-001-100-D00-0
 62
     7
370
    50
100
AcDbLine
 10
407.782421
 20
358.565529
 30
0.0
 11
410.091825
 21
362.56553
 31
0.0
  0
LINE
  5
261
330
1F
100
AcDbEntity
  8
LC-001-100-D00-0
 62
     7
370
    50
100
AcDbLine
 10
226.895668
 20
362.56553
 30
0.0
 11
229.205072
 21
358.565529
 31
0.0
  0
LINE
  5
262
330
1F
100
AcDbEntity
  8
LC-001-100-D00-0
 62
     7
370
    50
100
AcDbLine
 10
381.493744
 20
353.822888
 30
0.0
 11
383.736387
 21
356.065532
 31
0.0
  0
LINE
  5
263
330
1F
100
AcDbEntity
  8
LC-001-100-D00-0
 62
     7
370
    50
100
AcDbLine
 10
253.251106
 20
356.065532
 30
0.0
 11
255.493746
 21
353.822888
 31
0.0
  0
ARC
  5
264
330
1F
100
AcDbEntity
  8
LC-001-100-D00-0
 62
     7
370
    50
100
AcDbCircle
 10
258.493745
 20
330.365531
 30
0.0
 40
3.0
100
AcDbArc
 50
180.0
 51
270.0
  0
ARC
  5
265
330
1F
100
AcDbEntity
  8
LC-001-100-D00-0
 62
     7
370
    50
100
AcDbCircle
 10
378.493745
 20
330.365531
 30
0.0
 40
3.000000000000057
100
AcDbArc
 50
270.0
 51
0.0
  0
LINE
  5
266
330
1F
100
AcDbEntity
  8
LC-001-100-D00-0
 62
     7
370
    50
100
AcDbLine
 10
381.493744
 20
330.365531
 30
0.0
 11
381.493744
 21
353.822888
 31
0.0
  0
LINE
  5
267
330
1F
100
AcDbEntity
  8
LC-001-100-D00-0
 62
     7
370
    50
100
AcDbLine
 10
255.493746
 20
353.822888
 30
0.0
 11
255.493746
 21
330.365531
 31
0.0
  0
LINE
  5
268
330
1F
100
AcDbEntity
  8
LC-001-100-D00-0
 62
     7
370
    50
100
AcDbLine
 10
378.493745
 20
354.358425
 30
0.0
 11
378.493745
 21
330.365531
 31
0.0
  0
LINE
  5
269
330
1F
100
AcDbEntity
  8
LC-001-100-D00-0
 62
     7
370
    50
100
AcDbLine
 10
376.747404
 20
331.365531
 30
0.0
 11
376.747404
 21
330.365531
 31
0.0
  0
LINE
  5
26A
330
1F
100
AcDbEntity
  8
LC-001-100-D00-0
 62
     7
370
    50
100
AcDbLine
 10
265.892644
 20
331.365531
 30
0.0
 11
265.892644
 21
330.365531
 31
0.0
  0
LINE
  5
26B
330
1F
100
AcDbEntity
  8
LC-001-100-D00-0
 62
     7
370
    50
100
AcDbLine
 10
258.493744
 20
330.365531
 30
0.0
 11
258.493744
 21
354.358425
 31
0.0
  0
ARC
  5
26C
330
1F
100
AcDbEntity
  8
LC-001-100-D00-0
 62
     7
370
    50
100
AcDbCircle
 10
365.057759
 20
276.365531
 30
0.0
 40
3.0
100
AcDbArc
 50
270.0
 51
345.0
  0
LINE
  5
26D
330
1F
100
AcDbEntity
  8
LC-001-100-D00-0
 62
     7
370
    50
100
AcDbLine
 10
370.493744
 20
285.061799
 30
0.0
 11
367.955536
 21
275.589075
 31
0.0
  0
LINE
  5
26E
330
1F
100
AcDbEntity
  8
LC-001-100-D00-0
 62
     7
370
    50
100
AcDbLine
 10
370.493744
 20
330.365531
 30
0.0
 11
370.493744
 21
285.061799
 31
0.0
  0
LINE
  5
26F
330
1F
100
AcDbEntity
  8
LC-001-100-D00-0
 62
     7
370
    50
100
AcDbLine
 10
378.493745
 20
330.365531
 30
0.0
 11
370.493744
 21
330.365531
 31
0.0
  0
LINE
  5
270
330
1F
100
AcDbEntity
  8
LC-001-100-D00-0
 62
     7
370
    50
100
AcDbLine
 10
458.299704
 20
363.065531
 30
0.0
 11
459.940561
 21
360.065532
 31
0.0
  0
LINE
  5
271
330
1F
100
AcDbEntity
  8
LC-001-100-D00-0
 62
     7
370
    50
100
AcDbLine
 10
373.493746
 20
285.061799
 30
0.0
 11
373.493746
 21
327.36553
 31
0.0
  0
LINE
  5
272
330
1F
100
AcDbEntity
  8
LC-001-100-D00-0
 62
     7
370
    50
100
AcDbLine
 10
370.151688
 20
272.589074
 30
0.0
 11
373.493746
 21
285.061799
 31
0.0
  0
ARC
  5
273
330
1F
100
AcDbEntity
  8
LC-001-100-D00-0
 62
     7
370
    50
100
AcDbCircle
 10
367.253912
 20
273.365531
 30
0.0
 40
3.0
100
AcDbArc
 50
270.0
 51
345.0
  0
LINE
  5
274
330
1F
100
AcDbEntity
  8
LC-001-100-D00-0
 62
     7
370
    50
100
AcDbLine
 10
343.493745
 20
270.36553
 30
0.0
 11
367.253911
 21
270.36553
 31
0.0
  0
LINE
  5
275
330
1F
100
AcDbEntity
  8
LC-001-100-D00-0
 62
     7
370
    50
100
AcDbLine
 10
343.493745
 20
215.365534
 30
0.0
 11
343.493745
 21
270.36553
 31
0.0
  0
LINE
  5
276
330
1F
100
AcDbEntity
  8
LC-001-100-D00-0
 62
     7
370
    50
100
AcDbLine
 10
342.689898
 20
212.365528
 30
0.0
 11
343.493745
 21
215.365534
 31
0.0
  0
LINE
  5
277
330
1F
100
AcDbEntity
  8
LC-001-100-D00-0
 62
     7
370
    50
100
AcDbLine
 10
340.493746
 20
212.365528
 30
0.0
 11
342.689898
 21
212.365528
 31
0.0
  0
LINE
  5
278
330
1F
100
AcDbEntity
  8
LC-001-100-D00-0
 62
     7
370
    50
100
AcDbLine
 10
340.493746
 20
334.865531
 30
0.0
 11
340.493746
 21
212.365528
 31
0.0
  0
LINE
  5
279
330
1F
100
AcDbEntity
  8
LC-001-100-D00-0
 62
     7
370
    50
100
AcDbLine
 10
342.993746
 20
334.865531
 30
0.0
 11
340.493746
 21
334.865531
 31
0.0
  0
LINE
  5
27A
330
1F
100
AcDbEntity
  8
LC-001-100-D00-0
 62
     7
370
    50
100
AcDbLine
 10
342.993746
 20
273.365533
 30
0.0
 11
342.993746
 21
334.865531
 31
0.0
  0
LINE
  5
27B
330
1F
100
AcDbEntity
  8
LC-001-100-D00-0
 62
     7
370
    50
100
AcDbLine
 10
365.057759
 20
273.365533
 30
0.0
 11
342.993746
 21
273.365533
 31
0.0
  0
LINE
  5
27C
330
1F
100
AcDbEntity
  8
LC-001-100-D00-0
 62
     7
370
    50
100
AcDbLine
 10
373.493746
 20
327.36553
 30
0.0
 11
378.493745
 21
327.36553
 31
0.0
  0
LINE
  5
27D
330
1F
100
AcDbEntity
  8
LC-001-100-D00-0
 62
     7
370
    50
100
AcDbLine
 10
382.700853
 20
358.565529
 30
0.0
 11
407.782421
 21
358.565529
 31
0.0
  0
LINE
  5
27E
330
1F
100
AcDbEntity
  8
LC-001-100-D00-0
 62
     7
370
    50
100
AcDbLine
 10
383.736387
 20
356.065532
 30
0.0
 11
409.243748
 21
356.065532
 31
0.0
  0
LINE
  5
27F
330
1F
100
AcDbEntity
  8
LC-001-100-D00-0
 62
     7
370
    50
100
AcDbLine
 10
410.091825
 20
362.56553
 30
0.0
 11
453.493752
 21
362.56553
 31
0.0
  0
LINE
  5
280
330
1F
100
AcDbEntity
  8
LC-001-100-D00-0
 62
     7
370
    50
100
AcDbLine
 10
459.940561
 20
360.065532
 30
0.0
 11
411.553145
 21
360.065532
 31
0.0
  0
LINE
  5
281
330
1F
100
AcDbEntity
  8
LC-001-100-D00-0
 62
     7
370
    50
100
AcDbLine
 10
458.299704
 20
363.065531
 30
0.0
 11
453.493752
 21
363.065531
 31
0.0
  0
LINE
  5
282
330
1F
100
AcDbEntity
  8
LC-001-100-D00-0
 62
     7
370
    50
100
AcDbLine
 10
296.493745
 20
212.365528
 30
0.0
 11
296.493745
 21
334.865531
 31
0.0
  0
LINE
  5
283
330
1F
100
AcDbEntity
  8
LC-001-100-D00-0
 62
     7
370
    50
100
AcDbLine
 10
294.297591
 20
212.365528
 30
0.0
 11
296.493745
 21
212.365528
 31
0.0
  0
LINE
  5
284
330
1F
100
AcDbEntity
  8
LC-001-100-D00-0
 62
     7
370
    50
100
AcDbLine
 10
293.493744
 20
215.365534
 30
0.0
 11
294.297591
 21
212.365528
 31
0.0
  0
LINE
  5
285
330
1F
100
AcDbEntity
  8
LC-001-100-D00-0
 62
     7
370
    50
100
AcDbLine
 10
293.493744
 20
270.36553
 30
0.0
 11
293.493744
 21
215.365534
 31
0.0
  0
LINE
  5
286
330
1F
100
AcDbEntity
  8
LC-001-100-D00-0
 62
     7
370
    50
100
AcDbLine
 10
269.733578
 20
270.36553
 30
0.0
 11
293.493744
 21
270.36553
 31
0.0
  0
ARC
  5
287
330
1F
100
AcDbEntity
  8
LC-001-100-D00-0
 62
     7
370
    50
100
AcDbCircle
 10
269.733579
 20
273.365531
 30
0.0
 40
3.000000000000022
100
AcDbArc
 50
195.0
 51
270.0
  0
LINE
  5
288
330
1F
100
AcDbEntity
  8
LC-001-100-D00-0
 62
     7
370
    50
100
AcDbLine
 10
263.493747
 20
285.061799
 30
0.0
 11
266.835802
 21
272.589074
 31
0.0
  0
LINE
  5
289
330
1F
100
AcDbEntity
  8
LC-001-100-D00-0
 62
     7
370
    50
100
AcDbLine
 10
263.493747
 20
327.36553
 30
0.0
 11
263.493747
 21
285.061799
 31
0.0
  0
LINE
  5
28A
330
1F
100
AcDbEntity
  8
LC-001-100-D00-0
 62
     7
370
    50
100
AcDbLine
 10
177.046933
 20
360.065532
 30
0.0
 11
178.687789
 21
363.065531
 31
0.0
  0
LINE
  5
28B
330
1F
100
AcDbEntity
  8
LC-001-100-D00-0
 62
     7
370
    50
100
AcDbLine
 10
266.493746
 20
330.365531
 30
0.0
 11
258.493744
 21
330.365531
 31
0.0
  0
LINE
  5
28C
330
1F
100
AcDbEntity
  8
LC-001-100-D00-0
 62
     7
370
    50
100
AcDbLine
 10
266.493746
 20
285.061799
 30
0.0
 11
266.493746
 21
330.365531
 31
0.0
  0
LINE
  5
28D
330
1F
100
AcDbEntity
  8
LC-001-100-D00-0
 62
     7
370
    50
100
AcDbLine
 10
269.031953
 20
275.589075
 30
0.0
 11
266.493746
 21
285.061799
 31
0.0
  0
ARC
  5
28E
330
1F
100
AcDbEntity
  8
LC-001-100-D00-0
 62
     7
370
    50
100
AcDbCircle
 10
271.929732
 20
276.365531
 30
0.0
 40
3.000000000000022
100
AcDbArc
 50
195.0
 51
270.0
  0
LINE
  5
28F
330
1F
100
AcDbEntity
  8
LC-001-100-D00-0
 62
     7
370
    50
100
AcDbLine
 10
293.993745
 20
273.365533
 30
0.0
 11
271.92973
 21
273.365533
 31
0.0
  0
LINE
  5
290
330
1F
100
AcDbEntity
  8
LC-001-100-D00-0
 62
     7
370
    50
100
AcDbLine
 10
293.993745
 20
334.865531
 30
0.0
 11
293.993745
 21
273.365533
 31
0.0
  0
LINE
  5
291
330
1F
100
AcDbEntity
  8
LC-001-100-D00-0
 62
     7
370
    50
100
AcDbLine
 10
296.493745
 20
334.865531
 30
0.0
 11
293.993745
 21
334.865531
 31
0.0
  0
LINE
  5
292
330
1F
100
AcDbEntity
  8
LC-001-100-D00-0
 62
     7
370
    50
100
AcDbLine
 10
258.493744
 20
327.36553
 30
0.0
 11
263.493747
 21
327.36553
 31
0.0
  0
LINE
  5
293
330
1F
100
AcDbEntity
  8
LC-001-100-D00-0
 62
     7
370
    50
100
AcDbLine
 10
229.205072
 20
358.565529
 30
0.0
 11
254.28664
 21
358.565529
 31
0.0
  0
LINE
  5
294
330
1F
100
AcDbEntity
  8
LC-001-100-D00-0
 62
     7
370
    50
100
AcDbLine
 10
227.743745
 20
356.065532
 30
0.0
 11
253.251106
 21
356.065532
 31
0.0
  0
LINE
  5
295
330
1F
100
AcDbEntity
  8
LC-001-100-D00-0
 62
     7
370
    50
100
AcDbLine
 10
183.493741
 20
362.56553
 30
0.0
 11
226.895668
 21
362.56553
 31
0.0
  0
LINE
  5
296
330
1F
100
AcDbEntity
  8
LC-001-100-D00-0
 62
     7
370
    50
100
AcDbLine
 10
225.434341
 20
360.065532
 30
0.0
 11
177.046933
 21
360.065532
 31
0.0
  0
LINE
  5
297
330
1F
100
AcDbEntity
  8
LC-001-100-D00-0
 62
     7
370
    50
100
AcDbLine
 10
183.493741
 20
363.065531
 30
0.0
 11
178.687789
 21
363.065531
 31
0.0
  0
LINE
  5
298
330
1F
100
AcDbEntity
  8
LC-001-100-D00-0
 62
     7
370
    50
100
AcDbLine
 10
272.826162
 20
330.365531
 30
0.0
 11
266.493746
 21
330.365531
 31
0.0
  0
LINE
  5
299
330
1F
100
AcDbEntity
  8
LC-001-100-D00-0
 62
     7
370
    50
100
AcDbLine
 10
272.826162
 20
331.365531
 30
0.0
 11
272.826162
 21
330.365531
 31
0.0
  0
LINE
  5
29A
330
1F
100
AcDbEntity
  8
LC-001-100-D00-0
 62
     7
370
    50
100
AcDbLine
 10
272.826162
 20
331.365531
 30
0.0
 11
274.074223
 21
331.365531
 31
0.0
  0
LINE
  5
29B
330
1F
100
AcDbEntity
  8
LC-001-100-D00-0
 62
     7
370
    50
100
AcDbLine
 10
274.074223
 20
331.365531
 30
0.0
 11
274.074223
 21
330.365531
 31
0.0
  0
LINE
  5
29C
330
1F
100
AcDbEntity
  8
LC-001-100-D00-0
 62
     7
370
    50
100
AcDbLine
 10
278.993745
 20
330.365531
 30
0.0
 11
274.074223
 21
330.365531
 31
0.0
  0
LINE
  5
29D
330
1F
100
AcDbEntity
  8
LC-001-100-D00-0
 62
     7
370
    50
100
AcDbLine
 10
368.370709
 20
330.365531
 30
0.0
 11
357.993745
 21
330.365531
 31
0.0
  0
LINE
  5
29E
330
1F
100
AcDbEntity
  8
LC-001-100-D00-0
 62
     7
370
    50
100
AcDbLine
 10
368.370709
 20
331.365531
 30
0.0
 11
368.370709
 21
330.365531
 31
0.0
  0
LINE
  5
29F
330
1F
100
AcDbEntity
  8
LC-001-100-D00-0
 62
     7
370
    50
100
AcDbLine
 10
368.370709
 20
331.365531
 30
0.0
 11
369.019919
 21
331.365531
 31
0.0
  0
LINE
  5
2A0
330
1F
100
AcDbEntity
  8
LC-001-100-D00-0
 62
     7
370
    50
100
AcDbLine
 10
369.019919
 20
331.365531
 30
0.0
 11
369.019919
 21
330.365531
 31
0.0
  0
LINE
  5
2A1
330
1F
100
AcDbEntity
  8
LC-001-100-D00-0
 62
     7
370
    50
100
AcDbLine
 10
370.493744
 20
330.365531
 30
0.0
 11
369.019919
 21
330.365531
 31
0.0
  0
LINE
  5
2A2
330
1F
100
AcDbEntity
  8
LC-001-100-D00-0
 62
     7
370
    50
100
AcDbLine
 10
370.493744
 20
285.061799
 30
0.0
 11
357.993745
 21
285.061799
 31
0.0
  0
LINE
  5
2A3
330
1F
100
AcDbEntity
  8
LC-001-100-D00-0
 62
     7
370
    50
100
AcDbLine
 10
278.993745
 20
285.061799
 30
0.0
 11
266.493746
 21
285.061799
 31
0.0
  0
LINE
  5
2A4
330
1F
100
AcDbEntity
  8
LC-001-100-D00-0
 62
     7
370
    50
100
AcDbLine
 10
340.493746
 20
212.365528
 30
0.0
 11
296.493745
 21
212.365528
 31
0.0
  0
LINE
  5
2A5
330
1F
100
AcDbEntity
  8
LC-001-100-D00-0
 62
     7
370
    50
100
AcDbLine
 10
340.493746
 20
334.865531
 30
0.0
 11
330.261521
 21
334.865531
 31
0.0
  0
LINE
  5
2A6
330
1F
100
AcDbEntity
  8
LC-001-100-D00-0
 62
     7
370
    50
100
AcDbLine
 10
326.72597
 20
334.865531
 30
0.0
 11
300.493746
 21
334.865531
 31
0.0
  0
LINE
  5
2A7
330
1F
100
AcDbEntity
  8
LC-001-100-D00-0
 62
     7
370
    50
100
AcDbLine
 10
168.457218
 20
363.065531
 30
0.0
 11
170.098074
 21
360.065532
 31
0.0
  0
LINE
  5
2A8
330
1F
100
AcDbEntity
  8
LC-001-100-D00-0
 62
     7
370
    50
100
AcDbLine
 10
170.098074
 20
360.065532
 30
0.0
 11
177.046933
 21
360.065532
 31
0.0
  0
LINE
  5
2A9
330
1F
100
AcDbEntity
  8
LC-001-100-D00-0
 62
     7
370
    50
100
AcDbLine
 10
178.687789
 20
363.065531
 30
0.0
 11
168.457218
 21
363.065531
 31
0.0
  0
LINE
  5
2AA
330
1F
100
AcDbEntity
  8
LC-001-100-D00-0
 62
     7
370
    50
100
AcDbLine
 10
466.889419
 20
360.065532
 30
0.0
 11
468.530275
 21
363.065531
 31
0.0
  0
LINE
  5
2AB
330
1F
100
AcDbEntity
  8
LC-001-100-D00-0
 62
     7
370
    50
100
AcDbLine
 10
475.993745
 20
360.065532
 30
0.0
 11
466.889419
 21
360.065532
 31
0.0
  0
LINE
  5
2AC
330
1F
100
AcDbEntity
  8
LC-001-100-D00-0
 62
     7
370
    50
100
AcDbLine
 10
475.993745
 20
363.065531
 30
0.0
 11
468.530275
 21
363.065531
 31
0.0
  0
LINE
  5
2AD
330
1F
100
AcDbEntity
  8
LC-001-100-D00-0
 62
     7
370
    50
100
AcDbLine
 10
170.098074
 20
360.065532
 30
0.0
 11
160.993748
 21
360.065532
 31
0.0
  0
LINE
  5
2AE
330
1F
100
AcDbEntity
  8
LC-001-100-D00-0
 62
     7
370
    50
100
AcDbLine
 10
168.457218
 20
363.065531
 30
0.0
 11
160.993748
 21
363.065531
 31
0.0
  0
LINE
  5
2AF
330
1F
100
AcDbEntity
  8
LC-001-100-D00-0
 62
     7
370
    50
100
AcDbLine
 10
369.019919
 20
331.365531
 30
0.0
 11
376.747404
 21
331.365531
 31
0.0
  0
LINE
  5
2B0
330
1F
100
AcDbEntity
  8
LC-001-100-D00-0
 62
     7
370
    50
100
AcDbLine
 10
178.297706
 20
346.06553
 30
0.0
 11
178.72689
 21
348.06553
 31
0.0
  0
LINE
  5
2B1
330
1F
100
AcDbEntity
  8
LC-001-100-D00-0
 62
     7
370
    50
100
AcDbLine
 10
178.27303
 20
345.891883
 30
0.0
 11
178.297706
 21
346.06553
 31
0.0
  0
LINE
  5
2B2
330
1F
100
AcDbEntity
  8
LC-001-100-D00-0
 62
     7
370
    50
100
AcDbLine
 10
169.36227
 20
348.06553
 30
0.0
 11
178.72689
 21
348.06553
 31
0.0
  0
INSERT
  5
2C6
330
1F
100
AcDbEntity
  8
LC-001-100-D00-0
 62
     7
370
    50
100
AcDbBlockReference
  2
POLY20
 10
0.0
 20
0.0
 30
0.0
  0
LINE
  5
2C7
330
1F
100
AcDbEntity
  8
LC-001-100-D00-0
 62
     7
370
    50
100
AcDbLine
 10
177.878075
 20
345.065532
 30
0.0
 11
170.730345
 21
345.065532
 31
0.0
  0
LINE
  5
2C8
330
1F
100
AcDbEntity
  8
LC-001-100-D00-0
 62
     7
370
    50
100
AcDbLine
 10
178.684138
 20
348.06553
 30
0.0
 11
181.112938
 21
360.065532
 31
0.0
  0
LINE
  5
2C9
330
1F
100
AcDbEntity
  8
LC-001-100-D00-0
 62
     7
370
    50
100
AcDbLine
 10
181.09455
 20
345.065532
 30
0.0
 11
177.878075
 21
345.065532
 31
0.0
  0
LINE
  5
2CA
330
1F
100
AcDbEntity
  8
LC-001-100-D00-0
 62
     7
370
    50
100
AcDbLine
 10
459.904917
 20
360.065532
 30
0.0
 11
466.889419
 21
360.065532
 31
0.0
  0
LINE
  5
2CB
330
1F
100
AcDbEntity
  8
LC-001-100-D00-0
 62
     7
370
    50
100
AcDbLine
 10
468.530275
 20
363.065531
 30
0.0
 11
458.290436
 21
363.065531
 31
0.0
  0
LINE
  5
2CC
330
1F
100
AcDbEntity
  8
LC-001-100-D00-0
 62
     7
370
    50
100
AcDbLine
 10
182.613634
 20
345.892293
 30
0.0
 11
182.605766
 21
345.89268
 31
0.0
  0
INSERT
  5
2DA
330
1F
100
AcDbEntity
  8
LC-001-100-D00-0
 62
     7
370
    50
100
AcDbBlockReference
  2
POLY21
 10
0.0
 20
0.0
 30
0.0
  0
LINE
  5
2DB
330
1F
100
AcDbEntity
  8
LC-001-100-D00-0
 62
     7
370
    50
100
AcDbLine
 10
265.892644
 20
331.365531
 30
0.0
 11
272.826162
 21
331.365531
 31
0.0
  0
LINE
  5
2DC
330
1F
100
AcDbEntity
  8
LC-001-100-D00-0
 62
     7
370
    50
100
AcDbLine
 10
429.854773
 20
360.065532
 30
0.0
 11
431.79673
 21
348.06553
 31
0.0
  0
LINE
  5
2DD
330
1F
100
AcDbEntity
  8
LC-001-100-D00-0
 62
     7
370
    50
100
AcDbLine
 10
432.105698
 20
346.06553
 30
0.0
 11
431.762547
 21
348.06553
 31
0.0
  0
LINE
  5
2DE
330
1F
100
AcDbEntity
  8
LC-001-100-D00-0
 62
     7
370
    50
100
AcDbLine
 10
432.105698
 20
346.06553
 30
0.0
 11
432.117746
 21
345.891883
 31
0.0
  0
LINE
  5
2DF
330
1F
100
AcDbEntity
  8
LC-001-100-D00-0
 62
     7
370
    50
100
AcDbLine
 10
431.762547
 20
348.06553
 30
0.0
 11
438.806028
 21
348.06553
 31
0.0
  0
INSERT
  5
2F3
330
1F
100
AcDbEntity
  8
LC-001-100-D00-0
 62
     7
370
    50
100
AcDbBlockReference
  2
POLY22
 10
0.0
 20
0.0
 30
0.0
  0
LINE
  5
2F4
330
1F
100
AcDbEntity
  8
LC-001-100-D00-0
 62
     7
370
    50
100
AcDbLine
 10
431.9354
 20
345.065532
 30
0.0
 11
429.363646
 21
345.065532
 31
0.0
  0
INSERT
  5
302
330
1F
100
AcDbEntity
  8
LC-001-100-D00-0
 62
     7
370
    50
100
AcDbBlockReference
  2
POLY23
 10
0.0
 20
0.0
 30
0.0
  0
LINE
  5
303
330
1F
100
AcDbEntity
  8
LC-001-100-D00-0
 62
     7
370
    50
100
AcDbLine
 10
437.437952
 20
345.065532
 30
0.0
 11
431.9354
 21
345.065532
 31
0.0
  0
LINE
  5
304
330
1F
100
AcDbEntity
  8
LC-001-100-D00-0
 62
     7
370
    50
100
AcDbLine
 10
230.419256
 20
348.06553
 30
0.0
 11
231.414512
 21
356.065532
 31
0.0
  0
LINE
  5
305
330
1F
100
AcDbEntity
  8
LC-001-100-D00-0
 62
     7
370
    50
100
AcDbLine
 10
230.181739
 20
346.06553
 30
0.0
 11
230.445534
 21
348.06553
 31
0.0
  0
INSERT
  5
313
330
1F
100
AcDbEntity
  8
LC-001-100-D00-0
 62
     7
370
    50
100
AcDbBlockReference
  2
POLY24
 10
0.0
 20
0.0
 30
0.0
  0
INSERT
  5
327
330
1F
100
AcDbEntity
  8
LC-001-100-D00-0
 62
     7
370
    50
100
AcDbBlockReference
  2
POLY25
 10
0.0
 20
0.0
 30
0.0
  0
LINE
  5
328
330
1F
100
AcDbEntity
  8
LC-001-100-D00-0
 62
     7
370
    50
100
AcDbLine
 10
230.177403
 20
345.891883
 30
0.0
 11
230.181739
 21
346.06553
 31
0.0
  0
LINE
  5
329
330
1F
100
AcDbEntity
  8
LC-001-100-D00-0
 62
     7
370
    50
100
AcDbLine
 10
232.613966
 20
345.065532
 30
0.0
 11
230.636932
 21
345.065532
 31
0.0
  0
LINE
  5
32A
330
1F
100
AcDbEntity
  8
LC-001-100-D00-0
 62
     7
370
    50
100
AcDbLine
 10
224.765324
 20
348.06553
 30
0.0
 11
230.445534
 21
348.06553
 31
0.0
  0
LINE
  5
32B
330
1F
100
AcDbEntity
  8
LC-001-100-D00-0
 62
     7
370
    50
100
AcDbLine
 10
230.636932
 20
345.065532
 30
0.0
 11
226.133407
 21
345.065532
 31
0.0
  0
LINE
  5
32C
330
1F
100
AcDbEntity
  8
LC-001-100-D00-0
 62
     7
370
    50
100
AcDbLine
 10
366.293744
 20
368.865532
 30
0.0
 11
366.293744
 21
366.865532
 31
0.0
  0
LINE
  5
32D
330
1F
100
AcDbEntity
  8
LC-001-100-D00-0
 62
     7
370
    50
100
AcDbLine
 10
367.493745
 20
390.26553
 30
0.0
 11
367.493745
 21
388.06553
 31
0.0
  0
LINE
  5
32E
330
1F
100
AcDbEntity
  8
LC-001-100-D00-0
 62
     7
370
    50
100
AcDbLine
 10
367.493745
 20
360.465532
 30
0.0
 11
367.493745
 21
359.26553
 31
0.0
  0
LINE
  5
32F
330
1F
100
AcDbEntity
  8
LC-001-100-D00-0
 62
     7
370
    50
100
AcDbLine
 10
365.049739
 20
359.26553
 30
0.0
 11
365.993746
 21
359.26553
 31
0.0
  0
LINE
  5
330
330
1F
100
AcDbEntity
  8
LC-001-100-D00-0
 62
     7
370
    50
100
AcDbLine
 10
365.993746
 20
389.765529
 30
0.0
 11
365.993746
 21
359.26553
 31
0.0
  0
LINE
  5
331
330
1F
100
AcDbEntity
  8
LC-001-100-D00-0
 62
     7
370
    50
100
AcDbLine
 10
269.493744
 20
362.465532
 30
0.0
 11
269.493744
 21
363.66553
 31
0.0
  0
LINE
  5
332
330
1F
100
AcDbEntity
  8
LC-001-100-D00-0
 62
     7
370
    50
100
AcDbLine
 10
270.693746
 20
363.66553
 30
0.0
 11
269.493744
 21
363.66553
 31
0.0
  0
LINE
  5
333
330
1F
100
AcDbEntity
  8
LC-001-100-D00-0
 62
     7
370
    50
100
AcDbLine
 10
270.693746
 20
365.66553
 30
0.0
 11
270.693746
 21
363.66553
 31
0.0
  0
LINE
  5
334
330
1F
100
AcDbEntity
  8
LC-001-100-D00-0
 62
     7
370
    50
100
AcDbLine
 10
269.493744
 20
365.66553
 30
0.0
 11
270.693746
 21
365.66553
 31
0.0
  0
LINE
  5
335
330
1F
100
AcDbEntity
  8
LC-001-100-D00-0
 62
     7
370
    50
100
AcDbLine
 10
269.493744
 20
365.66553
 30
0.0
 11
269.493744
 21
366.865532
 31
0.0
  0
LINE
  5
336
330
1F
100
AcDbEntity
  8
LC-001-100-D00-0
 62
     7
370
    50
100
AcDbLine
 10
269.493744
 20
368.865532
 30
0.0
 11
269.493744
 21
370.06553
 31
0.0
  0
LINE
  5
337
330
1F
100
AcDbEntity
  8
LC-001-100-D00-0
 62
     7
370
    50
100
AcDbLine
 10
270.693746
 20
370.06553
 30
0.0
 11
269.493744
 21
370.06553
 31
0.0
  0
LINE
  5
338
330
1F
100
AcDbEntity
  8
LC-001-100-D00-0
 62
     7
370
    50
100
AcDbLine
 10
270.693746
 20
372.065534
 30
0.0
 11
270.693746
 21
370.06553
 31
0.0
  0
LINE
  5
339
330
1F
100
AcDbEntity
  8
LC-001-100-D00-0
 62
     7
370
    50
100
AcDbLine
 10
269.493744
 20
372.065534
 30
0.0
 11
270.693746
 21
372.065534
 31
0.0
  0
LINE
  5
33A
330
1F
100
AcDbEntity
  8
LC-001-100-D00-0
 62
     7
370
    50
100
AcDbLine
 10
269.493744
 20
372.065534
 30
0.0
 11
269.493744
 21
373.265532
 31
0.0
  0
LINE
  5
33B
330
1F
100
AcDbEntity
  8
LC-001-100-D00-0
 62
     7
370
    50
100
AcDbLine
 10
270.693746
 20
373.265532
 30
0.0
 11
269.493744
 21
373.265532
 31
0.0
  0
LINE
  5
33C
330
1F
100
AcDbEntity
  8
LC-001-100-D00-0
 62
     7
370
    50
100
AcDbLine
 10
270.693746
 20
375.265529
 30
0.0
 11
270.693746
 21
373.265532
 31
0.0
  0
LINE
  5
33D
330
1F
100
AcDbEntity
  8
LC-001-100-D00-0
 62
     7
370
    50
100
AcDbLine
 10
269.493744
 20
375.265529
 30
0.0
 11
270.693746
 21
375.265529
 31
0.0
  0
LINE
  5
33E
330
1F
100
AcDbEntity
  8
LC-001-100-D00-0
 62
     7
370
    50
100
AcDbLine
 10
269.493744
 20
375.265529
 30
0.0
 11
269.493744
 21
376.465534
 31
0.0
  0
LINE
  5
33F
330
1F
100
AcDbEntity
  8
LC-001-100-D00-0
 62
     7
370
    50
100
AcDbLine
 10
270.693746
 20
376.465534
 30
0.0
 11
269.493744
 21
376.465534
 31
0.0
  0
LINE
  5
340
330
1F
100
AcDbEntity
  8
LC-001-100-D00-0
 62
     7
370
    50
100
AcDbLine
 10
270.693746
 20
378.465531
 30
0.0
 11
270.693746
 21
376.465534
 31
0.0
  0
LINE
  5
341
330
1F
100
AcDbEntity
  8
LC-001-100-D00-0
 62
     7
370
    50
100
AcDbLine
 10
269.493744
 20
378.465531
 30
0.0
 11
270.693746
 21
378.465531
 31
0.0
  0
LINE
  5
342
330
1F
100
AcDbEntity
  8
LC-001-100-D00-0
 62
     7
370
    50
100
AcDbLine
 10
269.493744
 20
378.465531
 30
0.0
 11
269.493744
 21
379.665529
 31
0.0
  0
LINE
  5
343
330
1F
100
AcDbEntity
  8
LC-001-100-D00-0
 62
     7
370
    50
100
AcDbLine
 10
270.693746
 20
379.665529
 30
0.0
 11
269.493744
 21
379.665529
 31
0.0
  0
LINE
  5
344
330
1F
100
AcDbEntity
  8
LC-001-100-D00-0
 62
     7
370
    50
100
AcDbLine
 10
270.693746
 20
381.665533
 30
0.0
 11
270.693746
 21
379.665529
 31
0.0
  0
LINE
  5
345
330
1F
100
AcDbEntity
  8
LC-001-100-D00-0
 62
     7
370
    50
100
AcDbLine
 10
269.493744
 20
381.665533
 30
0.0
 11
270.693746
 21
381.665533
 31
0.0
  0
LINE
  5
346
330
1F
100
AcDbEntity
  8
LC-001-100-D00-0
 62
     7
370
    50
100
AcDbLine
 10
269.493744
 20
381.665533
 30
0.0
 11
269.493744
 21
382.865531
 31
0.0
  0
LINE
  5
347
330
1F
100
AcDbEntity
  8
LC-001-100-D00-0
 62
     7
370
    50
100
AcDbLine
 10
270.693746
 20
382.865531
 30
0.0
 11
269.493744
 21
382.865531
 31
0.0
  0
LINE
  5
348
330
1F
100
AcDbEntity
  8
LC-001-100-D00-0
 62
     7
370
    50
100
AcDbLine
 10
270.693746
 20
384.865528
 30
0.0
 11
270.693746
 21
382.865531
 31
0.0
  0
LINE
  5
349
330
1F
100
AcDbEntity
  8
LC-001-100-D00-0
 62
     7
370
    50
100
AcDbLine
 10
269.493744
 20
384.865528
 30
0.0
 11
270.693746
 21
384.865528
 31
0.0
  0
LINE
  5
34A
330
1F
100
AcDbEntity
  8
LC-001-100-D00-0
 62
     7
370
    50
100
AcDbLine
 10
269.493744
 20
384.865528
 30
0.0
 11
269.493744
 21
386.065533
 31
0.0
  0
LINE
  5
34B
330
1F
100
AcDbEntity
  8
LC-001-100-D00-0
 62
     7
370
    50
100
AcDbLine
 10
270.693746
 20
386.065533
 30
0.0
 11
269.493744
 21
386.065533
 31
0.0
  0
LINE
  5
34C
330
1F
100
AcDbEntity
  8
LC-001-100-D00-0
 62
     7
370
    50
100
AcDbLine
 10
270.693746
 20
388.06553
 30
0.0
 11
270.693746
 21
386.065533
 31
0.0
  0
LINE
  5
34D
330
1F
100
AcDbEntity
  8
LC-001-100-D00-0
 62
     7
370
    50
100
AcDbLine
 10
269.493744
 20
388.06553
 30
0.0
 11
270.693746
 21
388.06553
 31
0.0
  0
LINE
  5
34E
330
1F
100
AcDbEntity
  8
LC-001-100-D00-0
 62
     7
370
    50
100
AcDbLine
 10
269.493744
 20
390.26553
 30
0.0
 11
270.993747
 21
390.26553
 31
0.0
  0
LINE
  5
34F
330
1F
100
AcDbEntity
  8
LC-001-100-D00-0
 62
     7
370
    50
100
AcDbLine
 10
270.993747
 20
390.26553
 30
0.0
 11
270.993747
 21
396.265534
 31
0.0
  0
LINE
  5
350
330
1F
100
AcDbEntity
  8
LC-001-100-D00-0
 62
     7
370
    50
100
AcDbLine
 10
272.493747
 20
396.265534
 30
0.0
 11
270.993747
 21
396.265534
 31
0.0
  0
LINE
  5
351
330
1F
100
AcDbEntity
  8
LC-001-100-D00-0
 62
     7
370
    50
100
AcDbLine
 10
272.493747
 20
391.265532
 30
0.0
 11
272.493747
 21
396.265534
 31
0.0
  0
LINE
  5
352
330
1F
100
AcDbEntity
  8
LC-001-100-D00-0
 62
     7
370
    50
100
AcDbLine
 10
272.493747
 20
391.265532
 30
0.0
 11
272.493747
 21
389.765529
 31
0.0
  0
LINE
  5
353
330
1F
100
AcDbEntity
  8
LC-001-100-D00-0
 62
     7
370
    50
100
AcDbLine
 10
270.993747
 20
389.765529
 30
0.0
 11
272.493747
 21
389.765529
 31
0.0
  0
LINE
  5
354
330
1F
100
AcDbEntity
  8
LC-001-100-D00-0
 62
     7
370
    50
100
AcDbLine
 10
270.993747
 20
359.26553
 30
0.0
 11
270.993747
 21
389.765529
 31
0.0
  0
LINE
  5
355
330
1F
100
AcDbEntity
  8
LC-001-100-D00-0
 62
     7
370
    50
100
AcDbLine
 10
269.493744
 20
359.26553
 30
0.0
 11
270.993747
 21
359.26553
 31
0.0
  0
LINE
  5
356
330
1F
100
AcDbEntity
  8
LC-001-100-D00-0
 62
     7
370
    50
100
AcDbLine
 10
270.693746
 20
360.465532
 30
0.0
 11
269.493744
 21
360.465532
 31
0.0
  0
LINE
  5
357
330
1F
100
AcDbEntity
  8
LC-001-100-D00-0
 62
     7
370
    50
100
AcDbLine
 10
270.693746
 20
362.465532
 30
0.0
 11
270.693746
 21
360.465532
 31
0.0
  0
LINE
  5
358
330
1F
100
AcDbEntity
  8
LC-001-100-D00-0
 62
     7
370
    50
100
AcDbLine
 10
269.493744
 20
362.465532
 30
0.0
 11
270.693746
 21
362.465532
 31
0.0
  0
LINE
  5
359
330
1F
100
AcDbEntity
  8
LC-001-100-D00-0
 62
     7
370
    50
100
AcDbLine
 10
270.693746
 20
368.865532
 30
0.0
 11
270.693746
 21
366.865532
 31
0.0
  0
LINE
  5
35A
330
1F
100
AcDbEntity
  8
LC-001-100-D00-0
 62
     7
370
    50
100
AcDbLine
 10
269.493744
 20
359.26553
 30
0.0
 11
269.493744
 21
360.465532
 31
0.0
  0
LINE
  5
35B
330
1F
100
AcDbEntity
  8
LC-001-100-D00-0
 62
     7
370
    50
100
AcDbLine
 10
270.693746
 20
366.865532
 30
0.0
 11
269.493744
 21
366.865532
 31
0.0
  0
LINE
  5
35C
330
1F
100
AcDbEntity
  8
LC-001-100-D00-0
 62
     7
370
    50
100
AcDbLine
 10
269.493744
 20
388.06553
 30
0.0
 11
269.493744
 21
390.26553
 31
0.0
  0
LINE
  5
35D
330
1F
100
AcDbEntity
  8
LC-001-100-D00-0
 62
     7
370
    50
100
AcDbLine
 10
269.493744
 20
368.865532
 30
0.0
 11
270.693746
 21
368.865532
 31
0.0
  0
LINE
  5
35E
330
1F
100
AcDbEntity
  8
LC-001-100-D00-0
 62
     7
370
    50
100
AcDbLine
 10
366.293744
 20
388.06553
 30
0.0
 11
366.293744
 21
386.065533
 31
0.0
  0
LINE
  5
35F
330
1F
100
AcDbEntity
  8
LC-001-100-D00-0
 62
     7
370
    50
100
AcDbLine
 10
367.493745
 20
366.865532
 30
0.0
 11
367.493745
 21
365.66553
 31
0.0
  0
LINE
  5
360
330
1F
100
AcDbEntity
  8
LC-001-100-D00-0
 62
     7
370
    50
100
AcDbLine
 10
366.293744
 20
365.66553
 30
0.0
 11
367.493745
 21
365.66553
 31
0.0
  0
LINE
  5
361
330
1F
100
AcDbEntity
  8
LC-001-100-D00-0
 62
     7
370
    50
100
AcDbLine
 10
366.293744
 20
365.66553
 30
0.0
 11
366.293744
 21
363.66553
 31
0.0
  0
LINE
  5
362
330
1F
100
AcDbEntity
  8
LC-001-100-D00-0
 62
     7
370
    50
100
AcDbLine
 10
367.493745
 20
363.66553
 30
0.0
 11
366.293744
 21
363.66553
 31
0.0
  0
LINE
  5
363
330
1F
100
AcDbEntity
  8
LC-001-100-D00-0
 62
     7
370
    50
100
AcDbLine
 10
367.493745
 20
363.66553
 30
0.0
 11
367.493745
 21
362.465532
 31
0.0
  0
LINE
  5
364
330
1F
100
AcDbEntity
  8
LC-001-100-D00-0
 62
     7
370
    50
100
AcDbLine
 10
366.293744
 20
362.465532
 30
0.0
 11
367.493745
 21
362.465532
 31
0.0
  0
LINE
  5
365
330
1F
100
AcDbEntity
  8
LC-001-100-D00-0
 62
     7
370
    50
100
AcDbLine
 10
366.293744
 20
362.465532
 30
0.0
 11
366.293744
 21
360.465532
 31
0.0
  0
LINE
  5
366
330
1F
100
AcDbEntity
  8
LC-001-100-D00-0
 62
     7
370
    50
100
AcDbLine
 10
367.493745
 20
360.465532
 30
0.0
 11
366.293744
 21
360.465532
 31
0.0
  0
LINE
  5
367
330
1F
100
AcDbEntity
  8
LC-001-100-D00-0
 62
     7
370
    50
100
AcDbLine
 10
365.993746
 20
359.26553
 30
0.0
 11
367.493745
 21
359.26553
 31
0.0
  0
LINE
  5
368
330
1F
100
AcDbEntity
  8
LC-001-100-D00-0
 62
     7
370
    50
100
AcDbLine
 10
364.493747
 20
389.765529
 30
0.0
 11
365.993746
 21
389.765529
 31
0.0
  0
LINE
  5
369
330
1F
100
AcDbEntity
  8
LC-001-100-D00-0
 62
     7
370
    50
100
AcDbLine
 10
364.493747
 20
389.765529
 30
0.0
 11
364.493747
 21
391.265532
 31
0.0
  0
LINE
  5
36A
330
1F
100
AcDbEntity
  8
LC-001-100-D00-0
 62
     7
370
    50
100
AcDbLine
 10
364.493747
 20
396.265534
 30
0.0
 11
364.493747
 21
391.265532
 31
0.0
  0
LINE
  5
36B
330
1F
100
AcDbEntity
  8
LC-001-100-D00-0
 62
     7
370
    50
100
AcDbLine
 10
365.993746
 20
396.265534
 30
0.0
 11
364.493747
 21
396.265534
 31
0.0
  0
LINE
  5
36C
330
1F
100
AcDbEntity
  8
LC-001-100-D00-0
 62
     7
370
    50
100
AcDbLine
 10
366.293744
 20
388.06553
 30
0.0
 11
367.493745
 21
388.06553
 31
0.0
  0
LINE
  5
36D
330
1F
100
AcDbEntity
  8
LC-001-100-D00-0
 62
     7
370
    50
100
AcDbLine
 10
367.493745
 20
386.065533
 30
0.0
 11
366.293744
 21
386.065533
 31
0.0
  0
LINE
  5
36E
330
1F
100
AcDbEntity
  8
LC-001-100-D00-0
 62
     7
370
    50
100
AcDbLine
 10
367.493745
 20
386.065533
 30
0.0
 11
367.493745
 21
384.865528
 31
0.0
  0
LINE
  5
36F
330
1F
100
AcDbEntity
  8
LC-001-100-D00-0
 62
     7
370
    50
100
AcDbLine
 10
366.293744
 20
384.865528
 30
0.0
 11
367.493745
 21
384.865528
 31
0.0
  0
LINE
  5
370
330
1F
100
AcDbEntity
  8
LC-001-100-D00-0
 62
     7
370
    50
100
AcDbLine
 10
366.293744
 20
384.865528
 30
0.0
 11
366.293744
 21
382.865531
 31
0.0
  0
LINE
  5
371
330
1F
100
AcDbEntity
  8
LC-001-100-D00-0
 62
     7
370
    50
100
AcDbLine
 10
367.493745
 20
382.865531
 30
0.0
 11
366.293744
 21
382.865531
 31
0.0
  0
LINE
  5
372
330
1F
100
AcDbEntity
  8
LC-001-100-D00-0
 62
     7
370
    50
100
AcDbLine
 10
367.493745
 20
382.865531
 30
0.0
 11
367.493745
 21
381.665533
 31
0.0
  0
LINE
  5
373
330
1F
100
AcDbEntity
  8
LC-001-100-D00-0
 62
     7
370
    50
100
AcDbLine
 10
366.293744
 20
381.665533
 30
0.0
 11
367.493745
 21
381.665533
 31
0.0
  0
LINE
  5
374
330
1F
100
AcDbEntity
  8
LC-001-100-D00-0
 62
     7
370
    50
100
AcDbLine
 10
366.293744
 20
381.665533
 30
0.0
 11
366.293744
 21
379.665529
 31
0.0
  0
LINE
  5
375
330
1F
100
AcDbEntity
  8
LC-001-100-D00-0
 62
     7
370
    50
100
AcDbLine
 10
367.493745
 20
379.665529
 30
0.0
 11
366.293744
 21
379.665529
 31
0.0
  0
LINE
  5
376
330
1F
100
AcDbEntity
  8
LC-001-100-D00-0
 62
     7
370
    50
100
AcDbLine
 10
367.493745
 20
379.665529
 30
0.0
 11
367.493745
 21
378.465531
 31
0.0
  0
LINE
  5
377
330
1F
100
AcDbEntity
  8
LC-001-100-D00-0
 62
     7
370
    50
100
AcDbLine
 10
366.293744
 20
378.465531
 30
0.0
 11
367.493745
 21
378.465531
 31
0.0
  0
LINE
  5
378
330
1F
100
AcDbEntity
  8
LC-001-100-D00-0
 62
     7
370
    50
100
AcDbLine
 10
366.293744
 20
378.465531
 30
0.0
 11
366.293744
 21
376.465534
 31
0.0
  0
LINE
  5
379
330
1F
100
AcDbEntity
  8
LC-001-100-D00-0
 62
     7
370
    50
100
AcDbLine
 10
367.493745
 20
376.465534
 30
0.0
 11
366.293744
 21
376.465534
 31
0.0
  0
LINE
  5
37A
330
1F
100
AcDbEntity
  8
LC-001-100-D00-0
 62
     7
370
    50
100
AcDbLine
 10
367.493745
 20
376.465534
 30
0.0
 11
367.493745
 21
375.265529
 31
0.0
  0
LINE
  5
37B
330
1F
100
AcDbEntity
  8
LC-001-100-D00-0
 62
     7
370
    50
100
AcDbLine
 10
366.293744
 20
375.265529
 30
0.0
 11
367.493745
 21
375.265529
 31
0.0
  0
LINE
  5
37C
330
1F
100
AcDbEntity
  8
LC-001-100-D00-0
 62
     7
370
    50
100
AcDbLine
 10
366.293744
 20
375.265529
 30
0.0
 11
366.293744
 21
373.265532
 31
0.0
  0
LINE
  5
37D
330
1F
100
AcDbEntity
  8
LC-001-100-D00-0
 62
     7
370
    50
100
AcDbLine
 10
367.493745
 20
373.265532
 30
0.0
 11
366.293744
 21
373.265532
 31
0.0
  0
LINE
  5
37E
330
1F
100
AcDbEntity
  8
LC-001-100-D00-0
 62
     7
370
    50
100
AcDbLine
 10
367.493745
 20
373.265532
 30
0.0
 11
367.493745
 21
372.065534
 31
0.0
  0
LINE
  5
37F
330
1F
100
AcDbEntity
  8
LC-001-100-D00-0
 62
     7
370
    50
100
AcDbLine
 10
366.293744
 20
372.065534
 30
0.0
 11
367.493745
 21
372.065534
 31
0.0
  0
LINE
  5
380
330
1F
100
AcDbEntity
  8
LC-001-100-D00-0
 62
     7
370
    50
100
AcDbLine
 10
366.293744
 20
372.065534
 30
0.0
 11
366.293744
 21
370.06553
 31
0.0
  0
LINE
  5
381
330
1F
100
AcDbEntity
  8
LC-001-100-D00-0
 62
     7
370
    50
100
AcDbLine
 10
367.493745
 20
370.06553
 30
0.0
 11
366.293744
 21
370.06553
 31
0.0
  0
LINE
  5
382
330
1F
100
AcDbEntity
  8
LC-001-100-D00-0
 62
     7
370
    50
100
AcDbLine
 10
367.493745
 20
370.06553
 30
0.0
 11
367.493745
 21
368.865532
 31
0.0
  0
LINE
  5
383
330
1F
100
AcDbEntity
  8
LC-001-100-D00-0
 62
     7
370
    50
100
AcDbLine
 10
365.993746
 20
390.26553
 30
0.0
 11
367.493745
 21
390.26553
 31
0.0
  0
LINE
  5
384
330
1F
100
AcDbEntity
  8
LC-001-100-D00-0
 62
     7
370
    50
100
AcDbLine
 10
365.993746
 20
396.265534
 30
0.0
 11
365.993746
 21
390.26553
 31
0.0
  0
LINE
  5
385
330
1F
100
AcDbEntity
  8
LC-001-100-D00-0
 62
     7
370
    50
100
AcDbLine
 10
367.493745
 20
366.865532
 30
0.0
 11
366.293744
 21
366.865532
 31
0.0
  0
LINE
  5
386
330
1F
100
AcDbEntity
  8
LC-001-100-D00-0
 62
     7
370
    50
100
AcDbLine
 10
366.293744
 20
368.865532
 30
0.0
 11
367.493745
 21
368.865532
 31
0.0
  0
LINE
  5
387
330
1F
100
AcDbEntity
  8
LC-001-100-D00-0
 62
     7
370
    50
100
AcDbLine
 10
270.993747
 20
359.26553
 30
0.0
 11
271.937754
 21
359.26553
 31
0.0
  0
LINE
  5
388
330
1F
100
AcDbEntity
  8
LC-001-100-D00-0
 62
     7
370
    50
100
AcDbLine
 10
364.493747
 20
391.265532
 30
0.0
 11
363.993746
 21
391.265532
 31
0.0
  0
LINE
  5
389
330
1F
100
AcDbEntity
  8
LC-001-100-D00-0
 62
     7
370
    50
100
AcDbLine
 10
362.493746
 20
391.265532
 30
0.0
 11
331.910153
 21
391.265532
 31
0.0
  0
LINE
  5
38A
330
1F
100
AcDbEntity
  8
LC-001-100-D00-0
 62
     7
370
    50
100
AcDbLine
 10
305.077337
 20
391.265532
 30
0.0
 11
274.493747
 21
391.265532
 31
0.0
  0
LINE
  5
38B
330
1F
100
AcDbEntity
  8
LC-001-100-D00-0
 62
     7
370
    50
100
AcDbLine
 10
272.993744
 20
391.265532
 30
0.0
 11
272.493747
 21
391.265532
 31
0.0
  0
LINE
  5
38C
330
1F
100
AcDbEntity
  8
LC-001-100-D00-0
 62
     7
370
    50
100
AcDbLine
 10
272.493747
 20
389.765529
 30
0.0
 11
364.493747
 21
389.765529
 31
0.0
  0
LINE
  5
38D
330
1F
100
AcDbEntity
  8
LC-001-100-D00-0
 62
     7
370
    50
100
AcDbLine
 10
364.573781
 20
359.26553
 30
0.0
 11
365.049739
 21
359.26553
 31
0.0
  0
LINE
  5
38E
330
1F
100
AcDbEntity
  8
LC-001-100-D00-0
 62
     7
370
    50
100
AcDbLine
 10
271.937754
 20
359.26553
 30
0.0
 11
272.413716
 21
359.26553
 31
0.0
  0
LINE
  5
38F
330
1F
100
AcDbEntity
  8
LC-001-100-D00-0
 62
     7
370
    50
100
AcDbLine
 10
345.676106
 20
359.26553
 30
0.0
 11
364.573781
 21
359.26553
 31
0.0
  0
LINE
  5
390
330
1F
100
AcDbEntity
  8
LC-001-100-D00-0
 62
     7
370
    50
100
AcDbLine
 10
272.413716
 20
359.26553
 30
0.0
 11
291.311391
 21
359.26553
 31
0.0
  0
LINE
  5
391
330
1F
100
AcDbEntity
  8
LC-001-100-D00-0
 62
     7
370
    50
100
AcDbLine
 10
364.493747
 20
396.265534
 30
0.0
 11
361.493744
 21
396.265534
 31
0.0
  0
LINE
  5
392
330
1F
100
AcDbEntity
  8
LC-001-100-D00-0
 62
     7
370
    50
100
AcDbLine
 10
275.493745
 20
396.265534
 30
0.0
 11
272.493747
 21
396.265534
 31
0.0
  0
LINE
  5
393
330
1F
100
AcDbEntity
  8
LC-001-100-D00-0
 62
     7
370
    50
100
AcDbLine
 10
344.154984
 20
359.26553
 30
0.0
 11
345.676106
 21
359.26553
 31
0.0
  0
LINE
  5
394
330
1F
100
AcDbEntity
  8
LC-001-100-D00-0
 62
     7
370
    50
100
AcDbLine
 10
291.311391
 20
359.26553
 30
0.0
 11
292.832513
 21
359.26553
 31
0.0
  0
LINE
  5
395
330
1F
100
AcDbEntity
  8
LC-001-100-D00-0
 62
     7
370
    50
100
AcDbLine
 10
292.832513
 20
359.26553
 30
0.0
 11
310.512647
 21
359.26553
 31
0.0
  0
LINE
  5
396
330
1F
100
AcDbEntity
  8
LC-001-100-D00-0
 62
     7
370
    50
100
AcDbLine
 10
326.474844
 20
359.26553
 30
0.0
 11
344.154984
 21
359.26553
 31
0.0
  0
LINE
  5
397
330
1F
100
AcDbEntity
  8
LC-001-100-D00-0
 62
     7
370
    50
100
AcDbLine
 10
234.993749
 20
362.265532
 30
0.0
 11
234.993749
 21
359.26553
 31
0.0
  0
LINE
  5
398
330
1F
100
AcDbEntity
  8
LC-001-100-D00-0
 62
     7
370
    50
100
AcDbLine
 10
401.993745
 20
359.26553
 30
0.0
 11
401.993745
 21
362.265532
 31
0.0
  0
LINE
  5
399
330
1F
100
AcDbEntity
  8
LC-001-100-D00-0
 62
     7
370
    50
100
AcDbLine
 10
367.488038
 20
360.465532
 30
0.0
 11
367.488038
 21
362.265532
 31
0.0
  0
LINE
  5
39A
330
1F
100
AcDbEntity
  8
LC-001-100-D00-0
 62
     7
370
    50
100
AcDbLine
 10
369.493746
 20
362.265532
 30
0.0
 11
367.488038
 21
362.265532
 31
0.0
  0
LINE
  5
39B
330
1F
100
AcDbEntity
  8
LC-001-100-D00-0
 62
     7
370
    50
100
AcDbLine
 10
369.493746
 20
359.26553
 30
0.0
 11
369.493746
 21
362.265532
 31
0.0
  0
LINE
  5
39C
330
1F
100
AcDbEntity
  8
LC-001-100-D00-0
 62
     7
370
    50
100
AcDbLine
 10
369.493746
 20
359.26553
 30
0.0
 11
367.488038
 21
359.26553
 31
0.0
  0
LINE
  5
39D
330
1F
100
AcDbEntity
  8
LC-001-100-D00-0
 62
     7
370
    50
100
AcDbLine
 10
401.993745
 20
362.265532
 30
0.0
 11
369.493746
 21
362.265532
 31
0.0
  0
LINE
  5
39E
330
1F
100
AcDbEntity
  8
LC-001-100-D00-0
 62
     7
370
    50
100
AcDbLine
 10
369.493746
 20
359.26553
 30
0.0
 11
401.993745
 21
359.26553
 31
0.0
  0
LINE
  5
39F
330
1F
100
AcDbEntity
  8
LC-001-100-D00-0
 62
     7
370
    50
100
AcDbLine
 10
269.499448
 20
362.265532
 30
0.0
 11
269.499448
 21
360.465532
 31
0.0
  0
LINE
  5
3A0
330
1F
100
AcDbEntity
  8
LC-001-100-D00-0
 62
     7
370
    50
100
AcDbLine
 10
267.493744
 20
362.265532
 30
0.0
 11
267.493744
 21
359.26553
 31
0.0
  0
LINE
  5
3A1
330
1F
100
AcDbEntity
  8
LC-001-100-D00-0
 62
     7
370
    50
100
AcDbLine
 10
269.499448
 20
362.265532
 30
0.0
 11
267.493744
 21
362.265532
 31
0.0
  0
LINE
  5
3A2
330
1F
100
AcDbEntity
  8
LC-001-100-D00-0
 62
     7
370
    50
100
AcDbLine
 10
269.499448
 20
359.26553
 30
0.0
 11
267.493744
 21
359.26553
 31
0.0
  0
LINE
  5
3A3
330
1F
100
AcDbEntity
  8
LC-001-100-D00-0
 62
     7
370
    50
100
AcDbLine
 10
267.493744
 20
362.265532
 30
0.0
 11
234.993749
 21
362.265532
 31
0.0
  0
LINE
  5
3A4
330
1F
100
AcDbEntity
  8
LC-001-100-D00-0
 62
     7
370
    50
100
AcDbLine
 10
234.993749
 20
359.26553
 30
0.0
 11
267.493744
 21
359.26553
 31
0.0
  0
LINE
  5
3A5
330
1F
100
AcDbEntity
  8
LC-001-100-D00-0
 62
     7
370
    50
100
AcDbLine
 10
367.488038
 20
362.265532
 30
0.0
 11
366.545674
 21
362.265532
 31
0.0
  0
LINE
  5
3A6
330
1F
100
AcDbEntity
  8
LC-001-100-D00-0
 62
     7
370
    50
100
AcDbLine
 10
270.441812
 20
362.265532
 30
0.0
 11
269.499448
 21
362.265532
 31
0.0
  0
LINE
  5
3A7
330
1F
100
AcDbEntity
  8
LC-001-100-D00-0
 62
     7
370
    50
100
AcDbLine
 10
270.693746
 20
362.265532
 30
0.0
 11
270.441812
 21
362.265532
 31
0.0
  0
LINE
  5
3A8
330
1F
100
AcDbEntity
  8
LC-001-100-D00-0
 62
     7
370
    50
100
AcDbLine
 10
366.545674
 20
362.265532
 30
0.0
 11
366.293744
 21
362.265532
 31
0.0
  0
INSERT
  5
3B6
330
1F
100
AcDbEntity
  8
LC-001-100-D00-0
 62
     7
370
    50
100
AcDbBlockReference
  2
POLY26
 10
0.0
 20
0.0
 30
0.0
  0
LINE
  5
3B7
330
1F
100
AcDbEntity
  8
LC-001-100-D00-0
 62
     7
370
    50
100
AcDbLine
 10
317.910412
 20
394.865533
 30
0.0
 11
317.910412
 21
394.765531
 31
0.0
  0
LINE
  5
3B8
330
1F
100
AcDbEntity
  8
LC-001-100-D00-0
 62
     7
370
    50
100
AcDbLine
 10
318.469418
 20
394.865533
 30
0.0
 11
318.469418
 21
394.765531
 31
0.0
  0
LINE
  5
3B9
330
1F
100
AcDbEntity
  8
LC-001-100-D00-0
 62
     7
370
    50
100
AcDbLine
 10
318.779454
 20
396.165533
 30
0.0
 11
318.493746
 21
396.165533
 31
0.0
  0
LINE
  5
3BA
330
1F
100
AcDbEntity
  8
LC-001-100-D00-0
 62
     7
370
    50
100
AcDbLine
 10
318.779454
 20
396.265534
 30
0.0
 11
318.779454
 21
396.165533
 31
0.0
  0
LINE
  5
3BB
330
1F
100
AcDbEntity
  8
LC-001-100-D00-0
 62
     7
370
    50
100
AcDbLine
 10
319.512356
 20
396.265534
 30
0.0
 11
318.779454
 21
396.265534
 31
0.0
  0
LINE
  5
3BC
330
1F
100
AcDbEntity
  8
LC-001-100-D00-0
 62
     7
370
    50
100
AcDbLine
 10
319.512356
 20
396.165533
 30
0.0
 11
319.512356
 21
396.265534
 31
0.0
  0
LINE
  5
3BD
330
1F
100
AcDbEntity
  8
LC-001-100-D00-0
 62
     7
370
    50
100
AcDbLine
 10
319.798065
 20
396.165533
 30
0.0
 11
319.512356
 21
396.165533
 31
0.0
  0
LINE
  5
3BE
330
1F
100
AcDbEntity
  8
LC-001-100-D00-0
 62
     7
370
    50
100
AcDbLine
 10
319.798065
 20
396.265534
 30
0.0
 11
319.798065
 21
396.165533
 31
0.0
  0
LINE
  5
3BF
330
1F
100
AcDbEntity
  8
LC-001-100-D00-0
 62
     7
370
    50
100
AcDbLine
 10
320.740073
 20
396.265534
 30
0.0
 11
319.798065
 21
396.265534
 31
0.0
  0
LINE
  5
3C0
330
1F
100
AcDbEntity
  8
LC-001-100-D00-0
 62
     7
370
    50
100
AcDbLine
 10
320.740073
 20
396.265534
 30
0.0
 11
320.740073
 21
396.165533
 31
0.0
  0
LINE
  5
3C1
330
1F
100
AcDbEntity
  8
LC-001-100-D00-0
 62
     7
370
    50
100
AcDbLine
 10
321.025782
 20
396.165533
 30
0.0
 11
320.740073
 21
396.165533
 31
0.0
  0
LINE
  5
3C2
330
1F
100
AcDbEntity
  8
LC-001-100-D00-0
 62
     7
370
    50
100
AcDbLine
 10
321.025782
 20
396.265534
 30
0.0
 11
321.025782
 21
396.165533
 31
0.0
  0
LINE
  5
3C3
330
1F
100
AcDbEntity
  8
LC-001-100-D00-0
 62
     7
370
    50
100
AcDbLine
 10
321.831147
 20
396.265534
 30
0.0
 11
321.025782
 21
396.265534
 31
0.0
  0
LINE
  5
3C4
330
1F
100
AcDbEntity
  8
LC-001-100-D00-0
 62
     7
370
    50
100
AcDbLine
 10
321.831147
 20
396.165533
 30
0.0
 11
321.831147
 21
396.265534
 31
0.0
  0
LINE
  5
3C5
330
1F
100
AcDbEntity
  8
LC-001-100-D00-0
 62
     7
370
    50
100
AcDbLine
 10
322.116855
 20
396.165533
 30
0.0
 11
321.831147
 21
396.165533
 31
0.0
  0
LINE
  5
3C6
330
1F
100
AcDbEntity
  8
LC-001-100-D00-0
 62
     7
370
    50
100
AcDbLine
 10
322.116855
 20
396.265534
 30
0.0
 11
322.116855
 21
396.165533
 31
0.0
  0
LINE
  5
3C7
330
1F
100
AcDbEntity
  8
LC-001-100-D00-0
 62
     7
370
    50
100
AcDbLine
 10
323.058864
 20
396.265534
 30
0.0
 11
322.116855
 21
396.265534
 31
0.0
  0
LINE
  5
3C8
330
1F
100
AcDbEntity
  8
LC-001-100-D00-0
 62
     7
370
    50
100
AcDbLine
 10
323.058864
 20
396.265534
 30
0.0
 11
323.058864
 21
396.165533
 31
0.0
  0
LINE
  5
3C9
330
1F
100
AcDbEntity
  8
LC-001-100-D00-0
 62
     7
370
    50
100
AcDbLine
 10
323.344573
 20
396.165533
 30
0.0
 11
323.058864
 21
396.165533
 31
0.0
  0
LINE
  5
3CA
330
1F
100
AcDbEntity
  8
LC-001-100-D00-0
 62
     7
370
    50
100
AcDbLine
 10
323.344573
 20
396.265534
 30
0.0
 11
323.344573
 21
396.165533
 31
0.0
  0
LINE
  5
3CB
330
1F
100
AcDbEntity
  8
LC-001-100-D00-0
 62
     7
370
    50
100
AcDbLine
 10
324.077475
 20
396.265534
 30
0.0
 11
323.344573
 21
396.265534
 31
0.0
  0
LINE
  5
3CC
330
1F
100
AcDbEntity
  8
LC-001-100-D00-0
 62
     7
370
    50
100
AcDbLine
 10
324.077475
 20
396.165533
 30
0.0
 11
324.077475
 21
396.265534
 31
0.0
  0
LINE
  5
3CD
330
1F
100
AcDbEntity
  8
LC-001-100-D00-0
 62
     7
370
    50
100
AcDbLine
 10
324.363184
 20
396.165533
 30
0.0
 11
324.077475
 21
396.165533
 31
0.0
  0
LINE
  5
3CE
330
1F
100
AcDbEntity
  8
LC-001-100-D00-0
 62
     7
370
    50
100
AcDbLine
 10
324.363184
 20
396.265534
 30
0.0
 11
324.363184
 21
396.165533
 31
0.0
  0
LINE
  5
3CF
330
1F
100
AcDbEntity
  8
LC-001-100-D00-0
 62
     7
370
    50
100
AcDbLine
 10
324.942881
 20
396.265534
 30
0.0
 11
324.363184
 21
396.265534
 31
0.0
  0
LINE
  5
3D0
330
1F
100
AcDbEntity
  8
LC-001-100-D00-0
 62
     7
370
    50
100
AcDbLine
 10
324.942881
 20
396.265534
 30
0.0
 11
324.942881
 21
396.165533
 31
0.0
  0
LINE
  5
3D1
330
1F
100
AcDbEntity
  8
LC-001-100-D00-0
 62
     7
370
    50
100
AcDbLine
 10
325.22859
 20
396.165533
 30
0.0
 11
324.942881
 21
396.165533
 31
0.0
  0
LINE
  5
3D2
330
1F
100
AcDbEntity
  8
LC-001-100-D00-0
 62
     7
370
    50
100
AcDbLine
 10
325.22859
 20
396.265534
 30
0.0
 11
325.22859
 21
396.165533
 31
0.0
  0
LINE
  5
3D3
330
1F
100
AcDbEntity
  8
LC-001-100-D00-0
 62
     7
370
    50
100
AcDbLine
 10
325.961492
 20
396.265534
 30
0.0
 11
325.22859
 21
396.265534
 31
0.0
  0
LINE
  5
3D4
330
1F
100
AcDbEntity
  8
LC-001-100-D00-0
 62
     7
370
    50
100
AcDbLine
 10
325.961492
 20
396.165533
 30
0.0
 11
325.961492
 21
396.265534
 31
0.0
  0
LINE
  5
3D5
330
1F
100
AcDbEntity
  8
LC-001-100-D00-0
 62
     7
370
    50
100
AcDbLine
 10
328.131218
 20
396.165533
 30
0.0
 11
325.961492
 21
396.165533
 31
0.0
  0
LINE
  5
3D6
330
1F
100
AcDbEntity
  8
LC-001-100-D00-0
 62
     7
370
    50
100
AcDbLine
 10
328.131218
 20
396.265534
 30
0.0
 11
328.131218
 21
396.165533
 31
0.0
  0
LINE
  5
3D7
330
1F
100
AcDbEntity
  8
LC-001-100-D00-0
 62
     7
370
    50
100
AcDbLine
 10
328.928304
 20
396.265534
 30
0.0
 11
328.131218
 21
396.265534
 31
0.0
  0
LINE
  5
3D8
330
1F
100
AcDbEntity
  8
LC-001-100-D00-0
 62
     7
370
    50
100
AcDbLine
 10
328.928304
 20
396.265534
 30
0.0
 11
328.928304
 21
396.165533
 31
0.0
  0
LINE
  5
3D9
330
1F
100
AcDbEntity
  8
LC-001-100-D00-0
 62
     7
370
    50
100
AcDbLine
 10
329.214012
 20
396.165533
 30
0.0
 11
328.928304
 21
396.165533
 31
0.0
  0
LINE
  5
3DA
330
1F
100
AcDbEntity
  8
LC-001-100-D00-0
 62
     7
370
    50
100
AcDbLine
 10
329.214012
 20
396.265534
 30
0.0
 11
329.214012
 21
396.165533
 31
0.0
  0
LINE
  5
3DB
330
1F
100
AcDbEntity
  8
LC-001-100-D00-0
 62
     7
370
    50
100
AcDbLine
 10
332.287651
 20
396.265534
 30
0.0
 11
329.214012
 21
396.265534
 31
0.0
  0
LINE
  5
3DC
330
1F
100
AcDbEntity
  8
LC-001-100-D00-0
 62
     7
370
    50
100
AcDbLine
 10
332.287651
 20
396.165533
 30
0.0
 11
332.287651
 21
396.265534
 31
0.0
  0
LINE
  5
3DD
330
1F
100
AcDbEntity
  8
LC-001-100-D00-0
 62
     7
370
    50
100
AcDbLine
 10
332.671355
 20
396.165533
 30
0.0
 11
332.287651
 21
396.165533
 31
0.0
  0
LINE
  5
3DE
330
1F
100
AcDbEntity
  8
LC-001-100-D00-0
 62
     7
370
    50
100
AcDbLine
 10
332.671355
 20
396.165533
 30
0.0
 11
332.671355
 21
396.265534
 31
0.0
  0
LINE
  5
3DF
330
1F
100
AcDbEntity
  8
LC-001-100-D00-0
 62
     7
370
    50
100
AcDbLine
 10
336.993745
 20
396.265534
 30
0.0
 11
332.671355
 21
396.265534
 31
0.0
  0
ARC
  5
3E0
330
1F
100
AcDbEntity
  8
LC-001-100-D00-0
 62
     7
370
    50
100
AcDbCircle
 10
336.993745
 20
393.765531
 30
0.0
 40
2.500000000000114
100
AcDbArc
 50
0.0
 51
90.0
  0
LINE
  5
3E1
330
1F
100
AcDbEntity
  8
LC-001-100-D00-0
 62
     7
370
    50
100
AcDbLine
 10
339.493745
 20
392.265534
 30
0.0
 11
339.493745
 21
393.765529
 31
0.0
  0
LINE
  5
3E2
330
1F
100
AcDbEntity
  8
LC-001-100-D00-0
 62
     7
370
    50
100
AcDbLine
 10
337.993745
 20
392.265534
 30
0.0
 11
339.493745
 21
392.265534
 31
0.0
  0
LINE
  5
3E3
330
1F
100
AcDbEntity
  8
LC-001-100-D00-0
 62
     7
370
    50
100
AcDbLine
 10
337.993745
 20
392.265534
 30
0.0
 11
337.993745
 21
393.765529
 31
0.0
  0
ARC
  5
3E4
330
1F
100
AcDbEntity
  8
LC-001-100-D00-0
 62
     7
370
    50
100
AcDbCircle
 10
336.993745
 20
393.765531
 30
0.0
 40
1.000000000000227
100
AcDbArc
 50
0.0
 51
90.0
  0
ARC
  5
3E5
330
1F
100
AcDbEntity
  8
LC-001-100-D00-0
 62
     7
370
    50
100
AcDbCircle
 10
299.993745
 20
393.765531
 30
0.0
 40
1.0
100
AcDbArc
 50
90.0
 51
180.0
  0
LINE
  5
3E6
330
1F
100
AcDbEntity
  8
LC-001-100-D00-0
 62
     7
370
    50
100
AcDbLine
 10
298.993746
 20
393.765529
 30
0.0
 11
298.993746
 21
392.265534
 31
0.0
  0
LINE
  5
3E7
330
1F
100
AcDbEntity
  8
LC-001-100-D00-0
 62
     7
370
    50
100
AcDbLine
 10
297.493745
 20
392.265534
 30
0.0
 11
298.993746
 21
392.265534
 31
0.0
  0
LINE
  5
3E8
330
1F
100
AcDbEntity
  8
LC-001-100-D00-0
 62
     7
370
    50
100
AcDbLine
 10
297.493745
 20
393.765529
 30
0.0
 11
297.493745
 21
392.265534
 31
0.0
  0
ARC
  5
3E9
330
1F
100
AcDbEntity
  8
LC-001-100-D00-0
 62
     7
370
    50
100
AcDbCircle
 10
299.993745
 20
393.765531
 30
0.0
 40
2.5
100
AcDbArc
 50
90.0
 51
180.0
  0
LINE
  5
3EA
330
1F
100
AcDbEntity
  8
LC-001-100-D00-0
 62
     7
370
    50
100
AcDbLine
 10
303.421608
 20
396.265534
 30
0.0
 11
299.993745
 21
396.265534
 31
0.0
  0
LINE
  5
3EB
330
1F
100
AcDbEntity
  8
LC-001-100-D00-0
 62
     7
370
    50
100
AcDbLine
 10
303.421608
 20
396.265534
 30
0.0
 11
303.421608
 21
396.165533
 31
0.0
  0
LINE
  5
3EC
330
1F
100
AcDbEntity
  8
LC-001-100-D00-0
 62
     7
370
    50
100
AcDbLine
 10
303.707315
 20
396.165533
 30
0.0
 11
303.421608
 21
396.165533
 31
0.0
  0
LINE
  5
3ED
330
1F
100
AcDbEntity
  8
LC-001-100-D00-0
 62
     7
370
    50
100
AcDbLine
 10
303.707315
 20
396.265534
 30
0.0
 11
303.707315
 21
396.165533
 31
0.0
  0
LINE
  5
3EE
330
1F
100
AcDbEntity
  8
LC-001-100-D00-0
 62
     7
370
    50
100
AcDbLine
 10
304.51268
 20
396.265534
 30
0.0
 11
303.707315
 21
396.265534
 31
0.0
  0
LINE
  5
3EF
330
1F
100
AcDbEntity
  8
LC-001-100-D00-0
 62
     7
370
    50
100
AcDbLine
 10
304.51268
 20
396.165533
 30
0.0
 11
304.51268
 21
396.265534
 31
0.0
  0
LINE
  5
3F0
330
1F
100
AcDbEntity
  8
LC-001-100-D00-0
 62
     7
370
    50
100
AcDbLine
 10
304.798387
 20
396.165533
 30
0.0
 11
304.51268
 21
396.165533
 31
0.0
  0
LINE
  5
3F1
330
1F
100
AcDbEntity
  8
LC-001-100-D00-0
 62
     7
370
    50
100
AcDbLine
 10
304.798387
 20
396.265534
 30
0.0
 11
304.798387
 21
396.165533
 31
0.0
  0
LINE
  5
3F2
330
1F
100
AcDbEntity
  8
LC-001-100-D00-0
 62
     7
370
    50
100
AcDbLine
 10
305.761109
 20
396.265534
 30
0.0
 11
304.798387
 21
396.265534
 31
0.0
  0
LINE
  5
3F3
330
1F
100
AcDbEntity
  8
LC-001-100-D00-0
 62
     7
370
    50
100
AcDbLine
 10
305.761109
 20
396.265534
 30
0.0
 11
305.761109
 21
396.165533
 31
0.0
  0
LINE
  5
3F4
330
1F
100
AcDbEntity
  8
LC-001-100-D00-0
 62
     7
370
    50
100
AcDbLine
 10
306.046818
 20
396.165533
 30
0.0
 11
305.761109
 21
396.165533
 31
0.0
  0
LINE
  5
3F5
330
1F
100
AcDbEntity
  8
LC-001-100-D00-0
 62
     7
370
    50
100
AcDbLine
 10
306.046818
 20
396.265534
 30
0.0
 11
306.046818
 21
396.165533
 31
0.0
  0
LINE
  5
3F6
330
1F
100
AcDbEntity
  8
LC-001-100-D00-0
 62
     7
370
    50
100
AcDbLine
 10
306.707258
 20
396.265534
 30
0.0
 11
306.046818
 21
396.265534
 31
0.0
  0
LINE
  5
3F7
330
1F
100
AcDbEntity
  8
LC-001-100-D00-0
 62
     7
370
    50
100
AcDbLine
 10
306.707258
 20
396.165533
 30
0.0
 11
306.707258
 21
396.265534
 31
0.0
  0
LINE
  5
3F8
330
1F
100
AcDbEntity
  8
LC-001-100-D00-0
 62
     7
370
    50
100
AcDbLine
 10
306.992965
 20
396.165533
 30
0.0
 11
306.707258
 21
396.165533
 31
0.0
  0
LINE
  5
3F9
330
1F
100
AcDbEntity
  8
LC-001-100-D00-0
 62
     7
370
    50
100
AcDbLine
 10
306.992965
 20
396.265534
 30
0.0
 11
306.992965
 21
396.165533
 31
0.0
  0
LINE
  5
3FA
330
1F
100
AcDbEntity
  8
LC-001-100-D00-0
 62
     7
370
    50
100
AcDbLine
 10
307.624415
 20
396.265534
 30
0.0
 11
306.992965
 21
396.265534
 31
0.0
  0
LINE
  5
3FB
330
1F
100
AcDbEntity
  8
LC-001-100-D00-0
 62
     7
370
    50
100
AcDbLine
 10
307.624415
 20
396.265534
 30
0.0
 11
307.624415
 21
396.165533
 31
0.0
  0
LINE
  5
3FC
330
1F
100
AcDbEntity
  8
LC-001-100-D00-0
 62
     7
370
    50
100
AcDbLine
 10
307.910122
 20
396.165533
 30
0.0
 11
307.624415
 21
396.165533
 31
0.0
  0
LINE
  5
3FD
330
1F
100
AcDbEntity
  8
LC-001-100-D00-0
 62
     7
370
    50
100
AcDbLine
 10
307.910122
 20
396.265534
 30
0.0
 11
307.910122
 21
396.165533
 31
0.0
  0
LINE
  5
3FE
330
1F
100
AcDbEntity
  8
LC-001-100-D00-0
 62
     7
370
    50
100
AcDbLine
 10
311.251665
 20
396.265534
 30
0.0
 11
307.910122
 21
396.265534
 31
0.0
  0
LINE
  5
3FF
330
1F
100
AcDbEntity
  8
LC-001-100-D00-0
 62
     7
370
    50
100
AcDbLine
 10
311.251665
 20
396.165533
 30
0.0
 11
311.251665
 21
396.265534
 31
0.0
  0
LINE
  5
400
330
1F
100
AcDbEntity
  8
LC-001-100-D00-0
 62
     7
370
    50
100
AcDbLine
 10
311.537374
 20
396.165533
 30
0.0
 11
311.251665
 21
396.165533
 31
0.0
  0
LINE
  5
401
330
1F
100
AcDbEntity
  8
LC-001-100-D00-0
 62
     7
370
    50
100
AcDbLine
 10
311.537374
 20
396.265534
 30
0.0
 11
311.537374
 21
396.165533
 31
0.0
  0
LINE
  5
402
330
1F
100
AcDbEntity
  8
LC-001-100-D00-0
 62
     7
370
    50
100
AcDbLine
 10
312.261996
 20
396.265534
 30
0.0
 11
311.537374
 21
396.265534
 31
0.0
  0
LINE
  5
403
330
1F
100
AcDbEntity
  8
LC-001-100-D00-0
 62
     7
370
    50
100
AcDbLine
 10
312.261996
 20
396.265534
 30
0.0
 11
312.261996
 21
396.165533
 31
0.0
  0
LINE
  5
404
330
1F
100
AcDbEntity
  8
LC-001-100-D00-0
 62
     7
370
    50
100
AcDbLine
 10
312.547705
 20
396.165533
 30
0.0
 11
312.261996
 21
396.165533
 31
0.0
  0
LINE
  5
405
330
1F
100
AcDbEntity
  8
LC-001-100-D00-0
 62
     7
370
    50
100
AcDbLine
 10
312.547705
 20
396.265534
 30
0.0
 11
312.547705
 21
396.165533
 31
0.0
  0
LINE
  5
406
330
1F
100
AcDbEntity
  8
LC-001-100-D00-0
 62
     7
370
    50
100
AcDbLine
 10
313.280607
 20
396.265534
 30
0.0
 11
312.547705
 21
396.265534
 31
0.0
  0
LINE
  5
407
330
1F
100
AcDbEntity
  8
LC-001-100-D00-0
 62
     7
370
    50
100
AcDbLine
 10
313.280607
 20
396.165533
 30
0.0
 11
313.280607
 21
396.265534
 31
0.0
  0
LINE
  5
408
330
1F
100
AcDbEntity
  8
LC-001-100-D00-0
 62
     7
370
    50
100
AcDbLine
 10
313.566315
 20
396.165533
 30
0.0
 11
313.280607
 21
396.165533
 31
0.0
  0
LINE
  5
409
330
1F
100
AcDbEntity
  8
LC-001-100-D00-0
 62
     7
370
    50
100
AcDbLine
 10
313.566315
 20
396.265534
 30
0.0
 11
313.566315
 21
396.165533
 31
0.0
  0
LINE
  5
40A
330
1F
100
AcDbEntity
  8
LC-001-100-D00-0
 62
     7
370
    50
100
AcDbLine
 10
315.37787
 20
396.265534
 30
0.0
 11
313.566315
 21
396.265534
 31
0.0
  0
LINE
  5
40B
330
1F
100
AcDbEntity
  8
LC-001-100-D00-0
 62
     7
370
    50
100
AcDbLine
 10
315.37787
 20
396.265534
 30
0.0
 11
315.37787
 21
396.165533
 31
0.0
  0
LINE
  5
40C
330
1F
100
AcDbEntity
  8
LC-001-100-D00-0
 62
     7
370
    50
100
AcDbLine
 10
315.663579
 20
396.165533
 30
0.0
 11
315.37787
 21
396.165533
 31
0.0
  0
LINE
  5
40D
330
1F
100
AcDbEntity
  8
LC-001-100-D00-0
 62
     7
370
    50
100
AcDbLine
 10
315.663579
 20
396.265534
 30
0.0
 11
315.663579
 21
396.165533
 31
0.0
  0
LINE
  5
40E
330
1F
100
AcDbEntity
  8
LC-001-100-D00-0
 62
     7
370
    50
100
AcDbLine
 10
316.396481
 20
396.265534
 30
0.0
 11
315.663579
 21
396.265534
 31
0.0
  0
LINE
  5
40F
330
1F
100
AcDbEntity
  8
LC-001-100-D00-0
 62
     7
370
    50
100
AcDbLine
 10
316.396481
 20
396.165533
 30
0.0
 11
316.396481
 21
396.265534
 31
0.0
  0
LINE
  5
410
330
1F
100
AcDbEntity
  8
LC-001-100-D00-0
 62
     7
370
    50
100
AcDbLine
 10
316.68219
 20
396.165533
 30
0.0
 11
316.396481
 21
396.165533
 31
0.0
  0
LINE
  5
411
330
1F
100
AcDbEntity
  8
LC-001-100-D00-0
 62
     7
370
    50
100
AcDbLine
 10
316.68219
 20
396.265534
 30
0.0
 11
316.68219
 21
396.165533
 31
0.0
  0
LINE
  5
412
330
1F
100
AcDbEntity
  8
LC-001-100-D00-0
 62
     7
370
    50
100
AcDbLine
 10
318.493746
 20
396.265534
 30
0.0
 11
316.68219
 21
396.265534
 31
0.0
  0
LINE
  5
413
330
1F
100
AcDbEntity
  8
LC-001-100-D00-0
 62
     7
370
    50
100
AcDbLine
 10
318.493746
 20
396.265534
 30
0.0
 11
318.493746
 21
396.165533
 31
0.0
  0
LINE
  5
414
330
1F
100
AcDbEntity
  8
LC-001-100-D00-0
 62
     7
370
    50
100
AcDbLine
 10
317.849585
 20
394.765531
 30
0.0
 11
317.849585
 21
394.865533
 31
0.0
  0
LINE
  5
415
330
1F
100
AcDbEntity
  8
LC-001-100-D00-0
 62
     7
370
    50
100
AcDbLine
 10
317.849585
 20
394.765531
 30
0.0
 11
299.993745
 21
394.765531
 31
0.0
  0
LINE
  5
416
330
1F
100
AcDbEntity
  8
LC-001-100-D00-0
 62
     7
370
    50
100
AcDbLine
 10
336.993745
 20
394.765531
 30
0.0
 11
318.469418
 21
394.765531
 31
0.0
  0
LINE
  5
417
330
1F
100
AcDbEntity
  8
LC-001-100-D00-0
 62
     7
370
    50
100
AcDbLine
 10
317.849585
 20
394.865533
 30
0.0
 11
318.469418
 21
394.865533
 31
0.0
  0
LINE
  5
418
330
1F
100
AcDbEntity
  8
LC-001-100-D00-0
 62
     7
370
    50
100
AcDbLine
 10
362.493746
 20
393.765529
 30
0.0
 11
362.493746
 21
391.265532
 31
0.0
  0
ARC
  5
419
330
1F
100
AcDbEntity
  8
LC-001-100-D00-0
 62
     7
370
    50
100
AcDbCircle
 10
361.493745
 20
393.765531
 30
0.0
 40
1.0
100
AcDbArc
 50
0.0
 51
90.0
  0
ARC
  5
41A
330
1F
100
AcDbEntity
  8
LC-001-100-D00-0
 62
     7
370
    50
100
AcDbCircle
 10
359.993745
 20
393.765531
 30
0.0
 40
1.0
100
AcDbArc
 50
90.0
 51
180.0
  0
LINE
  5
41B
330
1F
100
AcDbEntity
  8
LC-001-100-D00-0
 62
     7
370
    50
100
AcDbLine
 10
358.993747
 20
393.765529
 30
0.0
 11
358.993747
 21
392.265534
 31
0.0
  0
LINE
  5
41C
330
1F
100
AcDbEntity
  8
LC-001-100-D00-0
 62
     7
370
    50
100
AcDbLine
 10
357.493746
 20
392.265534
 30
0.0
 11
358.993747
 21
392.265534
 31
0.0
  0
LINE
  5
41D
330
1F
100
AcDbEntity
  8
LC-001-100-D00-0
 62
     7
370
    50
100
AcDbLine
 10
357.493746
 20
393.765529
 30
0.0
 11
357.493746
 21
392.265534
 31
0.0
  0
ARC
  5
41E
330
1F
100
AcDbEntity
  8
LC-001-100-D00-0
 62
     7
370
    50
100
AcDbCircle
 10
359.993745
 20
393.765531
 30
0.0
 40
2.5
100
AcDbArc
 50
90.0
 51
180.0
  0
LINE
  5
41F
330
1F
100
AcDbEntity
  8
LC-001-100-D00-0
 62
     7
370
    50
100
AcDbLine
 10
361.493744
 20
396.265534
 30
0.0
 11
359.993745
 21
396.265534
 31
0.0
  0
ARC
  5
420
330
1F
100
AcDbEntity
  8
LC-001-100-D00-0
 62
     7
370
    50
100
AcDbCircle
 10
361.493745
 20
393.765531
 30
0.0
 40
2.500000000000114
100
AcDbArc
 50
0.0
 51
90.0
  0
LINE
  5
421
330
1F
100
AcDbEntity
  8
LC-001-100-D00-0
 62
     7
370
    50
100
AcDbLine
 10
363.993746
 20
393.765529
 30
0.0
 11
363.993746
 21
391.265532
 31
0.0
  0
LINE
  5
422
330
1F
100
AcDbEntity
  8
LC-001-100-D00-0
 62
     7
370
    50
100
AcDbLine
 10
363.993746
 20
391.265532
 30
0.0
 11
362.493746
 21
391.265532
 31
0.0
  0
LINE
  5
423
330
1F
100
AcDbEntity
  8
LC-001-100-D00-0
 62
     7
370
    50
100
AcDbLine
 10
361.493744
 20
394.765531
 30
0.0
 11
359.993745
 21
394.765531
 31
0.0
  0
LINE
  5
424
330
1F
100
AcDbEntity
  8
LC-001-100-D00-0
 62
     7
370
    50
100
AcDbLine
 10
272.993744
 20
391.265532
 30
0.0
 11
272.993744
 21
393.765529
 31
0.0
  0
ARC
  5
425
330
1F
100
AcDbEntity
  8
LC-001-100-D00-0
 62
     7
370
    50
100
AcDbCircle
 10
275.493745
 20
393.765531
 30
0.0
 40
2.5
100
AcDbArc
 50
90.0
 51
180.0
  0
ARC
  5
426
330
1F
100
AcDbEntity
  8
LC-001-100-D00-0
 62
     7
370
    50
100
AcDbCircle
 10
276.993745
 20
393.765531
 30
0.0
 40
2.500000000000057
100
AcDbArc
 50
0.0
 51
90.0
  0
LINE
  5
427
330
1F
100
AcDbEntity
  8
LC-001-100-D00-0
 62
     7
370
    50
100
AcDbLine
 10
279.493746
 20
392.265534
 30
0.0
 11
279.493746
 21
393.765529
 31
0.0
  0
LINE
  5
428
330
1F
100
AcDbEntity
  8
LC-001-100-D00-0
 62
     7
370
    50
100
AcDbLine
 10
277.993747
 20
392.265534
 30
0.0
 11
279.493746
 21
392.265534
 31
0.0
  0
LINE
  5
429
330
1F
100
AcDbEntity
  8
LC-001-100-D00-0
 62
     7
370
    50
100
AcDbLine
 10
277.993747
 20
392.265534
 30
0.0
 11
277.993747
 21
393.765529
 31
0.0
  0
ARC
  5
42A
330
1F
100
AcDbEntity
  8
LC-001-100-D00-0
 62
     7
370
    50
100
AcDbCircle
 10
276.993745
 20
393.765531
 30
0.0
 40
0.9999999999999432
100
AcDbArc
 50
0.0
 51
90.0
  0
ARC
  5
42B
330
1F
100
AcDbEntity
  8
LC-001-100-D00-0
 62
     7
370
    50
100
AcDbCircle
 10
275.493745
 20
393.765531
 30
0.0
 40
1.000000000000114
100
AcDbArc
 50
90.0
 51
180.0
  0
LINE
  5
42C
330
1F
100
AcDbEntity
  8
LC-001-100-D00-0
 62
     7
370
    50
100
AcDbLine
 10
274.493747
 20
391.265532
 30
0.0
 11
274.493747
 21
393.765529
 31
0.0
  0
LINE
  5
42D
330
1F
100
AcDbEntity
  8
LC-001-100-D00-0
 62
     7
370
    50
100
AcDbLine
 10
276.993745
 20
396.265534
 30
0.0
 11
275.493745
 21
396.265534
 31
0.0
  0
LINE
  5
42E
330
1F
100
AcDbEntity
  8
LC-001-100-D00-0
 62
     7
370
    50
100
AcDbLine
 10
274.493747
 20
391.265532
 30
0.0
 11
272.993744
 21
391.265532
 31
0.0
  0
LINE
  5
42F
330
1F
100
AcDbEntity
  8
LC-001-100-D00-0
 62
     7
370
    50
100
AcDbLine
 10
276.993745
 20
394.765531
 30
0.0
 11
275.493745
 21
394.765531
 31
0.0
  0
ARC
  5
430
330
1F
100
AcDbEntity
  8
LC-001-100-D00-0
 62
     7
370
    50
100
AcDbCircle
 10
348.993745
 20
393.765531
 30
0.0
 40
1.000000000000114
100
AcDbArc
 50
0.0
 51
90.0
  0
ARC
  5
431
330
1F
100
AcDbEntity
  8
LC-001-100-D00-0
 62
     7
370
    50
100
AcDbCircle
 10
347.993745
 20
393.765531
 30
0.0
 40
1.000000000000114
100
AcDbArc
 50
90.0
 51
180.0
  0
LINE
  5
432
330
1F
100
AcDbEntity
  8
LC-001-100-D00-0
 62
     7
370
    50
100
AcDbLine
 10
346.993745
 20
393.765529
 30
0.0
 11
346.993745
 21
392.265534
 31
0.0
  0
LINE
  5
433
330
1F
100
AcDbEntity
  8
LC-001-100-D00-0
 62
     7
370
    50
100
AcDbLine
 10
345.493745
 20
392.265534
 30
0.0
 11
346.993745
 21
392.265534
 31
0.0
  0
LINE
  5
434
330
1F
100
AcDbEntity
  8
LC-001-100-D00-0
 62
     7
370
    50
100
AcDbLine
 10
345.493745
 20
393.765529
 30
0.0
 11
345.493745
 21
392.265534
 31
0.0
  0
ARC
  5
435
330
1F
100
AcDbEntity
  8
LC-001-100-D00-0
 62
     7
370
    50
100
AcDbCircle
 10
347.993745
 20
393.765531
 30
0.0
 40
2.5
100
AcDbArc
 50
90.0
 51
180.0
  0
ARC
  5
436
330
1F
100
AcDbEntity
  8
LC-001-100-D00-0
 62
     7
370
    50
100
AcDbCircle
 10
348.993745
 20
393.765531
 30
0.0
 40
2.500000000000057
100
AcDbArc
 50
0.0
 51
90.0
  0
LINE
  5
437
330
1F
100
AcDbEntity
  8
LC-001-100-D00-0
 62
     7
370
    50
100
AcDbLine
 10
351.493745
 20
392.265534
 30
0.0
 11
351.493745
 21
393.765529
 31
0.0
  0
LINE
  5
438
330
1F
100
AcDbEntity
  8
LC-001-100-D00-0
 62
     7
370
    50
100
AcDbLine
 10
349.993745
 20
392.265534
 30
0.0
 11
349.993745
 21
393.765529
 31
0.0
  0
LINE
  5
439
330
1F
100
AcDbEntity
  8
LC-001-100-D00-0
 62
     7
370
    50
100
AcDbLine
 10
348.993745
 20
396.265534
 30
0.0
 11
347.993745
 21
396.265534
 31
0.0
  0
LINE
  5
43A
330
1F
100
AcDbEntity
  8
LC-001-100-D00-0
 62
     7
370
    50
100
AcDbLine
 10
349.993745
 20
392.265534
 30
0.0
 11
351.493745
 21
392.265534
 31
0.0
  0
LINE
  5
43B
330
1F
100
AcDbEntity
  8
LC-001-100-D00-0
 62
     7
370
    50
100
AcDbLine
 10
348.993745
 20
394.765531
 30
0.0
 11
347.993745
 21
394.765531
 31
0.0
  0
LINE
  5
43C
330
1F
100
AcDbEntity
  8
LC-001-100-D00-0
 62
     7
370
    50
100
AcDbLine
 10
332.593345
 20
396.165533
 30
0.0
 11
332.593345
 21
396.265534
 31
0.0
  0
LINE
  5
43D
330
1F
100
AcDbEntity
  8
LC-001-100-D00-0
 62
     7
370
    50
100
AcDbLine
 10
332.671355
 20
396.265534
 30
0.0
 11
332.593345
 21
396.265534
 31
0.0
  0
ARC
  5
43E
330
1F
100
AcDbEntity
  8
LC-001-100-D00-0
 62
     7
370
    50
100
AcDbCircle
 10
288.993745
 20
393.765531
 30
0.0
 40
1.000000000000227
100
AcDbArc
 50
0.0
 51
90.0
  0
ARC
  5
43F
330
1F
100
AcDbEntity
  8
LC-001-100-D00-0
 62
     7
370
    50
100
AcDbCircle
 10
287.993745
 20
393.765531
 30
0.0
 40
1.000000000000114
100
AcDbArc
 50
90.0
 51
180.0
  0
LINE
  5
440
330
1F
100
AcDbEntity
  8
LC-001-100-D00-0
 62
     7
370
    50
100
AcDbLine
 10
286.993746
 20
393.765529
 30
0.0
 11
286.993746
 21
392.265534
 31
0.0
  0
LINE
  5
441
330
1F
100
AcDbEntity
  8
LC-001-100-D00-0
 62
     7
370
    50
100
AcDbLine
 10
285.493747
 20
392.265534
 30
0.0
 11
286.993746
 21
392.265534
 31
0.0
  0
LINE
  5
442
330
1F
100
AcDbEntity
  8
LC-001-100-D00-0
 62
     7
370
    50
100
AcDbLine
 10
285.493747
 20
393.765529
 30
0.0
 11
285.493747
 21
392.265534
 31
0.0
  0
ARC
  5
443
330
1F
100
AcDbEntity
  8
LC-001-100-D00-0
 62
     7
370
    50
100
AcDbCircle
 10
287.993745
 20
393.765531
 30
0.0
 40
2.499999999999886
100
AcDbArc
 50
90.0
 51
180.0
  0
ARC
  5
444
330
1F
100
AcDbEntity
  8
LC-001-100-D00-0
 62
     7
370
    50
100
AcDbCircle
 10
288.993745
 20
393.765531
 30
0.0
 40
2.500000000000114
100
AcDbArc
 50
0.0
 51
90.0
  0
LINE
  5
445
330
1F
100
AcDbEntity
  8
LC-001-100-D00-0
 62
     7
370
    50
100
AcDbLine
 10
291.493744
 20
392.265534
 30
0.0
 11
291.493744
 21
393.765529
 31
0.0
  0
LINE
  5
446
330
1F
100
AcDbEntity
  8
LC-001-100-D00-0
 62
     7
370
    50
100
AcDbLine
 10
289.993745
 20
392.265534
 30
0.0
 11
289.993745
 21
393.765529
 31
0.0
  0
LINE
  5
447
330
1F
100
AcDbEntity
  8
LC-001-100-D00-0
 62
     7
370
    50
100
AcDbLine
 10
289.993745
 20
392.265534
 30
0.0
 11
291.493744
 21
392.265534
 31
0.0
  0
LINE
  5
448
330
1F
100
AcDbEntity
  8
LC-001-100-D00-0
 62
     7
370
    50
100
AcDbLine
 10
288.993746
 20
396.265534
 30
0.0
 11
287.993744
 21
396.265534
 31
0.0
  0
LINE
  5
449
330
1F
100
AcDbEntity
  8
LC-001-100-D00-0
 62
     7
370
    50
100
AcDbLine
 10
288.993746
 20
394.765531
 30
0.0
 11
287.993744
 21
394.765531
 31
0.0
  0
LINE
  5
44A
330
1F
100
AcDbEntity
  8
LC-001-100-D00-0
 62
     7
370
    50
100
AcDbLine
 10
320.740074
 20
396.165533
 30
0.0
 11
320.740074
 21
396.265534
 31
0.0
  0
LINE
  5
44B
330
1F
100
AcDbEntity
  8
LC-001-100-D00-0
 62
     7
370
    50
100
AcDbLine
 10
320.740074
 20
396.265534
 30
0.0
 11
320.740074
 21
396.265534
 31
0.0
  0
LINE
  5
44C
330
1F
100
AcDbEntity
  8
LC-001-100-D00-0
 62
     7
370
    50
100
AcDbLine
 10
332.555553
 20
396.165533
 30
0.0
 11
332.555553
 21
396.265534
 31
0.0
  0
LINE
  5
44D
330
1F
100
AcDbEntity
  8
LC-001-100-D00-0
 62
     7
370
    50
100
AcDbLine
 10
332.287651
 20
396.265534
 30
0.0
 11
332.555553
 21
396.265534
 31
0.0
  0
LINE
  5
44E
330
1F
100
AcDbEntity
  8
LC-001-100-D00-0
 62
     7
370
    50
100
AcDbLine
 10
327.84551
 20
396.165533
 30
0.0
 11
327.84551
 21
396.265534
 31
0.0
  0
LINE
  5
44F
330
1F
100
AcDbEntity
  8
LC-001-100-D00-0
 62
     7
370
    50
100
AcDbLine
 10
325.961492
 20
396.265534
 30
0.0
 11
327.84551
 21
396.265534
 31
0.0
  0
LINE
  5
450
330
1F
100
AcDbEntity
  8
LC-001-100-D00-0
 62
     7
370
    50
100
AcDbLine
 10
328.131218
 20
396.265534
 30
0.0
 11
327.84551
 21
396.265534
 31
0.0
  0
LINE
  5
451
330
1F
100
AcDbEntity
  8
LC-001-100-D00-0
 62
     7
370
    50
100
AcDbLine
 10
306.046818
 20
396.265534
 30
0.0
 11
305.761109
 21
396.265534
 31
0.0
  0
LINE
  5
452
330
1F
100
AcDbEntity
  8
LC-001-100-D00-0
 62
     7
370
    50
100
AcDbLine
 10
323.344574
 20
396.165533
 30
0.0
 11
323.344574
 21
396.265534
 31
0.0
  0
LINE
  5
453
330
1F
100
AcDbEntity
  8
LC-001-100-D00-0
 62
     7
370
    50
100
AcDbLine
 10
323.344574
 20
396.265534
 30
0.0
 11
323.058864
 21
396.265534
 31
0.0
  0
LINE
  5
454
330
1F
100
AcDbEntity
  8
LC-001-100-D00-0
 62
     7
370
    50
100
AcDbLine
 10
321.025783
 20
396.165533
 30
0.0
 11
321.025783
 21
396.265534
 31
0.0
  0
LINE
  5
455
330
1F
100
AcDbEntity
  8
LC-001-100-D00-0
 62
     7
370
    50
100
AcDbLine
 10
321.025783
 20
396.265534
 30
0.0
 11
320.740074
 21
396.265534
 31
0.0
  0
LINE
  5
456
330
1F
100
AcDbEntity
  8
LC-001-100-D00-0
 62
     7
370
    50
100
AcDbLine
 10
322.116855
 20
396.265534
 30
0.0
 11
321.831147
 21
396.265534
 31
0.0
  0
LINE
  5
457
330
1F
100
AcDbEntity
  8
LC-001-100-D00-0
 62
     7
370
    50
100
AcDbLine
 10
319.798065
 20
396.265534
 30
0.0
 11
319.512356
 21
396.265534
 31
0.0
  0
LINE
  5
458
330
1F
100
AcDbEntity
  8
LC-001-100-D00-0
 62
     7
370
    50
100
AcDbLine
 10
304.51268
 20
396.265534
 30
0.0
 11
304.798387
 21
396.265534
 31
0.0
  0
LINE
  5
459
330
1F
100
AcDbEntity
  8
LC-001-100-D00-0
 62
     7
370
    50
100
AcDbLine
 10
311.537374
 20
396.265534
 30
0.0
 11
311.251665
 21
396.265534
 31
0.0
  0
LINE
  5
45A
330
1F
100
AcDbEntity
  8
LC-001-100-D00-0
 62
     7
370
    50
100
AcDbLine
 10
307.910122
 20
396.265534
 30
0.0
 11
307.624415
 21
396.265534
 31
0.0
  0
LINE
  5
45B
330
1F
100
AcDbEntity
  8
LC-001-100-D00-0
 62
     7
370
    50
100
AcDbLine
 10
324.363184
 20
396.265534
 30
0.0
 11
324.077475
 21
396.265534
 31
0.0
  0
LINE
  5
45C
330
1F
100
AcDbEntity
  8
LC-001-100-D00-0
 62
     7
370
    50
100
AcDbLine
 10
332.593345
 20
396.265534
 30
0.0
 11
332.555553
 21
396.265534
 31
0.0
  0
LINE
  5
45D
330
1F
100
AcDbEntity
  8
LC-001-100-D00-0
 62
     7
370
    50
100
AcDbLine
 10
306.992965
 20
396.265534
 30
0.0
 11
306.707258
 21
396.265534
 31
0.0
  0
LINE
  5
45E
330
1F
100
AcDbEntity
  8
LC-001-100-D00-0
 62
     7
370
    50
100
AcDbLine
 10
318.779454
 20
396.265534
 30
0.0
 11
318.493746
 21
396.265534
 31
0.0
  0
LINE
  5
45F
330
1F
100
AcDbEntity
  8
LC-001-100-D00-0
 62
     7
370
    50
100
AcDbLine
 10
328.928304
 20
396.265534
 30
0.0
 11
329.214012
 21
396.265534
 31
0.0
  0
LINE
  5
460
330
1F
100
AcDbEntity
  8
LC-001-100-D00-0
 62
     7
370
    50
100
AcDbLine
 10
303.421608
 20
396.265534
 30
0.0
 11
303.707315
 21
396.265534
 31
0.0
  0
LINE
  5
461
330
1F
100
AcDbEntity
  8
LC-001-100-D00-0
 62
     7
370
    50
100
AcDbLine
 10
324.942881
 20
396.265534
 30
0.0
 11
325.22859
 21
396.265534
 31
0.0
  0
LINE
  5
462
330
1F
100
AcDbEntity
  8
LC-001-100-D00-0
 62
     7
370
    50
100
AcDbLine
 10
312.261996
 20
396.265534
 30
0.0
 11
312.547705
 21
396.265534
 31
0.0
  0
LINE
  5
463
330
1F
100
AcDbEntity
  8
LC-001-100-D00-0
 62
     7
370
    50
100
AcDbLine
 10
313.280607
 20
396.265534
 30
0.0
 11
313.566315
 21
396.265534
 31
0.0
  0
LINE
  5
464
330
1F
100
AcDbEntity
  8
LC-001-100-D00-0
 62
     7
370
    50
100
AcDbLine
 10
315.37787
 20
396.265534
 30
0.0
 11
315.663579
 21
396.265534
 31
0.0
  0
LINE
  5
465
330
1F
100
AcDbEntity
  8
LC-001-100-D00-0
 62
     7
370
    50
100
AcDbLine
 10
316.396481
 20
396.265534
 30
0.0
 11
316.68219
 21
396.265534
 31
0.0
  0
LINE
  5
466
330
1F
100
AcDbEntity
  8
LC-001-100-D00-0
 62
     7
370
    50
100
AcDbLine
 10
326.493745
 20
392.265534
 30
0.0
 11
321.993745
 21
392.265534
 31
0.0
  0
LINE
  5
467
330
1F
100
AcDbEntity
  8
LC-001-100-D00-0
 62
     7
370
    50
100
AcDbLine
 10
321.993745
 20
392.265534
 30
0.0
 11
314.993745
 21
392.265534
 31
0.0
  0
LINE
  5
468
330
1F
100
AcDbEntity
  8
LC-001-100-D00-0
 62
     7
370
    50
100
AcDbLine
 10
314.993745
 20
392.265534
 30
0.0
 11
310.493745
 21
392.265534
 31
0.0
  0
LINE
  5
469
330
1F
100
AcDbEntity
  8
LC-001-100-D00-0
 62
     7
370
    50
100
AcDbLine
 10
339.493745
 20
392.265534
 30
0.0
 11
345.493745
 21
392.265534
 31
0.0
  0
LINE
  5
46A
330
1F
100
AcDbEntity
  8
LC-001-100-D00-0
 62
     7
370
    50
100
AcDbLine
 10
288.993746
 20
396.265534
 30
0.0
 11
299.993745
 21
396.265534
 31
0.0
  0
LINE
  5
46B
330
1F
100
AcDbEntity
  8
LC-001-100-D00-0
 62
     7
370
    50
100
AcDbLine
 10
291.493744
 20
392.265534
 30
0.0
 11
297.493745
 21
392.265534
 31
0.0
  0
LINE
  5
46C
330
1F
100
AcDbEntity
  8
LC-001-100-D00-0
 62
     7
370
    50
100
AcDbLine
 10
336.993745
 20
396.265534
 30
0.0
 11
347.993745
 21
396.265534
 31
0.0
  0
LINE
  5
46D
330
1F
100
AcDbEntity
  8
LC-001-100-D00-0
 62
     7
370
    50
100
AcDbLine
 10
333.493745
 20
392.265534
 30
0.0
 11
326.493745
 21
392.265534
 31
0.0
  0
LINE
  5
46E
330
1F
100
AcDbEntity
  8
LC-001-100-D00-0
 62
     7
370
    50
100
AcDbLine
 10
310.493745
 20
392.265534
 30
0.0
 11
303.493746
 21
392.265534
 31
0.0
  0
LINE
  5
46F
330
1F
100
AcDbEntity
  8
LC-001-100-D00-0
 62
     7
370
    50
100
AcDbLine
 10
303.493746
 20
392.265534
 30
0.0
 11
298.993746
 21
392.265534
 31
0.0
  0
LINE
  5
470
330
1F
100
AcDbEntity
  8
LC-001-100-D00-0
 62
     7
370
    50
100
AcDbLine
 10
337.993745
 20
392.265534
 30
0.0
 11
333.493745
 21
392.265534
 31
0.0
  0
LINE
  5
471
330
1F
100
AcDbEntity
  8
LC-001-100-D00-0
 62
     7
370
    50
100
AcDbLine
 10
279.493746
 20
392.265534
 30
0.0
 11
285.493747
 21
392.265534
 31
0.0
  0
LINE
  5
472
330
1F
100
AcDbEntity
  8
LC-001-100-D00-0
 62
     7
370
    50
100
AcDbLine
 10
348.993745
 20
396.265534
 30
0.0
 11
359.993745
 21
396.265534
 31
0.0
  0
LINE
  5
473
330
1F
100
AcDbEntity
  8
LC-001-100-D00-0
 62
     7
370
    50
100
AcDbLine
 10
351.493745
 20
392.265534
 30
0.0
 11
357.493746
 21
392.265534
 31
0.0
  0
LINE
  5
474
330
1F
100
AcDbEntity
  8
LC-001-100-D00-0
 62
     7
370
    50
100
AcDbLine
 10
276.993745
 20
396.265534
 30
0.0
 11
287.993744
 21
396.265534
 31
0.0
  0
LINE
  5
475
330
1F
100
AcDbEntity
  8
LC-001-100-D00-0
 62
     7
370
    50
100
AcDbLine
 10
348.993745
 20
392.265534
 30
0.0
 11
346.993745
 21
392.265534
 31
0.0
  0
LINE
  5
476
330
1F
100
AcDbEntity
  8
LC-001-100-D00-0
 62
     7
370
    50
100
AcDbLine
 10
289.993745
 20
392.265534
 30
0.0
 11
287.993744
 21
392.265534
 31
0.0
  0
LINE
  5
477
330
1F
100
AcDbEntity
  8
LC-001-100-D00-0
 62
     7
370
    50
100
AcDbLine
 10
331.910153
 20
391.265532
 30
0.0
 11
305.077337
 21
391.265532
 31
0.0
  0
LINE
  5
478
330
1F
100
AcDbEntity
  8
LC-001-100-D00-0
 62
     7
370
    50
100
AcDbLine
 10
278.993745
 20
284.865532
 30
0.0
 11
278.993745
 21
337.865529
 31
0.0
  0
LINE
  5
479
330
1F
100
AcDbEntity
  8
LC-001-100-D00-0
 62
     7
370
    50
100
AcDbLine
 10
357.993745
 20
337.865529
 30
0.0
 11
357.993745
 21
284.865532
 31
0.0
  0
LINE
  5
47A
330
1F
100
AcDbEntity
  8
LC-001-100-D00-0
 62
     7
370
    50
100
AcDbLine
 10
304.743745
 20
349.865531
 30
0.0
 11
304.743745
 21
350.865529
 31
0.0
  0
LINE
  5
47B
330
1F
100
AcDbEntity
  8
LC-001-100-D00-0
 62
     7
370
    50
100
AcDbLine
 10
308.743746
 20
350.865529
 30
0.0
 11
308.743746
 21
349.865531
 31
0.0
  0
LINE
  5
47C
330
1F
100
AcDbEntity
  8
LC-001-100-D00-0
 62
     7
370
    50
100
AcDbLine
 10
280.493744
 20
319.865531
 30
0.0
 11
280.493744
 21
284.865532
 31
0.0
  0
LINE
  5
47D
330
1F
100
AcDbEntity
  8
LC-001-100-D00-0
 62
     7
370
    50
100
AcDbLine
 10
356.493745
 20
284.865532
 30
0.0
 11
356.493745
 21
337.865529
 31
0.0
  0
LINE
  5
47E
330
1F
100
AcDbEntity
  8
LC-001-100-D00-0
 62
     7
370
    50
100
AcDbLine
 10
280.493744
 20
284.865532
 30
0.0
 11
293.993745
 21
284.865532
 31
0.0
  0
LINE
  5
47F
330
1F
100
AcDbEntity
  8
LC-001-100-D00-0
 62
     7
370
    50
100
AcDbLine
 10
342.993746
 20
284.865532
 30
0.0
 11
356.493745
 21
284.865532
 31
0.0
  0
ARC
  5
480
330
1F
100
AcDbEntity
  8
LC-001-100-D00-0
 62
     7
370
    50
100
AcDbCircle
 10
290.993745
 20
337.865531
 30
0.0
 40
12.0
100
AcDbArc
 50
90.0
 51
180.0
  0
ARC
  5
481
330
1F
100
AcDbEntity
  8
LC-001-100-D00-0
 62
     7
370
    50
100
AcDbCircle
 10
345.993745
 20
337.865531
 30
0.0
 40
12.0
100
AcDbArc
 50
0.0
 51
90.0
  0
ARC
  5
482
330
1F
100
AcDbEntity
  8
LC-001-100-D00-0
 62
     7
370
    50
100
AcDbCircle
 10
313.743745
 20
350.865531
 30
0.0
 40
5.000000000000057
100
AcDbArc
 50
90.0
 51
180.0
  0
ARC
  5
483
330
1F
100
AcDbEntity
  8
LC-001-100-D00-0
 62
     7
370
    50
100
AcDbCircle
 10
313.743745
 20
350.865531
 30
0.0
 40
9.000000000000057
100
AcDbArc
 50
90.0
 51
180.0
  0
LINE
  5
484
330
1F
100
AcDbEntity
  8
LC-001-100-D00-0
 62
     7
370
    50
100
AcDbLine
 10
313.743745
 20
355.865532
 30
0.0
 11
323.243746
 21
355.865532
 31
0.0
  0
LINE
  5
485
330
1F
100
AcDbEntity
  8
LC-001-100-D00-0
 62
     7
370
    50
100
AcDbLine
 10
323.243746
 20
359.865529
 30
0.0
 11
313.743745
 21
359.865529
 31
0.0
  0
LINE
  5
486
330
1F
100
AcDbEntity
  8
LC-001-100-D00-0
 62
     7
370
    50
100
AcDbLine
 10
328.243745
 20
350.865529
 30
0.0
 11
328.243745
 21
349.865531
 31
0.0
  0
ARC
  5
487
330
1F
100
AcDbEntity
  8
LC-001-100-D00-0
 62
     7
370
    50
100
AcDbCircle
 10
323.243745
 20
350.865531
 30
0.0
 40
5.000000000000057
100
AcDbArc
 50
0.0
 51
90.0
  0
ARC
  5
488
330
1F
100
AcDbEntity
  8
LC-001-100-D00-0
 62
     7
370
    50
100
AcDbCircle
 10
346.493745
 20
337.865531
 30
0.0
 40
10.0
100
AcDbArc
 50
0.0
 51
90.0
  0
LINE
  5
489
330
1F
100
AcDbEntity
  8
LC-001-100-D00-0
 62
     7
370
    50
100
AcDbLine
 10
346.493746
 20
347.865531
 30
0.0
 11
300.493746
 21
347.865531
 31
0.0
  0
LINE
  5
48A
330
1F
100
AcDbEntity
  8
LC-001-100-D00-0
 62
     7
370
    50
100
AcDbLine
 10
300.493746
 20
347.865531
 30
0.0
 11
300.493746
 21
330.365531
 31
0.0
  0
LINE
  5
48B
330
1F
100
AcDbEntity
  8
LC-001-100-D00-0
 62
     7
370
    50
100
AcDbLine
 10
293.993745
 20
334.865531
 30
0.0
 11
293.993745
 21
325.365532
 31
0.0
  0
ARC
  5
48C
330
1F
100
AcDbEntity
  8
LC-001-100-D00-0
 62
     7
370
    50
100
AcDbCircle
 10
323.243745
 20
350.865531
 30
0.0
 40
9.000000000000057
100
AcDbArc
 50
0.0
 51
90.0
  0
LINE
  5
48D
330
1F
100
AcDbEntity
  8
LC-001-100-D00-0
 62
     7
370
    50
100
AcDbLine
 10
332.243746
 20
349.865531
 30
0.0
 11
332.243746
 21
350.865529
 31
0.0
  0
LINE
  5
48E
330
1F
100
AcDbEntity
  8
LC-001-100-D00-0
 62
     7
370
    50
100
AcDbLine
 10
293.993745
 20
325.365532
 30
0.0
 11
292.520024
 21
319.865531
 31
0.0
  0
LINE
  5
48F
330
1F
100
AcDbEntity
  8
LC-001-100-D00-0
 62
     7
370
    50
100
AcDbLine
 10
296.493745
 20
334.865531
 30
0.0
 11
296.493745
 21
332.365531
 31
0.0
  0
LINE
  5
490
330
1F
100
AcDbEntity
  8
LC-001-100-D00-0
 62
     7
370
    50
100
AcDbLine
 10
297.029645
 20
330.365531
 30
0.0
 11
300.493746
 21
330.365531
 31
0.0
  0
LINE
  5
491
330
1F
100
AcDbEntity
  8
LC-001-100-D00-0
 62
     7
370
    50
100
AcDbLine
 10
292.520024
 20
319.865531
 30
0.0
 11
280.493744
 21
319.865531
 31
0.0
  0
LINE
  5
492
330
1F
100
AcDbEntity
  8
LC-001-100-D00-0
 62
     7
370
    50
100
AcDbLine
 10
296.493745
 20
332.365531
 30
0.0
 11
297.029645
 21
330.365531
 31
0.0
  0
LINE
  5
493
330
1F
100
AcDbEntity
  8
LC-001-100-D00-0
 62
     7
370
    50
100
AcDbLine
 10
280.493744
 20
284.865532
 30
0.0
 11
278.993745
 21
284.865532
 31
0.0
  0
LINE
  5
494
330
1F
100
AcDbEntity
  8
LC-001-100-D00-0
 62
     7
370
    50
100
AcDbLine
 10
357.993745
 20
284.865532
 30
0.0
 11
356.493745
 21
284.865532
 31
0.0
  0
LINE
  5
495
330
1F
100
AcDbEntity
  8
LC-001-100-D00-0
 62
     7
370
    50
100
AcDbLine
 10
332.243746
 20
349.865531
 30
0.0
 11
345.993745
 21
349.865531
 31
0.0
  0
LINE
  5
496
330
1F
100
AcDbEntity
  8
LC-001-100-D00-0
 62
     7
370
    50
100
AcDbLine
 10
308.743746
 20
349.865531
 30
0.0
 11
328.243745
 21
349.865531
 31
0.0
  0
LINE
  5
497
330
1F
100
AcDbEntity
  8
LC-001-100-D00-0
 62
     7
370
    50
100
AcDbLine
 10
290.993747
 20
349.865531
 30
0.0
 11
304.743745
 21
349.865531
 31
0.0
  0
INSERT
  5
4AB
330
1F
100
AcDbEntity
  8
LC-001-100-D00-0
 62
     7
370
    50
100
AcDbBlockReference
  2
POLY27
 10
0.0
 20
0.0
 30
0.0
  0
LINE
  5
4AC
330
1F
100
AcDbEntity
  8
LC-001-100-D00-0
 62
     7
370
    50
100
AcDbLine
 10
332.391889
 20
349.965529
 30
0.0
 11
332.391889
 21
349.865531
 31
0.0
  0
INSERT
  5
4B8
330
1F
100
AcDbEntity
  8
LC-001-100-D00-0
 62
     7
370
    50
100
AcDbBlockReference
  2
POLY28
 10
0.0
 20
0.0
 30
0.0
  0
LINE
  5
4B9
330
1F
100
AcDbEntity
  8
LC-001-100-D00-0
 62
     7
370
    50
100
AcDbLine
 10
333.06525
 20
349.965529
 30
0.0
 11
333.06525
 21
349.865531
 31
0.0
  0
LINE
  5
4BA
330
1F
100
AcDbEntity
  8
LC-001-100-D00-0
 62
     7
370
    50
100
AcDbLine
 10
333.06525
 20
349.965529
 30
0.0
 11
332.391889
 21
349.965529
 31
0.0
  0
LINE
  5
4BB
330
1F
100
AcDbEntity
  8
LC-001-100-D00-0
 62
     7
370
    50
100
AcDbLine
 10
327.384079
 20
349.965529
 30
0.0
 11
327.384079
 21
349.865531
 31
0.0
  0
INSERT
  5
4CB
330
1F
100
AcDbEntity
  8
LC-001-100-D00-0
 62
     7
370
    50
100
AcDbBlockReference
  2
POLY29
 10
0.0
 20
0.0
 30
0.0
  0
LINE
  5
4CC
330
1F
100
AcDbEntity
  8
LC-001-100-D00-0
 62
     7
370
    50
100
AcDbLine
 10
328.015458
 20
349.965529
 30
0.0
 11
328.015458
 21
349.865531
 31
0.0
  0
LINE
  5
4CD
330
1F
100
AcDbEntity
  8
LC-001-100-D00-0
 62
     7
370
    50
100
AcDbLine
 10
320.983039
 20
349.965529
 30
0.0
 11
320.983039
 21
349.865531
 31
0.0
  0
LINE
  5
4CE
330
1F
100
AcDbEntity
  8
LC-001-100-D00-0
 62
     7
370
    50
100
AcDbLine
 10
321.909527
 20
349.965529
 30
0.0
 11
321.909527
 21
349.865531
 31
0.0
  0
INSERT
  5
4DC
330
1F
100
AcDbEntity
  8
LC-001-100-D00-0
 62
     7
370
    50
100
AcDbBlockReference
  2
POLY30
 10
0.0
 20
0.0
 30
0.0
  0
LINE
  5
4DD
330
1F
100
AcDbEntity
  8
LC-001-100-D00-0
 62
     7
370
    50
100
AcDbLine
 10
322.764398
 20
349.965529
 30
0.0
 11
322.764398
 21
349.865531
 31
0.0
  0
LINE
  5
4DE
330
1F
100
AcDbEntity
  8
LC-001-100-D00-0
 62
     7
370
    50
100
AcDbLine
 10
319.505844
 20
349.965529
 30
0.0
 11
319.505844
 21
349.865531
 31
0.0
  0
INSERT
  5
4EA
330
1F
100
AcDbEntity
  8
LC-001-100-D00-0
 62
     7
370
    50
100
AcDbBlockReference
  2
POLY31
 10
0.0
 20
0.0
 30
0.0
  0
LINE
  5
4EB
330
1F
100
AcDbEntity
  8
LC-001-100-D00-0
 62
     7
370
    50
100
AcDbLine
 10
320.614255
 20
349.965529
 30
0.0
 11
320.614255
 21
349.865531
 31
0.0
  0
LINE
  5
4EC
330
1F
100
AcDbEntity
  8
LC-001-100-D00-0
 62
     7
370
    50
100
AcDbLine
 10
311.131232
 20
349.965529
 30
0.0
 11
311.131232
 21
349.865531
 31
0.0
  0
LINE
  5
4ED
330
1F
100
AcDbEntity
  8
LC-001-100-D00-0
 62
     7
370
    50
100
AcDbLine
 10
312.05772
 20
349.965529
 30
0.0
 11
312.05772
 21
349.865531
 31
0.0
  0
LINE
  5
4EE
330
1F
100
AcDbEntity
  8
LC-001-100-D00-0
 62
     7
370
    50
100
AcDbLine
 10
312.912591
 20
349.965529
 30
0.0
 11
312.912591
 21
349.865531
 31
0.0
  0
INSERT
  5
4FC
330
1F
100
AcDbEntity
  8
LC-001-100-D00-0
 62
     7
370
    50
100
AcDbBlockReference
  2
POLY32
 10
0.0
 20
0.0
 30
0.0
  0
LINE
  5
4FD
330
1F
100
AcDbEntity
  8
LC-001-100-D00-0
 62
     7
370
    50
100
AcDbLine
 10
318.138132
 20
349.965529
 30
0.0
 11
318.138132
 21
349.865531
 31
0.0
  0
LINE
  5
4FE
330
1F
100
AcDbEntity
  8
LC-001-100-D00-0
 62
     7
370
    50
100
AcDbLine
 10
328.231954
 20
349.965529
 30
0.0
 11
328.015458
 21
349.965529
 31
0.0
  0
LINE
  5
4FF
330
1F
100
AcDbEntity
  8
LC-001-100-D00-0
 62
     7
370
    50
100
AcDbLine
 10
309.076578
 20
349.965529
 30
0.0
 11
309.076578
 21
349.865531
 31
0.0
  0
LINE
  5
500
330
1F
100
AcDbEntity
  8
LC-001-100-D00-0
 62
     7
370
    50
100
AcDbLine
 10
309.890701
 20
349.965529
 30
0.0
 11
309.890701
 21
349.865531
 31
0.0
  0
INSERT
  5
50E
330
1F
100
AcDbEntity
  8
LC-001-100-D00-0
 62
     7
370
    50
100
AcDbBlockReference
  2
POLY33
 10
0.0
 20
0.0
 30
0.0
  0
LINE
  5
50F
330
1F
100
AcDbEntity
  8
LC-001-100-D00-0
 62
     7
370
    50
100
AcDbLine
 10
326.652685
 20
349.965529
 30
0.0
 11
326.652685
 21
349.865531
 31
0.0
  0
LINE
  5
510
330
1F
100
AcDbEntity
  8
LC-001-100-D00-0
 62
     7
370
    50
100
AcDbLine
 10
326.968786
 20
349.965529
 30
0.0
 11
326.652685
 21
349.965529
 31
0.0
  0
LINE
  5
511
330
1F
100
AcDbEntity
  8
LC-001-100-D00-0
 62
     7
370
    50
100
AcDbLine
 10
326.968786
 20
349.965529
 30
0.0
 11
326.968786
 21
349.865531
 31
0.0
  0
LINE
  5
512
330
1F
100
AcDbEntity
  8
LC-001-100-D00-0
 62
     7
370
    50
100
AcDbLine
 10
325.51999
 20
349.965529
 30
0.0
 11
325.51999
 21
349.865531
 31
0.0
  0
LINE
  5
513
330
1F
100
AcDbEntity
  8
LC-001-100-D00-0
 62
     7
370
    50
100
AcDbLine
 10
325.836091
 20
349.965529
 30
0.0
 11
325.51999
 21
349.965529
 31
0.0
  0
LINE
  5
514
330
1F
100
AcDbEntity
  8
LC-001-100-D00-0
 62
     7
370
    50
100
AcDbLine
 10
325.836091
 20
349.965529
 30
0.0
 11
325.836091
 21
349.865531
 31
0.0
  0
LINE
  5
515
330
1F
100
AcDbEntity
  8
LC-001-100-D00-0
 62
     7
370
    50
100
AcDbLine
 10
324.387296
 20
349.965529
 30
0.0
 11
324.387296
 21
349.865531
 31
0.0
  0
LINE
  5
516
330
1F
100
AcDbEntity
  8
LC-001-100-D00-0
 62
     7
370
    50
100
AcDbLine
 10
324.703397
 20
349.965529
 30
0.0
 11
324.387296
 21
349.965529
 31
0.0
  0
LINE
  5
517
330
1F
100
AcDbEntity
  8
LC-001-100-D00-0
 62
     7
370
    50
100
AcDbLine
 10
324.703397
 20
349.965529
 30
0.0
 11
324.703397
 21
349.865531
 31
0.0
  0
LINE
  5
518
330
1F
100
AcDbEntity
  8
LC-001-100-D00-0
 62
     7
370
    50
100
AcDbLine
 10
315.477618
 20
349.965529
 30
0.0
 11
315.477618
 21
349.865531
 31
0.0
  0
LINE
  5
519
330
1F
100
AcDbEntity
  8
LC-001-100-D00-0
 62
     7
370
    50
100
AcDbLine
 10
315.161516
 20
349.965529
 30
0.0
 11
315.161516
 21
349.865531
 31
0.0
  0
LINE
  5
51A
330
1F
100
AcDbEntity
  8
LC-001-100-D00-0
 62
     7
370
    50
100
AcDbLine
 10
315.477618
 20
349.965529
 30
0.0
 11
315.161516
 21
349.965529
 31
0.0
  0
LINE
  5
51B
330
1F
100
AcDbEntity
  8
LC-001-100-D00-0
 62
     7
370
    50
100
AcDbLine
 10
323.485503
 20
349.965529
 30
0.0
 11
323.485503
 21
349.865531
 31
0.0
  0
LINE
  5
51C
330
1F
100
AcDbEntity
  8
LC-001-100-D00-0
 62
     7
370
    50
100
AcDbLine
 10
323.485503
 20
349.965529
 30
0.0
 11
323.169403
 21
349.965529
 31
0.0
  0
LINE
  5
51D
330
1F
100
AcDbEntity
  8
LC-001-100-D00-0
 62
     7
370
    50
100
AcDbLine
 10
323.169403
 20
349.965529
 30
0.0
 11
323.169403
 21
349.865531
 31
0.0
  0
LINE
  5
51E
330
1F
100
AcDbEntity
  8
LC-001-100-D00-0
 62
     7
370
    50
100
AcDbLine
 10
308.786817
 20
349.965529
 30
0.0
 11
308.786817
 21
349.865531
 31
0.0
  0
LINE
  5
51F
330
1F
100
AcDbEntity
  8
LC-001-100-D00-0
 62
     7
370
    50
100
AcDbLine
 10
308.786817
 20
349.965529
 30
0.0
 11
308.743746
 21
349.965529
 31
0.0
  0
LINE
  5
520
330
1F
100
AcDbEntity
  8
LC-001-100-D00-0
 62
     7
370
    50
100
AcDbLine
 10
316.373236
 20
349.965529
 30
0.0
 11
316.373236
 21
349.865531
 31
0.0
  0
LINE
  5
521
330
1F
100
AcDbEntity
  8
LC-001-100-D00-0
 62
     7
370
    50
100
AcDbLine
 10
316.689337
 20
349.965529
 30
0.0
 11
316.689337
 21
349.865531
 31
0.0
  0
LINE
  5
522
330
1F
100
AcDbEntity
  8
LC-001-100-D00-0
 62
     7
370
    50
100
AcDbLine
 10
316.689337
 20
349.965529
 30
0.0
 11
316.373236
 21
349.965529
 31
0.0
  0
LINE
  5
523
330
1F
100
AcDbEntity
  8
LC-001-100-D00-0
 62
     7
370
    50
100
AcDbLine
 10
304.41409
 20
349.965529
 30
0.0
 11
304.071648
 21
349.965529
 31
0.0
  0
LINE
  5
524
330
1F
100
AcDbEntity
  8
LC-001-100-D00-0
 62
     7
370
    50
100
AcDbLine
 10
304.41409
 20
349.965529
 30
0.0
 11
304.41409
 21
349.865531
 31
0.0
  0
LINE
  5
525
330
1F
100
AcDbEntity
  8
LC-001-100-D00-0
 62
     7
370
    50
100
AcDbLine
 10
304.071648
 20
349.965529
 30
0.0
 11
304.071648
 21
349.865531
 31
0.0
  0
LINE
  5
526
330
1F
100
AcDbEntity
  8
LC-001-100-D00-0
 62
     7
370
    50
100
AcDbLine
 10
304.743745
 20
349.965529
 30
0.0
 11
304.41409
 21
349.965529
 31
0.0
  0
LINE
  5
527
330
1F
100
AcDbEntity
  8
LC-001-100-D00-0
 62
     7
370
    50
100
AcDbLine
 10
314.661024
 20
349.965529
 30
0.0
 11
314.661024
 21
349.865531
 31
0.0
  0
LINE
  5
528
330
1F
100
AcDbEntity
  8
LC-001-100-D00-0
 62
     7
370
    50
100
AcDbLine
 10
314.661024
 20
349.965529
 30
0.0
 11
314.344923
 21
349.965529
 31
0.0
  0
LINE
  5
529
330
1F
100
AcDbEntity
  8
LC-001-100-D00-0
 62
     7
370
    50
100
AcDbLine
 10
314.344923
 20
349.965529
 30
0.0
 11
314.344923
 21
349.865531
 31
0.0
  0
LINE
  5
52A
330
1F
100
AcDbEntity
  8
LC-001-100-D00-0
 62
     7
370
    50
100
AcDbLine
 10
310.736105
 20
349.965529
 30
0.0
 11
310.736105
 21
349.865531
 31
0.0
  0
LINE
  5
52B
330
1F
100
AcDbEntity
  8
LC-001-100-D00-0
 62
     7
370
    50
100
AcDbLine
 10
310.420005
 20
349.965529
 30
0.0
 11
310.420005
 21
349.865531
 31
0.0
  0
LINE
  5
52C
330
1F
100
AcDbEntity
  8
LC-001-100-D00-0
 62
     7
370
    50
100
AcDbLine
 10
310.736105
 20
349.965529
 30
0.0
 11
310.420005
 21
349.965529
 31
0.0
  0
LINE
  5
52D
330
1F
100
AcDbEntity
  8
LC-001-100-D00-0
 62
     7
370
    50
100
AcDbLine
 10
312.920823
 20
349.965529
 30
0.0
 11
312.920823
 21
349.865531
 31
0.0
  0
LINE
  5
52E
330
1F
100
AcDbEntity
  8
LC-001-100-D00-0
 62
     7
370
    50
100
AcDbLine
 10
312.92247
 20
349.965529
 30
0.0
 11
312.92247
 21
349.865531
 31
0.0
  0
LINE
  5
52F
330
1F
100
AcDbEntity
  8
LC-001-100-D00-0
 62
     7
370
    50
100
AcDbLine
 10
322.77263
 20
349.965529
 30
0.0
 11
322.77263
 21
349.865531
 31
0.0
  0
LINE
  5
530
330
1F
100
AcDbEntity
  8
LC-001-100-D00-0
 62
     7
370
    50
100
AcDbLine
 10
322.774277
 20
349.965529
 30
0.0
 11
322.774277
 21
349.865531
 31
0.0
  0
LINE
  5
531
330
1F
100
AcDbEntity
  8
LC-001-100-D00-0
 62
     7
370
    50
100
AcDbLine
 10
325.179606
 20
349.965529
 30
0.0
 11
325.179606
 21
349.865531
 31
0.0
  0
INSERT
  5
541
330
1F
100
AcDbEntity
  8
LC-001-100-D00-0
 62
     7
370
    50
100
AcDbBlockReference
  2
POLY34
 10
0.0
 20
0.0
 30
0.0
  0
LINE
  5
542
330
1F
100
AcDbEntity
  8
LC-001-100-D00-0
 62
     7
370
    50
100
AcDbLine
 10
323.53901
 20
349.965529
 30
0.0
 11
323.53901
 21
349.865531
 31
0.0
  0
INSERT
  5
54E
330
1F
100
AcDbEntity
  8
LC-001-100-D00-0
 62
     7
370
    50
100
AcDbBlockReference
  2
POLY35
 10
0.0
 20
0.0
 30
0.0
  0
LINE
  5
54F
330
1F
100
AcDbEntity
  8
LC-001-100-D00-0
 62
     7
370
    50
100
AcDbLine
 10
315.979757
 20
349.965529
 30
0.0
 11
315.979757
 21
349.865531
 31
0.0
  0
INSERT
  5
55F
330
1F
100
AcDbEntity
  8
LC-001-100-D00-0
 62
     7
370
    50
100
AcDbBlockReference
  2
POLY36
 10
0.0
 20
0.0
 30
0.0
  0
LINE
  5
560
330
1F
100
AcDbEntity
  8
LC-001-100-D00-0
 62
     7
370
    50
100
AcDbLine
 10
326.309007
 20
349.965529
 30
0.0
 11
326.309007
 21
349.865531
 31
0.0
  0
INSERT
  5
570
330
1F
100
AcDbEntity
  8
LC-001-100-D00-0
 62
     7
370
    50
100
AcDbBlockReference
  2
POLY37
 10
0.0
 20
0.0
 30
0.0
  0
INSERT
  5
580
330
1F
100
AcDbEntity
  8
LC-001-100-D00-0
 62
     7
370
    50
100
AcDbBlockReference
  2
POLY38
 10
0.0
 20
0.0
 30
0.0
  0
INSERT
  5
590
330
1F
100
AcDbEntity
  8
LC-001-100-D00-0
 62
     7
370
    50
100
AcDbBlockReference
  2
POLY39
 10
0.0
 20
0.0
 30
0.0
  0
INSERT
  5
5A0
330
1F
100
AcDbEntity
  8
LC-001-100-D00-0
 62
     7
370
    50
100
AcDbBlockReference
  2
POLY40
 10
0.0
 20
0.0
 30
0.0
  0
LINE
  5
5A1
330
1F
100
AcDbEntity
  8
LC-001-100-D00-0
 62
     7
370
    50
100
AcDbLine
 10
323.848114
 20
349.965529
 30
0.0
 11
323.848114
 21
349.865531
 31
0.0
  0
INSERT
  5
5B1
330
1F
100
AcDbEntity
  8
LC-001-100-D00-0
 62
     7
370
    50
100
AcDbBlockReference
  2
POLY41
 10
0.0
 20
0.0
 30
0.0
  0
LINE
  5
5B2
330
1F
100
AcDbEntity
  8
LC-001-100-D00-0
 62
     7
370
    50
100
AcDbLine
 10
324.083543
 20
349.965529
 30
0.0
 11
324.083543
 21
349.865531
 31
0.0
  0
INSERT
  5
5BE
330
1F
100
AcDbEntity
  8
LC-001-100-D00-0
 62
     7
370
    50
100
AcDbBlockReference
  2
POLY42
 10
0.0
 20
0.0
 30
0.0
  0
LINE
  5
5BF
330
1F
100
AcDbEntity
  8
LC-001-100-D00-0
 62
     7
370
    50
100
AcDbLine
 10
324.19673
 20
349.965529
 30
0.0
 11
324.19673
 21
349.865531
 31
0.0
  0
LINE
  5
5C0
330
1F
100
AcDbEntity
  8
LC-001-100-D00-0
 62
     7
370
    50
100
AcDbLine
 10
324.19673
 20
349.965529
 30
0.0
 11
324.083543
 21
349.965529
 31
0.0
  0
LINE
  5
5C1
330
1F
100
AcDbEntity
  8
LC-001-100-D00-0
 62
     7
370
    50
100
AcDbLine
 10
304.071648
 20
349.965529
 30
0.0
 11
302.754052
 21
349.965529
 31
0.0
  0
LINE
  5
5C2
330
1F
100
AcDbEntity
  8
LC-001-100-D00-0
 62
     7
370
    50
100
AcDbLine
 10
310.736105
 20
349.965529
 30
0.0
 11
311.147722
 21
349.965529
 31
0.0
  0
LINE
  5
5C3
330
1F
100
AcDbEntity
  8
LC-001-100-D00-0
 62
     7
370
    50
100
AcDbLine
 10
312.986714
 20
349.965529
 30
0.0
 11
313.496305
 21
349.965529
 31
0.0
  0
LINE
  5
5C4
330
1F
100
AcDbEntity
  8
LC-001-100-D00-0
 62
     7
370
    50
100
AcDbLine
 10
313.496305
 20
349.965529
 30
0.0
 11
313.496305
 21
349.865531
 31
0.0
  0
LINE
  5
5C5
330
1F
100
AcDbEntity
  8
LC-001-100-D00-0
 62
     7
370
    50
100
AcDbLine
 10
314.661024
 20
349.965529
 30
0.0
 11
315.161516
 21
349.965529
 31
0.0
  0
LINE
  5
5C6
330
1F
100
AcDbEntity
  8
LC-001-100-D00-0
 62
     7
370
    50
100
AcDbLine
 10
315.477618
 20
349.965529
 30
0.0
 11
315.583203
 21
349.965529
 31
0.0
  0
LINE
  5
5C7
330
1F
100
AcDbEntity
  8
LC-001-100-D00-0
 62
     7
370
    50
100
AcDbLine
 10
316.689337
 20
349.965529
 30
0.0
 11
318.481672
 21
349.965529
 31
0.0
  0
LINE
  5
5C8
330
1F
100
AcDbEntity
  8
LC-001-100-D00-0
 62
     7
370
    50
100
AcDbLine
 10
320.974356
 20
349.965529
 30
0.0
 11
320.974356
 21
349.865531
 31
0.0
  0
LINE
  5
5C9
330
1F
100
AcDbEntity
  8
LC-001-100-D00-0
 62
     7
370
    50
100
AcDbLine
 10
320.699735
 20
349.965529
 30
0.0
 11
320.974356
 21
349.965529
 31
0.0
  0
LINE
  5
5CA
330
1F
100
AcDbEntity
  8
LC-001-100-D00-0
 62
     7
370
    50
100
AcDbLine
 10
322.945315
 20
349.965529
 30
0.0
 11
322.945315
 21
349.865531
 31
0.0
  0
LINE
  5
5CB
330
1F
100
AcDbEntity
  8
LC-001-100-D00-0
 62
     7
370
    50
100
AcDbLine
 10
322.945315
 20
349.965529
 30
0.0
 11
323.169403
 21
349.965529
 31
0.0
  0
LINE
  5
5CC
330
1F
100
AcDbEntity
  8
LC-001-100-D00-0
 62
     7
370
    50
100
AcDbLine
 10
326.968786
 20
349.965529
 30
0.0
 11
327.328694
 21
349.965529
 31
0.0
  0
LINE
  5
5CD
330
1F
100
AcDbEntity
  8
LC-001-100-D00-0
 62
     7
370
    50
100
AcDbLine
 10
325.836091
 20
349.965529
 30
0.0
 11
325.843784
 21
349.965529
 31
0.0
  0
LINE
  5
5CE
330
1F
100
AcDbEntity
  8
LC-001-100-D00-0
 62
     7
370
    50
100
AcDbLine
 10
313.496305
 20
349.965529
 30
0.0
 11
314.344923
 21
349.965529
 31
0.0
  0
LINE
  5
5CF
330
1F
100
AcDbEntity
  8
LC-001-100-D00-0
 62
     7
370
    50
100
AcDbLine
 10
329.959562
 20
330.365531
 30
0.0
 11
330.233658
 21
332.302162
 31
0.0
  0
LINE
  5
5D0
330
1F
100
AcDbEntity
  8
LC-001-100-D00-0
 62
     7
370
    50
100
AcDbLine
 10
329.959562
 20
330.365531
 30
0.0
 11
328.227511
 21
330.365531
 31
0.0
  0
LINE
  5
5D1
330
1F
100
AcDbEntity
  8
LC-001-100-D00-0
 62
     7
370
    50
100
AcDbLine
 10
328.227511
 20
330.365531
 30
0.0
 11
328.359771
 21
347.865531
 31
0.0
  0
LINE
  5
5D2
330
1F
100
AcDbEntity
  8
LC-001-100-D00-0
 62
     7
370
    50
100
AcDbLine
 10
326.75998
 20
330.365531
 30
0.0
 11
328.227511
 21
330.365531
 31
0.0
  0
LINE
  5
5D3
330
1F
100
AcDbEntity
  8
LC-001-100-D00-0
 62
     7
370
    50
100
AcDbLine
 10
326.75998
 20
330.365531
 30
0.0
 11
326.62772
 21
347.865531
 31
0.0
  0
LINE
  5
5D4
330
1F
100
AcDbEntity
  8
LC-001-100-D00-0
 62
     7
370
    50
100
AcDbLine
 10
302.742893
 20
349.965529
 30
0.0
 11
302.754052
 21
349.965529
 31
0.0
  0
LINE
  5
5D5
330
1F
100
AcDbEntity
  8
LC-001-100-D00-0
 62
     7
370
    50
100
AcDbLine
 10
324.083543
 20
349.965529
 30
0.0
 11
324.046733
 21
349.965529
 31
0.0
  0
LINE
  5
5D6
330
1F
100
AcDbEntity
  8
LC-001-100-D00-0
 62
     7
370
    50
100
AcDbLine
 10
322.945315
 20
349.965529
 30
0.0
 11
322.829376
 21
349.965529
 31
0.0
  0
LINE
  5
5D7
330
1F
100
AcDbEntity
  8
LC-001-100-D00-0
 62
     7
370
    50
100
AcDbLine
 10
324.19673
 20
349.965529
 30
0.0
 11
324.387296
 21
349.965529
 31
0.0
  0
INSERT
  5
5DD
330
1F
100
AcDbEntity
  8
LC-001-100-D00-0
 62
     7
370
    25
100
AcDbBlockReference
  2
KLON9
 10
0.0
 20
0.0
 30
0.0
  0
INSERT
  5
5E3
330
1F
100
AcDbEntity
  8
LC-001-100-D00-0
 62
     7
370
    25
100
AcDbBlockReference
  2
KLON10
 10
0.0
 20
0.0
 30
0.0
  0
LINE
  5
5E4
330
1F
100
AcDbEntity
  8
LC-001-100-D00-0
 62
     7
370
    25
100
AcDbLine
 10
277.993745
 20
393.531451
 30
0.0
 11
279.267367
 21
394.805073
 31
0.0
  0
LINE
  5
5E5
330
1F
100
AcDbEntity
  8
LC-001-100-D00-0
 62
     7
370
    25
100
AcDbLine
 10
349.993745
 20
393.689402
 30
0.0
 11
351.2157
 21
394.911357
 31
0.0
  0
INSERT
  5
5ED
330
1F
100
AcDbEntity
  8
LC-001-100-D00-0
 62
     7
370
    25
100
AcDbBlockReference
  2
KLON11
 10
0.0
 20
0.0
 30
0.0
  0
INSERT
  5
5F5
330
1F
100
AcDbEntity
  8
LC-001-100-D00-0
 62
     7
370
    25
100
AcDbBlockReference
  2
KLON12
 10
0.0
 20
0.0
 30
0.0
  0
INSERT
  5
5FD
330
1F
100
AcDbEntity
  8
LC-001-100-D00-0
 62
     7
370
    25
100
AcDbBlockReference
  2
KLON13
 10
0.0
 20
0.0
 30
0.0
  0
INSERT
  5
607
330
1F
100
AcDbEntity
  8
LC-001-100-D00-0
 62
     7
370
    25
100
AcDbBlockReference
  2
KLON14
 10
0.0
 20
0.0
 30
0.0
  0
INSERT
  5
612
330
1F
100
AcDbEntity
  8
LC-001-100-D00-0
 62
     7
370
    25
100
AcDbBlockReference
  2
KLON15
 10
0.0
 20
0.0
 30
0.0
  0
LINE
  5
613
330
1F
100
AcDbEntity
  8
LC-001-100-D00-0
 62
     7
370
    50
100
AcDbLine
 10
166.70552
 20
363.065531
 30
0.0
 11
166.70552
 21
363.065531
 31
0.0
  0
INSERT
  5
63C
330
1F
100
AcDbEntity
  8
LC-001-100-D00-0
 62
     7
370
    25
100
AcDbBlockReference
  2
KLON16
 10
0.0
 20
0.0
 30
0.0
  0
INSERT
  5
661
330
1F
100
AcDbEntity
  8
LC-001-100-D00-0
 62
     7
370
    25
100
AcDbBlockReference
  2
KLON17
 10
0.0
 20
0.0
 30
0.0
  0
LINE
  5
662
330
1F
100
AcDbEntity
  8
LC-001-100-D00-0
 62
     7
370
    25
100
AcDbLine
 10
469.034228
 20
360.065531
 30
0.0
 11
472.034228
 21
363.065531
 31
0.0
  0
INSERT
  5
670
330
1F
100
AcDbEntity
  8
LC-001-100-D00-0
 62
     7
370
    25
100
AcDbBlockReference
  2
KLON18
 10
0.0
 20
0.0
 30
0.0
  0
INSERT
  5
67B
330
1F
100
AcDbEntity
  8
LC-001-100-D00-0
 62
     7
370
    25
100
AcDbBlockReference
  2
KLON19
 10
0.0
 20
0.0
 30
0.0
  0
DIMENSION
  5
67E
330
1F
100
AcDbEntity
  8
LC-001-100-D00-0
 62
     7
370
    25
100
AcDbDimension
  2
*D62
 10
134.269669
 20
345.065531
 30
0.0
 11
103.469669
 21
384.937859
 31
0.0
 70
   160
  1
18
 71
     5
 42
18.0
 53
90.0
  3
LC-DIM-L-0140-02-02
100
AcDbAlignedDimension
 13
160.993745
 23
363.065531
 33
0.0
 14
170.730345
 24
345.065531
 34
0.0
 50
90.0
100
AcDbRotatedDimension
  0
DIMENSION
  5
68D
330
1F
100
AcDbEntity
  8
LC-001-100-D00-0
 62
     7
370
    25
100
AcDbDimension
  2
*D63
 10
498.458306
 20
327.365531
 30
0.0
 11
467.658306
 21
319.597859
 31
0.0
 70
   160
  1
36
 71
     5
 42
35.7
 53
90.0
  3
LC-DIM-L-0140-02-02
100
AcDbAlignedDimension
 13
453.493745
 23
363.065531
 33
0.0
 14
378.493745
 24
327.365531
 34
0.0
 50
90.0
100
AcDbRotatedDimension
  0
DIMENSION
  5
69B
330
1F
100
AcDbEntity
  8
LC-001-100-D00-0
 62
     7
370
    25
100
AcDbDimension
  2
*D64
 10
94.869144
 20
270.365531
 30
0.0
 11
64.069144
 21
317.815859
 31
0.0
 70
   160
  1
93
 71
     5
 42
92.7
 53
90.0
  3
LC-DIM-L-0140-02-02
100
AcDbAlignedDimension
 13
183.493745
 23
363.065531
 33
0.0
 14
269.733579
 24
270.365531
 34
0.0
 50
90.0
100
AcDbRotatedDimension
  0
DIMENSION
  5
6A8
330
1F
100
AcDbEntity
  8
LC-001-100-D00-0
 62
     7
370
    25
100
AcDbDimension
  2
*D65
 10
151.307734
 20
212.365531
 30
0.0
 11
120.507734
 21
232.873859
 31
0.0
 70
   160
  1
58
 71
     5
 42
58.0
 53
90.0
  3
LC-DIM-L-0140-02-02
100
AcDbAlignedDimension
 13
269.733579
 23
270.365531
 33
0.0
 14
296.493745
 24
212.365531
 34
0.0
 50
90.0
100
AcDbRotatedDimension
  0
DIMENSION
  5
6B7
330
1F
100
AcDbEntity
  8
LC-001-100-D00-0
 62
     7
370
    25
100
AcDbDimension
  2
*D66
 10
343.493745
 20
195.451859
 30
0.0
 11
415.397739
 21
226.251859
 31
0.0
 70
   160
  1
DN50
 71
     5
 42
50.0
  3
LC-DIM-L-0140-02-02
100
AcDbAlignedDimension
 13
293.493745
 23
215.365531
 33
0.0
 14
343.493745
 24
215.365531
 34
0.0
100
AcDbRotatedDimension
  0
DIMENSION
  5
6C5
330
1F
100
AcDbEntity
  8
LC-001-100-D00-0
 62
     7
370
    25
100
AcDbDimension
  2
*D67
 10
373.493745
 20
141.991859
 30
0.0
 11
318.493745
 21
172.791859
 31
0.0
 70
   160
  1
%%c110
 71
     5
 42
110.0
  3
LC-DIM-L-0140-02-02
100
AcDbAlignedDimension
 13
263.493745
 23
285.061798
 33
0.0
 14
373.493745
 24
285.061798
 34
0.0
100
AcDbRotatedDimension
  0
DIMENSION
  5
6D2
330
1F
100
AcDbEntity
  8
LC-001-100-D00-0
 62
     7
370
    25
100
AcDbDimension
  2
*D68
 10
381.493745
 20
95.065859
 30
0.0
 11
318.493745
 21
125.865859
 31
0.0
 70
   160
  1
%%c126
 71
     5
 42
126.0
  3
LC-DIM-L-0140-02-02
100
AcDbAlignedDimension
 13
255.493745
 23
330.365531
 33
0.0
 14
381.493745
 24
330.365531
 34
0.0
100
AcDbRotatedDimension
  0
DIMENSION
  5
6DF
330
1F
100
AcDbEntity
  8
LC-001-100-D00-0
 62
     7
370
    25
100
AcDbDimension
  2
*D69
 10
365.993745
 20
406.915859
 30
0.0
 11
329.142536
 21
437.715859
 31
0.0
 70
   160
  1
95
 71
     5
 42
95.0
  3
LC-DIM-L-0140-02-02
100
AcDbAlignedDimension
 13
270.993745
 23
396.265531
 33
0.0
 14
365.993745
 24
396.265531
 34
0.0
100
AcDbRotatedDimension
  0
DIMENSION
  5
6EC
330
1F
100
AcDbEntity
  8
LC-001-100-D00-0
 62
     7
370
    25
100
AcDbDimension
  2
*D70
 10
475.993745
 20
467.503859
 30
0.0
 11
307.844955
 21
498.303859
 31
0.0
 70
   160
  1
%%c315
 71
     5
 42
315.0
  3
LC-DIM-L-0140-02-02
100
AcDbAlignedDimension
 13
160.993745
 23
360.065531
 33
0.0
 14
475.993745
 24
360.065531
 34
0.0
100
AcDbRotatedDimension
  0
LINE
  5
6FA
330
1F
100
AcDbEntity
  8
LC-001-100-D00-0
  6
DASHDOT
 62
     7
370
    25
100
AcDbLine
 10
318.493745
 20
396.265534
 30
0.0
 11
318.493745
 21
212.365528
 31
0.0
  0
ARC
  5
6FB
330
1F
100
AcDbEntity
  8
LC-001-100-D00-0
 62
     7
370
    50
100
AcDbCircle
 10
463.414987
 20
-74.197663
 30
0.0
 40
7.000000000000476
100
AcDbArc
 50
316.949726
 51
1.888526
  0
ARC
  5
6FC
330
1F
100
AcDbEntity
  8
LC-001-100-D00-0
 62
     7
370
    50
100
AcDbCircle
 10
463.414987
 20
-74.197663
 30
0.0
 40
5.908089297202118
100
AcDbArc
 50
306.020881
 51
1.888526
  0
LINE
  5
6FD
330
1F
100
AcDbEntity
  8
LC-001-100-D00-0
  6
DASHDOT
 62
     7
370
    25
100
AcDbLine
 10
160.993745
 20
-78.976141
 30
0.0
 11
475.993745
 21
-78.976141
 31
0.0
  0
LINE
  5
6FE
102
{ACAD_REACTORS
330
737
102
}
330
1F
100
AcDbEntity
  8
LC-001-100-D00-0
 62
     7
370
    25
100
AcDbLine
 10
357.913203
 20
284.865531
 30
0.0
 11
357.993745
 21
284.946073
 31
0.0
  0
LINE
  5
6FF
102
{ACAD_REACTORS
330
737
102
}
330
1F
100
AcDbEntity
  8
LC-001-100-D00-0
 62
     7
370
    25
100
AcDbLine
 10
356.493745
 20
292.426329
 30
0.0
 11
357.993745
 21
293.926329
 31
0.0
  0
LINE
  5
700
102
{ACAD_REACTORS
330
737
102
}
330
1F
100
AcDbEntity
  8
LC-001-100-D00-0
 62
     7
370
    25
100
AcDbLine
 10
356.493745
 20
301.406585
 30
0.0
 11
357.993745
 21
302.906585
 31
0.0
  0
LINE
  5
701
102
{ACAD_REACTORS
330
737
102
}
330
1F
100
AcDbEntity
  8
LC-001-100-D00-0
 62
     7
370
    25
100
AcDbLine
 10
356.493745
 20
310.386841
 30
0.0
 11
357.993745
 21
311.886841
 31
0.0
  0
LINE
  5
702
102
{ACAD_REACTORS
330
737
102
}
330
1F
100
AcDbEntity
  8
LC-001-100-D00-0
 62
     7
370
    25
100
AcDbLine
 10
356.493745
 20
319.367097
 30
0.0
 11
357.993745
 21
320.867097
 31
0.0
  0
LINE
  5
703
102
{ACAD_REACTORS
330
737
102
}
330
1F
100
AcDbEntity
  8
LC-001-100-D00-0
 62
     7
370
    25
100
AcDbLine
 10
356.493745
 20
328.347353
 30
0.0
 11
357.993745
 21
329.847353
 31
0.0
  0
LINE
  5
704
102
{ACAD_REACTORS
330
737
102
}
330
1F
100
AcDbEntity
  8
LC-001-100-D00-0
 62
     7
370
    25
100
AcDbLine
 10
356.493745
 20
337.32761
 30
0.0
 11
357.957943
 21
338.791807
 31
0.0
  0
LINE
  5
705
102
{ACAD_REACTORS
330
737
102
}
330
1F
100
AcDbEntity
  8
LC-001-100-D00-0
 62
     7
370
    25
100
AcDbLine
 10
354.300623
 20
344.114744
 30
0.0
 11
355.445256
 21
345.259376
 31
0.0
  0
LINE
  5
706
102
{ACAD_REACTORS
330
737
102
}
330
1F
100
AcDbEntity
  8
LC-001-100-D00-0
 62
     7
370
    25
100
AcDbLine
 10
348.801278
 20
347.595654
 30
0.0
 11
350.279671
 21
349.074047
 31
0.0
  0
LINE
  5
707
102
{ACAD_REACTORS
330
737
102
}
330
1F
100
AcDbEntity
  8
LC-001-100-D00-0
 62
     7
370
    25
100
AcDbLine
 10
278.993745
 20
286.768378
 30
0.0
 11
280.493745
 21
288.268378
 31
0.0
  0
LINE
  5
708
102
{ACAD_REACTORS
330
737
102
}
330
1F
100
AcDbEntity
  8
LC-001-100-D00-0
 62
     7
370
    25
100
AcDbLine
 10
340.090898
 20
347.865531
 30
0.0
 11
342.090898
 21
349.865531
 31
0.0
  0
LINE
  5
709
102
{ACAD_REACTORS
330
737
102
}
330
1F
100
AcDbEntity
  8
LC-001-100-D00-0
 62
     7
370
    25
100
AcDbLine
 10
278.993745
 20
295.748634
 30
0.0
 11
280.493745
 21
297.248634
 31
0.0
  0
LINE
  5
70A
102
{ACAD_REACTORS
330
737
102
}
330
1F
100
AcDbEntity
  8
LC-001-100-D00-0
 62
     7
370
    25
100
AcDbLine
 10
331.110642
 20
347.865531
 30
0.0
 11
333.110642
 21
349.865531
 31
0.0
  0
LINE
  5
70B
102
{ACAD_REACTORS
330
737
102
}
330
1F
100
AcDbEntity
  8
LC-001-100-D00-0
 62
     7
370
    25
100
AcDbLine
 10
278.993745
 20
304.72889
 30
0.0
 11
280.493745
 21
306.22889
 31
0.0
  0
LINE
  5
70C
102
{ACAD_REACTORS
330
737
102
}
330
1F
100
AcDbEntity
  8
LC-001-100-D00-0
 62
     7
370
    25
100
AcDbLine
 10
322.130386
 20
347.865531
 30
0.0
 11
324.230384
 21
349.965529
 31
0.0
  0
LINE
  5
70D
102
{ACAD_REACTORS
330
737
102
}
330
1F
100
AcDbEntity
  8
LC-001-100-D00-0
 62
     7
370
    25
100
AcDbLine
 10
278.993745
 20
313.709146
 30
0.0
 11
280.493745
 21
315.209146
 31
0.0
  0
LINE
  5
70E
102
{ACAD_REACTORS
330
737
102
}
330
1F
100
AcDbEntity
  8
LC-001-100-D00-0
 62
     7
370
    25
100
AcDbLine
 10
285.15013
 20
319.865531
 30
0.0
 11
293.993745
 21
328.709146
 31
0.0
  0
LINE
  5
70F
102
{ACAD_REACTORS
330
737
102
}
330
1F
100
AcDbEntity
  8
LC-001-100-D00-0
 62
     7
370
    25
100
AcDbLine
 10
296.738118
 20
331.453519
 30
0.0
 11
300.493745
 21
335.209146
 31
0.0
  0
LINE
  5
710
102
{ACAD_REACTORS
330
737
102
}
330
1F
100
AcDbEntity
  8
LC-001-100-D00-0
 62
     7
370
    25
100
AcDbLine
 10
313.15013
 20
347.865531
 30
0.0
 11
315.250128
 21
349.965529
 31
0.0
  0
LINE
  5
711
102
{ACAD_REACTORS
330
737
102
}
330
1F
100
AcDbEntity
  8
LC-001-100-D00-0
 62
     7
370
    25
100
AcDbLine
 10
278.993745
 20
322.689402
 30
0.0
 11
300.493745
 21
344.189402
 31
0.0
  0
LINE
  5
712
102
{ACAD_REACTORS
330
737
102
}
330
1F
100
AcDbEntity
  8
LC-001-100-D00-0
 62
     7
370
    25
100
AcDbLine
 10
304.169874
 20
347.865531
 30
0.0
 11
309.154484
 21
352.850141
 31
0.0
  0
LINE
  5
713
102
{ACAD_REACTORS
330
737
102
}
330
1F
100
AcDbEntity
  8
LC-001-100-D00-0
 62
     7
370
    25
100
AcDbLine
 10
278.993745
 20
331.669659
 30
0.0
 11
297.189618
 21
349.865531
 31
0.0
  0
LINE
  5
714
102
{ACAD_REACTORS
330
737
102
}
330
1F
100
AcDbEntity
  8
LC-001-100-D00-0
 62
     7
370
    25
100
AcDbLine
 10
279.43556
 20
341.09173
 30
0.0
 11
287.767547
 21
349.423716
 31
0.0
  0
LINE
  5
715
102
{ACAD_REACTORS
330
737
102
}
330
1F
100
AcDbEntity
  8
LC-001-100-D00-0
 62
     7
370
    25
100
AcDbLine
 10
324.130386
 20
349.865531
 30
0.0
 11
324.230384
 21
349.965529
 31
0.0
  0
LINE
  5
716
102
{ACAD_REACTORS
330
737
102
}
330
1F
100
AcDbEntity
  8
LC-001-100-D00-0
 62
     7
370
    25
100
AcDbLine
 10
315.15013
 20
349.865531
 30
0.0
 11
315.250128
 21
349.965529
 31
0.0
  0
LINE
  5
717
102
{ACAD_REACTORS
330
737
102
}
330
1F
100
AcDbEntity
  8
LC-001-100-D00-0
 62
     7
370
    25
100
AcDbLine
 10
311.369873
 20
355.06553
 30
0.0
 11
316.169874
 21
359.865531
 31
0.0
  0
LINE
  5
718
102
{ACAD_REACTORS
330
737
102
}
330
1F
100
AcDbEntity
  8
LC-001-100-D00-0
 62
     7
370
    25
100
AcDbLine
 10
321.150131
 20
355.865532
 30
0.0
 11
324.98089
 21
359.696291
 31
0.0
  0
LINE
  5
719
102
{ACAD_REACTORS
330
737
102
}
330
1F
100
AcDbEntity
  8
LC-001-100-D00-0
 62
     7
370
    25
100
AcDbLine
 10
327.594432
 20
353.329577
 30
0.0
 11
330.480725
 21
356.21587
 31
0.0
  0
DIMENSION
  5
71B
330
1F
100
AcDbEntity
  8
LC-002-003-----0
 62
     7
370
    25
100
AcDbDimension
  2
*D71
 10
215.200477
 20
334.865531
 30
0.0
 11
184.400477
 21
251.881859
 31
0.0
 70
   160
  1
50
 71
     5
 42
49.803732
 53
90.0
  3
LC-DIM-L-0140-02-02
100
AcDbAlignedDimension
 13
278.993745
 23
285.061799
 33
0.0
 14
293.993745
 24
334.865531
 34
0.0
 50
90.0
100
AcDbRotatedDimension
  0
DIMENSION
  5
729
330
1F
100
AcDbEntity
  8
LC-002-003-----0
 62
     7
370
    25
100
AcDbDimension
  2
*D72
 10
419.657256
 20
396.265534
 30
0.0
 11
388.857256
 21
402.163859
 31
0.0
 70
   160
  1
6-33
 71
     5
 42
33.200003
 53
90.0
  3
LC-DIM-L-0140-02-02
100
AcDbAlignedDimension
 13
475.993745
 23
363.065531
 33
0.0
 14
365.993746
 24
396.265534
 34
0.0
 50
90.0
100
AcDbRotatedDimension
  0
ENDSEC
  0
SECTION
  2
OBJECTS
  0
DICTIONARY
  5
C
330
0
100
AcDbDictionary
281
     1
  3
ACAD_GROUP
350
D
  3
ACAD_LAYOUT
350
1A
  3
ACAD_MLINESTYLE
350
17
  3
ACAD_PLOTSETTINGS
350
19
  3
ACAD_PLOTSTYLENAME
350
E
  0
DICTIONARY
  5
D
102
{ACAD_REACTORS
330
C
102
}
330
C
100
AcDbDictionary
281
     1
  3
LCGROUP10
350
737
  0
DICTIONARY
  5
1A
102
{ACAD_REACTORS
330
C
102
}
330
C
100
AcDbDictionary
281
     1
  3
Layout1
350
1E
  3
Layout2
350
26
  3
Model
350
22
  0
DICTIONARY
  5
17
102
{ACAD_REACTORS
330
C
102
}
330
C
100
AcDbDictionary
281
     1
  3
Standard
350
18
  0
DICTIONARY
  5
19
102
{ACAD_REACTORS
330
C
102
}
330
C
100
AcDbDictionary
281
     1
  0
ACDBDICTIONARYWDFLT
  5
E
102
{ACAD_REACTORS
330
C
102
}
330
C
100
AcDbDictionary
281
     1
  3
Normal
350
F
100
AcDbDictionaryWithDefault
340
F
  0
GROUP
  5
737
102
{ACAD_REACTORS
330
D
102
}
330
D
100
AcDbGroup
300
GRP10
 70
     1
 71
     1
340
6FE
340
6FF
340
700
340
701
340
702
340
703
340
704
340
705
340
706
340
707
340
708
340
709
340
70A
340
70B
340
70C
340
70D
340
70E
340
70F
340
710
340
711
340
712
340
713
340
714
340
715
340
716
340
717
340
718
340
719
  0
LAYOUT
  5
1E
102
{ACAD_REACTORS
330
1A
102
}
330
1A
100
AcDbPlotSettings
  1

  2

  4

  6

 40
0.0
 41
0.0
 42
0.0
 43
0.0
 44
0.0
 45
0.0
 46
0.0
 47
0.0
 48
0.0
 49
0.0
140
0.0
141
0.0
142
1.0
143
1.0
 70
   688
 72
     0
 73
     0
 74
     5
  7

 75
    16
147
1.0
148
0.0
149
0.0
100
AcDbLayout
  1
Layout1
 70
     1
 71
     1
 10
-55.716455
 20
-84.322141
 11
784.283545
 21
509.677859
 12
0.0
 22
0.0
 32
0.0
 14
-55.716455
 24
-84.322141
 34
0.0
 15
784.283545
 25
509.677859
 35
0.0
146
0.0
 13
0.0
 23
0.0
 33
0.0
 16
1.0
 26
0.0
 36
0.0
 17
0.0
 27
1.0
 37
0.0
 76
     0
330
1B
  0
LAYOUT
  5
26
102
{ACAD_REACTORS
330
1A
102
}
330
1A
100
AcDbPlotSettings
  1

  2

  4

  6

 40
0.0
 41
0.0
 42
0.0
 43
0.0
 44
0.0
 45
0.0
 46
0.0
 47
0.0
 48
0.0
 49
0.0
140
0.0
141
0.0
142
1.0
143
1.0
 70
   688
 72
     0
 73
     0
 74
     5
  7

 75
    16
147
1.0
148
0.0
149
0.0
100
AcDbLayout
  1
Layout2
 70
     1
 71
     2
 10
0.0
 20
0.0
 11
0.0
 21
0.0
 12
0.0
 22
0.0
 32
0.0
 14
0.0
 24
0.0
 34
0.0
 15
0.0
 25
0.0
 35
0.0
146
0.0
 13
0.0
 23
0.0
 33
0.0
 16
1.0
 26
0.0
 36
0.0
 17
0.0
 27
1.0
 37
0.0
 76
     0
330
23
  0
LAYOUT
  5
22
102
{ACAD_REACTORS
330
1A
102
}
330
1A
100
AcDbPlotSettings
  1

  2

  4

  6

 40
0.0
 41
0.0
 42
0.0
 43
0.0
 44
0.0
 45
0.0
 46
0.0
 47
0.0
 48
0.0
 49
0.0
140
0.0
141
0.0
142
1.0
143
1.0
 70
  1776
 72
     0
 73
     0
 74
     0
  7

 75
     0
147
1.0
148
0.0
149
0.0
100
AcDbLayout
  1
Model
 70
     1
 71
     0
 10
-55.716455
 20
-84.322141
 11
784.283545
 21
509.677859
 12
0.0
 22
0.0
 32
0.0
 14
-55.716455
 24
-84.322141
 34
0.0
 15
784.283545
 25
509.677859
 35
0.0
146
0.0
 13
0.0
 23
0.0
 33
0.0
 16
1.0
 26
0.0
 36
0.0
 17
0.0
 27
1.0
 37
0.0
 76
     0
330
1F
  0
MLINESTYLE
  5
18
102
{ACAD_REACTORS
330
17
102
}
330
17
100
AcDbMlineStyle
  2
Standard
 70
     0
  3

 62
   256
 51
90.0
 52
90.0
 71
     2
 49
0.5
 62
   256
  6
BYLAYER
 49
-0.5
 62
   256
  6
BYLAYER
  0
ACDBPLACEHOLDER
  5
F
102
{ACAD_REACTORS
330
E
102
}
330
E
  0
ENDSEC
  0
EOF
