  0
SECTION
  2
HEADER
  9
$ACADVER
  1
AC1015
  9
$ACADMAINTVER
 70
     6
  9
$DWGCODEPAGE
  3
DOS850
  9
$INSBASE
 10
0.0
 20
0.0
 30
0.0
  9
$EXTMIN
 10
0.0
 20
0.0
 30
0.0
  9
$EXTMAX
 10
840.0
 20
594.0
 30
0.0
  9
$LIMMIN
 10
0.0
 20
0.0
  9
$LIMMAX
 10
840.0
 20
594.0
  9
$ORTHOMODE
 70
     0
  9
$REGENMODE
 70
     1
  9
$FILLMODE
 70
     1
  9
$QTEXTMODE
 70
     0
  9
$MIRRTEXT
 70
     1
  9
$LTSCALE
 40
2.0
  9
$ATTMODE
 70
     1
  9
$TEXTSIZE
 40
2.5
  9
$TRACEWID
 40
1.0
  9
$TEXTSTYLE
  7
Standard
  9
$CLAYER
  8
0
  9
$CELTYPE
  6
ByLayer
  9
$CECOLOR
 62
     7
  9
$CELTSCALE
 40
1.0
  9
$DISPSILH
 70
     0
  9
$DIMSCALE
 40
2.0
  9
$DIMASZ
 40
3.5
  9
$DIMEXO
 40
0.625
  9
$DIMDLI
 40
3.75
  9
$DIMRND
 40
0.0
  9
$DIMDLE
 40
0.0
  9
$DIMEXE
 40
1.25
  9
$DIMTP
 40
0.0
  9
$DIMTM
 40
0.0
  9
$DIMTXT
 40
3.5
  9
$DIMCEN
 40
2.5
  9
$DIMTSZ
 40
0.0
  9
$DIMTOL
 70
     0
  9
$DIMLIM
 70
     0
  9
$DIMTIH
 70
     0
  9
$DIMTOH
 70
     0
  9
$DIMSE1
 70
     0
  9
$DIMSE2
 70
     0
  9
$DIMTAD
 70
     1
  9
$DIMZIN
 70
     8
  9
$DIMBLK
  1

  9
$DIMASO
 70
     1
  9
$DIMSHO
 70
     1
  9
$DIMPOST
  1

  9
$DIMAPOST
  1

  9
$DIMALT
 70
     0
  9
$DIMALTD
 70
     3
  9
$DIMALTF
 40
0.03937
  9
$DIMLFAC
 40
1.0
  9
$DIMTOFL
 70
     1
  9
$DIMTVP
 40
0.0
  9
$DIMTIX
 70
     0
  9
$DIMSOXD
 70
     0
  9
$DIMSAH
 70
     0
  9
$DIMBLK1
  1

  9
$DIMBLK2
  1

  9
$DIMSTYLE
  2
ISO-25
  9
$DIMCLRD
 70
     0
  9
$DIMCLRE
 70
     0
  9
$DIMCLRT
 70
     0
  9
$DIMTFAC
 40
1.0
  9
$DIMGAP
 40
0.625
  9
$DIMJUST
 70
     0
  9
$DIMSD1
 70
     0
  9
$DIMSD2
 70
     0
  9
$DIMTOLJ
 70
     0
  9
$DIMTZIN
 70
     8
  9
$DIMALTZ
 70
     0
  9
$DIMALTTZ
 70
     0
  9
$DIMUPT
 70
     0
  9
$DIMDEC
 70
     2
  9
$DIMTDEC
 70
     2
  9
$DIMALTU
 70
     2
  9
$DIMALTTD
 70
     3
  9
$DIMTXSTY
  7
Standard
  9
$DIMAUNIT
 70
     0
  9
$DIMADEC
 70
     0
  9
$DIMALTRND
 40
0.0
  9
$DIMAZIN
 70
     0
  9
$DIMDSEP
 70
    44
  9
$DIMATFIT
 70
     3
  9
$DIMFRAC
 70
     0
  9
$DIMLDRBLK
  1

  9
$DIMLUNIT
 70
     2
  9
$DIMLWD
 70
    -2
  9
$DIMLWE
 70
    -2
  9
$DIMTMOVE
 70
     0
  9
$LUNITS
 70
     2
  9
$LUPREC
 70
     4
  9
$SKETCHINC
 40
1.0
  9
$FILLETRAD
 40
10.0
  9
$AUNITS
 70
     0
  9
$AUPREC
 70
     0
  9
$MENU
  1
.
  9
$ELEVATION
 40
0.0
  9
$PELEVATION
 40
0.0
  9
$THICKNESS
 40
0.0
  9
$LIMCHECK
 70
     0
  9
$CHAMFERA
 40
10.0
  9
$CHAMFERB
 40
10.0
  9
$CHAMFERC
 40
20.0
  9
$CHAMFERD
 40
0.0
  9
$SKPOLY
 70
     0
  9
$TDCREATE
 40
2453577.518827396
  9
$TDUCREATE
 40
2453577.435494063
  9
$TDUPDATE
 40
2453577.518827408
  9
$TDUUPDATE
 40
2453577.435494074
  9
$TDINDWG
 40
0.0000000116
  9
$TDUSRTIMER
 40
0.0000000116
  9
$USRTIMER
 70
     1
  9
$ANGBASE
 50
0.0
  9
$ANGDIR
 70
     0
  9
$PDMODE
 70
     0
  9
$PDSIZE
 40
0.0
  9
$PLINEWID
 40
0.0
  9
$SPLFRAME
 70
     0
  9
$SPLINETYPE
 70
     6
  9
$SPLINESEGS
 70
     8
  9
$HANDSEED
  5
300
  9
$SURFTAB1
 70
     6
  9
$SURFTAB2
 70
     6
  9
$SURFTYPE
 70
     6
  9
$SURFU
 70
     6
  9
$SURFV
 70
     6
  9
$UCSBASE
  2

  9
$UCSNAME
  2

  9
$UCSORG
 10
0.0
 20
0.0
 30
0.0
  9
$UCSXDIR
 10
1.0
 20
0.0
 30
0.0
  9
$UCSYDIR
 10
0.0
 20
1.0
 30
0.0
  9
$UCSORTHOREF
  2

  9
$UCSORTHOVIEW
 70
     0
  9
$UCSORGTOP
 10
0.0
 20
0.0
 30
0.0
  9
$UCSORGBOTTOM
 10
0.0
 20
0.0
 30
0.0
  9
$UCSORGLEFT
 10
0.0
 20
0.0
 30
0.0
  9
$UCSORGRIGHT
 10
0.0
 20
0.0
 30
0.0
  9
$UCSORGFRONT
 10
0.0
 20
0.0
 30
0.0
  9
$UCSORGBACK
 10
0.0
 20
0.0
 30
0.0
  9
$PUCSBASE
  2

  9
$PUCSNAME
  2

  9
$PUCSORG
 10
0.0
 20
0.0
 30
0.0
  9
$PUCSXDIR
 10
1.0
 20
0.0
 30
0.0
  9
$PUCSYDIR
 10
0.0
 20
1.0
 30
0.0
  9
$PUCSORTHOREF
  2

  9
$PUCSORTHOVIEW
 70
     0
  9
$PUCSORGTOP
 10
0.0
 20
0.0
 30
0.0
  9
$PUCSORGBOTTOM
 10
0.0
 20
0.0
 30
0.0
  9
$PUCSORGLEFT
 10
0.0
 20
0.0
 30
0.0
  9
$PUCSORGRIGHT
 10
0.0
 20
0.0
 30
0.0
  9
$PUCSORGFRONT
 10
0.0
 20
0.0
 30
0.0
  9
$PUCSORGBACK
 10
0.0
 20
0.0
 30
0.0
  9
$USERI1
 70
     0
  9
$USERI2
 70
     0
  9
$USERI3
 70
     0
  9
$USERI4
 70
     0
  9
$USERI5
 70
     0
  9
$USERR1
 40
0.0
  9
$USERR2
 40
0.0
  9
$USERR3
 40
0.0
  9
$USERR4
 40
0.0
  9
$USERR5
 40
0.0
  9
$WORLDVIEW
 70
     1
  9
$SHADEDGE
 70
     3
  9
$SHADEDIF
 70
    70
  9
$TILEMODE
 70
     1
  9
$MAXACTVP
 70
    64
  9
$PINSBASE
 10
0.0
 20
0.0
 30
0.0
  9
$PLIMCHECK
 70
     0
  9
$PEXTMIN
 10
0.0
 20
0.0
 30
0.0
  9
$PEXTMAX
 10
840.0
 20
594.0
 30
0.0
  9
$PLIMMIN
 10
0.0
 20
0.0
  9
$PLIMMAX
 10
840.0
 20
594.0
  9
$UNITMODE
 70
     0
  9
$VISRETAIN
 70
     1
  9
$PLINEGEN
 70
     0
  9
$PSLTSCALE
 70
     1
  9
$TREEDEPTH
 70
  3020
  9
$CMLSTYLE
  2
Standard
  9
$CMLJUST
 70
     0
  9
$CMLSCALE
 40
20.0
  9
$PROXYGRAPHICS
 70
     1
  9
$MEASUREMENT
 70
     1
  9
$CELWEIGHT
370
    -1
  9
$ENDCAPS
280
     0
  9
$JOINSTYLE
280
     0
  9
$LWDISPLAY
290
     0
  9
$INSUNITS
 70
     4
  9
$HYPERLINKBASE
  1

  9
$STYLESHEET
  1

  9
$XEDIT
290
     1
  9
$CEPSNTYPE
380
     0
  9
$PSTYLEMODE
290
     1
  9
$FINGERPRINTGUID
  2
{FAEB1C30-E019-11D5-929B-00C0DF256EC4}
  9
$VERSIONGUID
  2
{FAEB1C32-E019-11D5-929B-00C0DF256EC4}
  9
$EXTNAMES
290
     1
  9
$PSVPSCALE
 40
0.0
  9
$OLESTARTUP
290
     0
  0
ENDSEC
  0
SECTION
  2
CLASSES
  0
CLASS
  1
ACDBDICTIONARYWDFLT
  2
AcDbDictionaryWithDefault
  3
ObjectDBX Classes
 90
        0
280
     0
281
     0
  0
CLASS
  1
ACDBPLACEHOLDER
  2
AcDbPlaceHolder
  3
ObjectDBX Classes
 90
        0
280
     0
281
     0
  0
CLASS
  1
LAYOUT
  2
AcDbLayout
  3
ObjectDBX Classes
 90
        0
280
     0
281
     0
  0
ENDSEC
  0
SECTION
  2
TABLES
  0
TABLE
  2
VPORT
  5
8
330
0
100
AcDbSymbolTable
 70
     2
  0
VPORT
  5
29
330
8
100
AcDbSymbolTableRecord
100
AcDbViewportTableRecord
  2
*ACTIVE
 70
     0
 10
0.0
 20
0.0
 11
1.0
 21
1.0
 12
420.0
 22
297.0
 13
0.0
 23
0.0
 14
1.0
 24
1.0
 15
0.0
 25
0.0
 16
0.0
 26
0.0
 36
1.0
 17
0.0
 27
0.0
 37
0.0
 40
594.0
 41
1.414141
 42
50.0
 43
0.0
 44
0.0
 50
0.0
 51
0.0
 71
    16
 72
   100
 73
     1
 74
     0
 75
     0
 76
     0
 77
     0
 78
     0
281
     0
 65
     0
110
0.0
120
0.0
130
0.0
111
1.0
121
0.0
131
0.0
112
0.0
122
1.0
132
0.0
 79
     0
146
0.0
  0
ENDTAB
  0
TABLE
  2
LTYPE
  5
5
330
0
100
AcDbSymbolTable
 70
     4
  0
LTYPE
  5
14
330
5
100
AcDbSymbolTableRecord
100
AcDbLinetypeTableRecord
  2
ByBlock
 70
     0
  3

 72
    65
 73
     0
 40
0.0
  0
LTYPE
  5
15
330
5
100
AcDbSymbolTableRecord
100
AcDbLinetypeTableRecord
  2
ByLayer
 70
     0
  3

 72
    65
 73
     0
 40
0.0
  0
LTYPE
  5
16
330
5
100
AcDbSymbolTableRecord
100
AcDbLinetypeTableRecord
  2
Continuous
 70
     0
  3
Solid line
 72
    65
 73
     0
 40
0.0
  0
LTYPE
  5
2A
330
5
100
AcDbSymbolTableRecord
100
AcDbLinetypeTableRecord
  2
DASHED
 70
     0
  3
__ __ __ __ __
 72
    65
 73
     2
 40
6.25
 49
5.0
 74
     4
 75
     0
340
0
 46
1.0
 50
0.0
 44
0.0
 45
0.0
 49
-1.25
 74
     4
 75
     0
340
0
 46
1.0
 50
0.0
 44
0.0
 45
0.0
  0
LTYPE
  5
33
330
5
100
AcDbSymbolTableRecord
100
AcDbLinetypeTableRecord
  2
CENTER
 70
     0
  3
__ . __ . __ . __ . __
 72
    65
 73
     4
 40
7.5
 49
5.0
 74
     4
 75
     0
340
0
 46
1.0
 50
0.0
 44
0.0
 45
0.0
 49
-1.25
 74
     4
 75
     0
340
0
 46
1.0
 50
0.0
 44
0.0
 45
0.0
 49
0.0
 74
     4
 75
     0
340
0
 46
1.0
 50
0.0
 44
0.0
 45
0.0
 49
-1.25
 74
     4
 75
     0
340
0
 46
1.0
 50
0.0
 44
0.0
 45
0.0
  0
LTYPE
  5
2C0
330
5
100
AcDbSymbolTableRecord
100
AcDbLinetypeTableRecord
  2
DASHDOT
 70
     0
  3
__ . __ . __ . __ . __
 72
    65
 73
     4
 40
7.5
 49
5.0
 74
     4
 75
     0
340
0
 46
1.0
 50
0.0
 44
0.0
 45
0.0
 49
-1.25
 74
     4
 75
     0
340
0
 46
1.0
 50
0.0
 44
0.0
 45
0.0
 49
0.0
 74
     4
 75
     0
340
0
 46
1.0
 50
0.0
 44
0.0
 45
0.0
 49
-1.25
 74
     4
 75
     0
340
0
 46
1.0
 50
0.0
 44
0.0
 45
0.0
  0
ENDTAB
  0
TABLE
  2
LAYER
  5
2
330
0
100
AcDbSymbolTable
 70
    11
  0
LAYER
  5
10
330
2
100
AcDbSymbolTableRecord
100
AcDbLayerTableRecord
  2
0
 70
     0
 62
     7
  6
Continuous
370
    -3
390
F
  0
LAYER
  5
2B
330
2
100
AcDbSymbolTableRecord
100
AcDbLayerTableRecord
  2
LC-INFO-1-2-mm-A3-0
 70
     1
 62
     7
  6
ByBlock
370
    -3
390
F
  0
LAYER
  5
2C
330
2
100
AcDbSymbolTableRecord
100
AcDbLayerTableRecord
  2
LC-CUT-HIDDEN
 70
     0
 62
     7
  6
DASHED
370
    -3
390
F
  0
LAYER
  5
2D
330
2
100
AcDbSymbolTableRecord
100
AcDbLayerTableRecord
  2
LC-VIEWPORT
 70
     0
 62
     7
  6
ByBlock
370
    -3
390
F
  0
LAYER
  5
2E
330
2
100
AcDbSymbolTableRecord
100
AcDbLayerTableRecord
  2
LC-3D-HIDDEN
 70
     0
 62
     9
  6
DASHED
370
    -3
390
F
  0
LAYER
  5
30
330
2
100
AcDbSymbolTableRecord
100
AcDbLayerTableRecord
  2
LC-001-002-----0
 70
     0
 62
     1
  6
ByBlock
370
    -3
390
F
  0
LAYER
  5
34
330
2
100
AcDbSymbolTableRecord
100
AcDbLayerTableRecord
  2
LC-002-006-MLN-0
 70
     0
 62
     2
  6
CENTER
370
    -3
390
F
  0
LAYER
  5
38
330
2
100
AcDbSymbolTableRecord
100
AcDbLayerTableRecord
  2
LC-003-002-RND-0
 70
     0
 62
     1
  6
ByBlock
370
    -3
390
F
  0
LAYER
  5
79
330
2
100
AcDbSymbolTableRecord
100
AcDbLayerTableRecord
  2
LC-004-005-----0
 70
     0
 62
     2
  6
ByBlock
370
    -3
390
F
  0
LAYER
  5
1FD
330
2
100
AcDbSymbolTableRecord
100
AcDbLayerTableRecord
  2
LC-005-003-----0
 70
     0
 62
     2
  6
ByBlock
370
    -3
390
F
  0
LAYER
  5
278
330
2
100
AcDbSymbolTableRecord
100
AcDbLayerTableRecord
  2
Defpoints
 70
     0
 62
     7
  6
Continuous
290
     0
370
    -3
390
F
  0
ENDTAB
  0
TABLE
  2
STYLE
  5
3
330
0
100
AcDbSymbolTable
 70
     3
  0
STYLE
  5
11
330
3
100
AcDbSymbolTableRecord
100
AcDbTextStyleTableRecord
  2
Standard
 70
     0
 40
0.0
 41
1.0
 50
0.0
 71
     0
 42
2.5
  3
txt
  4

  0
STYLE
  5
2F
330
3
100
AcDbSymbolTableRecord
100
AcDbTextStyleTableRecord
  2
LCTX15-400-0-0-Arial
 70
     0
 40
0.0
 41
0.9
 50
0.0
 71
     0
 42
3.5
  3

  4

1001
ACAD
1000
Arial
1071
 16777218
  0
STYLE
  5
275
330
3
100
AcDbSymbolTableRecord
100
AcDbTextStyleTableRecord
  2
LCTX15-400-0-0pDIN-Schrift
 70
     0
 40
2.5
 41
0.8
 50
15.0
 71
     0
 42
3.5
  3
STANDARD
  4

  0
ENDTAB
  0
TABLE
  2
VIEW
  5
6
330
0
100
AcDbSymbolTable
 70
     0
  0
ENDTAB
  0
TABLE
  2
UCS
  5
7
330
0
100
AcDbSymbolTable
 70
     0
  0
ENDTAB
  0
TABLE
  2
APPID
  5
9
330
0
100
AcDbSymbolTable
 70
     1
  0
APPID
  5
12
330
9
100
AcDbSymbolTableRecord
100
AcDbRegAppTableRecord
  2
ACAD
 70
     0
  0
ENDTAB
  0
TABLE
  2
DIMSTYLE
  5
A
330
0
100
AcDbSymbolTable
 70
     2
100
AcDbDimStyleTable
  0
DIMSTYLE
105
27
330
A
100
AcDbSymbolTableRecord
100
AcDbDimStyleTableRecord
  2
ISO-25
 70
     0
 41
2.5
 42
0.625
 43
3.75
 44
1.25
 73
     0
 74
     0
 77
     1
 78
     8
140
2.5
141
2.5
143
0.03937
147
0.625
171
     3
172
     1
271
     2
272
     2
274
     3
278
    44
283
     0
284
     8
340
11
  0
DIMSTYLE
105
276
102
{ACAD_REACTORS
330
277
330
285
330
297
330
2A4
330
2B1
102
}
330
A
100
AcDbSymbolTableRecord
100
AcDbDimStyleTableRecord
  2
LC-DIM-L-0140-02-02
 70
     0
 40
2.0
 41
14.0
 42
0.0
 43
7.5
 44
1.8
 73
     0
 74
     0
 77
     1
 78
     8
 79
     2
140
14.0
141
0.0
146
0.71
147
1.5
176
     2
177
     2
178
     2
179
     2
271
     2
278
    44
289
     1
340
275
  0
ENDTAB
  0
TABLE
  2
BLOCK_RECORD
  5
1
330
0
100
AcDbSymbolTable
 70
    15
  0
BLOCK_RECORD
  5
1F
330
1
100
AcDbSymbolTableRecord
100
AcDbBlockTableRecord
  2
*Model_Space
340
22
  0
BLOCK_RECORD
  5
1B
330
1
100
AcDbSymbolTableRecord
100
AcDbBlockTableRecord
  2
*Paper_Space
340
1E
  0
BLOCK_RECORD
  5
23
330
1
100
AcDbSymbolTableRecord
100
AcDbBlockTableRecord
  2
*Paper_Space0
340
26
  0
BLOCK_RECORD
  5
76
330
1
100
AcDbSymbolTableRecord
100
AcDbBlockTableRecord
  2
*X11
340
0
102
{BLKREFS
331
E2
102
}
  0
BLOCK_RECORD
  5
EF
330
1
100
AcDbSymbolTableRecord
100
AcDbBlockTableRecord
  2
*X22
340
0
102
{BLKREFS
331
FD
102
}
  0
BLOCK_RECORD
  5
FE
330
1
100
AcDbSymbolTableRecord
100
AcDbBlockTableRecord
  2
*X33
340
0
102
{BLKREFS
331
10F
102
}
  0
BLOCK_RECORD
  5
121
330
1
100
AcDbSymbolTableRecord
100
AcDbBlockTableRecord
  2
*X44
340
0
102
{BLKREFS
331
137
102
}
  0
BLOCK_RECORD
  5
13E
330
1
100
AcDbSymbolTableRecord
100
AcDbBlockTableRecord
  2
*X55
340
0
102
{BLKREFS
331
16E
102
}
  0
BLOCK_RECORD
  5
16F
330
1
100
AcDbSymbolTableRecord
100
AcDbBlockTableRecord
  2
*X66
340
0
102
{BLKREFS
331
19D
102
}
  0
BLOCK_RECORD
  5
1B9
330
1
100
AcDbSymbolTableRecord
100
AcDbBlockTableRecord
  2
*X77
340
0
102
{BLKREFS
331
1F5
102
}
  0
BLOCK_RECORD
  5
279
330
1
100
AcDbSymbolTableRecord
100
AcDbBlockTableRecord
  2
*D8
340
0
  0
BLOCK_RECORD
  5
286
330
1
100
AcDbSymbolTableRecord
100
AcDbBlockTableRecord
  2
*D9
340
0
  0
BLOCK_RECORD
  5
298
330
1
100
AcDbSymbolTableRecord
100
AcDbBlockTableRecord
  2
*D10
340
0
  0
BLOCK_RECORD
  5
2A5
330
1
100
AcDbSymbolTableRecord
100
AcDbBlockTableRecord
  2
*D11
340
0
  0
BLOCK_RECORD
  5
2B2
330
1
100
AcDbSymbolTableRecord
100
AcDbBlockTableRecord
  2
*D12
340
0
  0
BLOCK_RECORD
  5
2D7
330
1
100
AcDbSymbolTableRecord
100
AcDbBlockTableRecord
  2
*X813
340
0
102
{BLKREFS
331
2DD
102
}
  0
BLOCK_RECORD
  5
2F0
330
1
100
AcDbSymbolTableRecord
100
AcDbBlockTableRecord
  2
*X914
340
0
102
{BLKREFS
331
2F8
102
}
  0
ENDTAB
  0
ENDSEC
  0
SECTION
  2
BLOCKS
  0
BLOCK
  5
20
330
1F
100
AcDbEntity
  8
0
100
AcDbBlockBegin
  2
*Model_Space
 70
     0
 71
     0
 10
0.0
 20
0.0
 30
0.0
  3
*Model_Space
  1

  0
ENDBLK
  5
21
330
1F
100
AcDbEntity
  8
0
100
AcDbBlockEnd
  0
BLOCK
  5
1C
330
1B
100
AcDbEntity
 67
     1
  8
0
100
AcDbBlockBegin
  2
*Paper_Space
 70
     0
 71
     0
 10
0.0
 20
0.0
 30
0.0
  3
*Paper_Space
  1

  0
ENDBLK
  5
1D
330
1B
100
AcDbEntity
 67
     1
  8
0
100
AcDbBlockEnd
  0
BLOCK
  5
24
330
23
100
AcDbEntity
  8
0
100
AcDbBlockBegin
  2
*Paper_Space0
 70
     0
 71
     0
 10
0.0
 20
0.0
 30
0.0
  3
*Paper_Space0
  1

  0
ENDBLK
  5
25
330
23
100
AcDbEntity
  8
0
100
AcDbBlockEnd
  0
BLOCK
  5
77
330
76
100
AcDbEntity
  8
0
100
AcDbBlockBegin
  2
*X11
 70
     1
 71
     0
 10
0.0
 20
0.0
 30
0.0
  3
*X11
  1

  4
*X1
  0
LINE
  5
7A
330
76
100
AcDbEntity
  8
LC-004-005-----0
 62
     7
370
    25
100
AcDbLine
 10
135.498599
 20
313.689508
 30
0.0
 11
135.83264
 21
314.023549
 31
0.0
  0
LINE
  5
7B
330
76
100
AcDbEntity
  8
LC-004-005-----0
 62
     7
370
    25
100
AcDbLine
 10
132.670172
 20
313.689508
 30
0.0
 11
133.670172
 21
314.689508
 31
0.0
  0
LINE
  5
7C
330
76
100
AcDbEntity
  8
LC-004-005-----0
 62
     7
370
    25
100
AcDbLine
 10
129.841745
 20
313.689508
 30
0.0
 11
130.841745
 21
314.689508
 31
0.0
  0
LINE
  5
7D
330
76
100
AcDbEntity
  8
LC-004-005-----0
 62
     7
370
    25
100
AcDbLine
 10
127.013318
 20
313.689508
 30
0.0
 11
128.013318
 21
314.689508
 31
0.0
  0
LINE
  5
7E
330
76
100
AcDbEntity
  8
LC-004-005-----0
 62
     7
370
    25
100
AcDbLine
 10
124.184891
 20
313.689508
 30
0.0
 11
125.184891
 21
314.689508
 31
0.0
  0
LINE
  5
7F
330
76
100
AcDbEntity
  8
LC-004-005-----0
 62
     7
370
    25
100
AcDbLine
 10
121.356464
 20
313.689508
 30
0.0
 11
122.356464
 21
314.689508
 31
0.0
  0
LINE
  5
80
330
76
100
AcDbEntity
  8
LC-004-005-----0
 62
     7
370
    25
100
AcDbLine
 10
118.528037
 20
313.689508
 30
0.0
 11
119.528037
 21
314.689508
 31
0.0
  0
LINE
  5
81
330
76
100
AcDbEntity
  8
LC-004-005-----0
 62
     7
370
    25
100
AcDbLine
 10
115.69961
 20
313.689508
 30
0.0
 11
116.69961
 21
314.689508
 31
0.0
  0
LINE
  5
82
330
76
100
AcDbEntity
  8
LC-004-005-----0
 62
     7
370
    25
100
AcDbLine
 10
112.871182
 20
313.689508
 30
0.0
 11
113.871182
 21
314.689508
 31
0.0
  0
LINE
  5
83
330
76
100
AcDbEntity
  8
LC-004-005-----0
 62
     7
370
    25
100
AcDbLine
 10
110.042755
 20
313.689508
 30
0.0
 11
111.042755
 21
314.689508
 31
0.0
  0
LINE
  5
84
330
76
100
AcDbEntity
  8
LC-004-005-----0
 62
     7
370
    25
100
AcDbLine
 10
107.214328
 20
313.689508
 30
0.0
 11
108.214328
 21
314.689508
 31
0.0
  0
LINE
  5
85
330
76
100
AcDbEntity
  8
LC-004-005-----0
 62
     7
370
    25
100
AcDbLine
 10
104.393688
 20
313.697296
 30
0.0
 11
105.385901
 21
314.689508
 31
0.0
  0
LINE
  5
86
330
76
100
AcDbEntity
  8
LC-004-005-----0
 62
     7
370
    25
100
AcDbLine
 10
102.207441
 20
314.339475
 30
0.0
 11
102.948252
 21
315.080286
 31
0.0
  0
LINE
  5
87
330
76
100
AcDbEntity
  8
LC-004-005-----0
 62
     7
370
    25
100
AcDbLine
 10
100.69693
 20
315.657392
 30
0.0
 11
101.412043
 21
316.372505
 31
0.0
  0
LINE
  5
88
330
76
100
AcDbEntity
  8
LC-004-005-----0
 62
     7
370
    25
100
AcDbLine
 10
99.793036
 20
317.581924
 30
0.0
 11
100.609532
 21
318.398421
 31
0.0
  0
LINE
  5
89
330
76
100
AcDbEntity
  8
LC-004-005-----0
 62
     7
370
    25
100
AcDbLine
 10
99.195319
 20
319.812634
 30
0.0
 11
100.011815
 21
320.629131
 31
0.0
  0
LINE
  5
8A
330
76
100
AcDbEntity
  8
LC-004-005-----0
 62
     7
370
    25
100
AcDbLine
 10
98.597602
 20
322.043345
 30
0.0
 11
99.414098
 21
322.859841
 31
0.0
  0
LINE
  5
8B
330
76
100
AcDbEntity
  8
LC-004-005-----0
 62
     7
370
    25
100
AcDbLine
 10
97.999885
 20
324.274055
 30
0.0
 11
98.816381
 21
325.090551
 31
0.0
  0
LINE
  5
8C
330
76
100
AcDbEntity
  8
LC-004-005-----0
 62
     7
370
    25
100
AcDbLine
 10
97.402168
 20
326.504765
 30
0.0
 11
98.218664
 21
327.321261
 31
0.0
  0
LINE
  5
8D
330
76
100
AcDbEntity
  8
LC-004-005-----0
 62
     7
370
    25
100
AcDbLine
 10
96.804451
 20
328.735475
 30
0.0
 11
97.620947
 21
329.551972
 31
0.0
  0
LINE
  5
8E
330
76
100
AcDbEntity
  8
LC-004-005-----0
 62
     7
370
    25
100
AcDbLine
 10
96.206734
 20
330.966185
 30
0.0
 11
97.02323
 21
331.782682
 31
0.0
  0
LINE
  5
8F
330
76
100
AcDbEntity
  8
LC-004-005-----0
 62
     7
370
    25
100
AcDbLine
 10
95.609017
 20
333.196895
 30
0.0
 11
96.425513
 21
334.013392
 31
0.0
  0
LINE
  5
90
330
76
100
AcDbEntity
  8
LC-004-005-----0
 62
     7
370
    25
100
AcDbLine
 10
95.0113
 20
335.427605
 30
0.0
 11
95.827796
 21
336.244102
 31
0.0
  0
LINE
  5
91
330
76
100
AcDbEntity
  8
LC-004-005-----0
 62
     7
370
    25
100
AcDbLine
 10
94.413583
 20
337.658316
 30
0.0
 11
95.230079
 21
338.474812
 31
0.0
  0
LINE
  5
92
330
76
100
AcDbEntity
  8
LC-004-005-----0
 62
     7
370
    25
100
AcDbLine
 10
93.815866
 20
339.889026
 30
0.0
 11
94.632362
 21
340.705522
 31
0.0
  0
LINE
  5
93
330
76
100
AcDbEntity
  8
LC-004-005-----0
 62
     7
370
    25
100
AcDbLine
 10
93.218149
 20
342.119736
 30
0.0
 11
94.034645
 21
342.936232
 31
0.0
  0
LINE
  5
94
330
76
100
AcDbEntity
  8
LC-004-005-----0
 62
     7
370
    25
100
AcDbLine
 10
92.620432
 20
344.350446
 30
0.0
 11
93.436929
 21
345.166943
 31
0.0
  0
LINE
  5
95
330
76
100
AcDbEntity
  8
LC-004-005-----0
 62
     7
370
    25
100
AcDbLine
 10
92.022715
 20
346.581156
 30
0.0
 11
92.839212
 21
347.397653
 31
0.0
  0
LINE
  5
96
330
76
100
AcDbEntity
  8
LC-004-005-----0
 62
     7
370
    25
100
AcDbLine
 10
91.424998
 20
348.811866
 30
0.0
 11
92.241495
 21
349.628363
 31
0.0
  0
LINE
  5
97
330
76
100
AcDbEntity
  8
LC-004-005-----0
 62
     7
370
    25
100
AcDbLine
 10
90.827281
 20
351.042576
 30
0.0
 11
91.643778
 21
351.859073
 31
0.0
  0
LINE
  5
98
330
76
100
AcDbEntity
  8
LC-004-005-----0
 62
     7
370
    25
100
AcDbLine
 10
90.229564
 20
353.273287
 30
0.0
 11
91.046061
 21
354.089783
 31
0.0
  0
LINE
  5
99
330
76
100
AcDbEntity
  8
LC-004-005-----0
 62
     7
370
    25
100
AcDbLine
 10
89.631847
 20
355.503997
 30
0.0
 11
90.448344
 21
356.320493
 31
0.0
  0
LINE
  5
9A
330
76
100
AcDbEntity
  8
LC-004-005-----0
 62
     7
370
    25
100
AcDbLine
 10
89.03413
 20
357.734707
 30
0.0
 11
89.850627
 21
358.551203
 31
0.0
  0
LINE
  5
9B
330
76
100
AcDbEntity
  8
LC-004-005-----0
 62
     7
370
    25
100
AcDbLine
 10
88.436413
 20
359.965417
 30
0.0
 11
89.25291
 21
360.781914
 31
0.0
  0
LINE
  5
9C
330
76
100
AcDbEntity
  8
LC-004-005-----0
 62
     7
370
    25
100
AcDbLine
 10
87.838696
 20
362.196127
 30
0.0
 11
88.655193
 21
363.012624
 31
0.0
  0
LINE
  5
9D
330
76
100
AcDbEntity
  8
LC-004-005-----0
 62
     7
370
    25
100
AcDbLine
 10
87.240979
 20
364.426837
 30
0.0
 11
88.057476
 21
365.243334
 31
0.0
  0
LINE
  5
9E
330
76
100
AcDbEntity
  8
LC-004-005-----0
 62
     7
370
    25
100
AcDbLine
 10
86.643262
 20
366.657547
 30
0.0
 11
87.459759
 21
367.474044
 31
0.0
  0
LINE
  5
9F
330
76
100
AcDbEntity
  8
LC-004-005-----0
 62
     7
370
    25
100
AcDbLine
 10
86.045545
 20
368.888258
 30
0.0
 11
86.862042
 21
369.704754
 31
0.0
  0
LINE
  5
A0
330
76
100
AcDbEntity
  8
LC-004-005-----0
 62
     7
370
    25
100
AcDbLine
 10
85.447828
 20
371.118968
 30
0.0
 11
86.264325
 21
371.935464
 31
0.0
  0
LINE
  5
A1
330
76
100
AcDbEntity
  8
LC-004-005-----0
 62
     7
370
    25
100
AcDbLine
 10
84.850111
 20
373.349678
 30
0.0
 11
85.666608
 21
374.166174
 31
0.0
  0
LINE
  5
A2
330
76
100
AcDbEntity
  8
LC-004-005-----0
 62
     7
370
    25
100
AcDbLine
 10
84.252394
 20
375.580388
 30
0.0
 11
85.068891
 21
376.396885
 31
0.0
  0
LINE
  5
A3
330
76
100
AcDbEntity
  8
LC-004-005-----0
 62
     7
370
    25
100
AcDbLine
 10
83.654677
 20
377.811098
 30
0.0
 11
84.471174
 21
378.627595
 31
0.0
  0
LINE
  5
A4
330
76
100
AcDbEntity
  8
LC-004-005-----0
 62
     7
370
    25
100
AcDbLine
 10
83.05696
 20
380.041808
 30
0.0
 11
83.873457
 21
380.858305
 31
0.0
  0
LINE
  5
A5
330
76
100
AcDbEntity
  8
LC-004-005-----0
 62
     7
370
    25
100
AcDbLine
 10
82.459243
 20
382.272518
 30
0.0
 11
83.27574
 21
383.089015
 31
0.0
  0
LINE
  5
A6
330
76
100
AcDbEntity
  8
LC-004-005-----0
 62
     7
370
    25
100
AcDbLine
 10
81.861526
 20
384.503229
 30
0.0
 11
82.678023
 21
385.319725
 31
0.0
  0
LINE
  5
A7
330
76
100
AcDbEntity
  8
LC-004-005-----0
 62
     7
370
    25
100
AcDbLine
 10
81.263809
 20
386.733939
 30
0.0
 11
82.080306
 21
387.550435
 31
0.0
  0
LINE
  5
A8
330
76
100
AcDbEntity
  8
LC-004-005-----0
 62
     7
370
    25
100
AcDbLine
 10
80.666092
 20
388.964649
 30
0.0
 11
81.482589
 21
389.781145
 31
0.0
  0
LINE
  5
A9
330
76
100
AcDbEntity
  8
LC-004-005-----0
 62
     7
370
    25
100
AcDbLine
 10
80.068375
 20
391.195359
 30
0.0
 11
80.884872
 21
392.011856
 31
0.0
  0
LINE
  5
AA
330
76
100
AcDbEntity
  8
LC-004-005-----0
 62
     7
370
    25
100
AcDbLine
 10
79.470658
 20
393.426069
 30
0.0
 11
80.287155
 21
394.242566
 31
0.0
  0
LINE
  5
AB
330
76
100
AcDbEntity
  8
LC-004-005-----0
 62
     7
370
    25
100
AcDbLine
 10
78.872941
 20
395.656779
 30
0.0
 11
79.689438
 21
396.473276
 31
0.0
  0
LINE
  5
AC
330
76
100
AcDbEntity
  8
LC-004-005-----0
 62
     7
370
    25
100
AcDbLine
 10
78.275224
 20
397.887489
 30
0.0
 11
79.091721
 21
398.703986
 31
0.0
  0
LINE
  5
AD
330
76
100
AcDbEntity
  8
LC-004-005-----0
 62
     7
370
    25
100
AcDbLine
 10
77.677507
 20
400.1182
 30
0.0
 11
78.494004
 21
400.934696
 31
0.0
  0
LINE
  5
AE
330
76
100
AcDbEntity
  8
LC-004-005-----0
 62
     7
370
    25
100
AcDbLine
 10
77.07979
 20
402.34891
 30
0.0
 11
77.896287
 21
403.165406
 31
0.0
  0
LINE
  5
AF
330
76
100
AcDbEntity
  8
LC-004-005-----0
 62
     7
370
    25
100
AcDbLine
 10
76.482073
 20
404.57962
 30
0.0
 11
77.29857
 21
405.396116
 31
0.0
  0
LINE
  5
B0
330
76
100
AcDbEntity
  8
LC-004-005-----0
 62
     7
370
    25
100
AcDbLine
 10
75.884356
 20
406.81033
 30
0.0
 11
76.700853
 21
407.626827
 31
0.0
  0
LINE
  5
B1
330
76
100
AcDbEntity
  8
LC-004-005-----0
 62
     7
370
    25
100
AcDbLine
 10
75.286639
 20
409.04104
 30
0.0
 11
76.103136
 21
409.857537
 31
0.0
  0
LINE
  5
B2
330
76
100
AcDbEntity
  8
LC-004-005-----0
 62
     7
370
    25
100
AcDbLine
 10
74.688922
 20
411.27175
 30
0.0
 11
75.505419
 21
412.088247
 31
0.0
  0
LINE
  5
B3
330
76
100
AcDbEntity
  8
LC-004-005-----0
 62
     7
370
    25
100
AcDbLine
 10
74.091205
 20
413.50246
 30
0.0
 11
74.907702
 21
414.318957
 31
0.0
  0
LINE
  5
B4
330
76
100
AcDbEntity
  8
LC-004-005-----0
 62
     7
370
    25
100
AcDbLine
 10
73.493489
 20
415.733171
 30
0.0
 11
74.309985
 21
416.549667
 31
0.0
  0
LINE
  5
B5
330
76
100
AcDbEntity
  8
LC-004-005-----0
 62
     7
370
    25
100
AcDbLine
 10
72.895772
 20
417.963881
 30
0.0
 11
73.712268
 21
418.780377
 31
0.0
  0
LINE
  5
B6
330
76
100
AcDbEntity
  8
LC-004-005-----0
 62
     7
370
    25
100
AcDbLine
 10
72.298055
 20
420.194591
 30
0.0
 11
73.114551
 21
421.011087
 31
0.0
  0
LINE
  5
B7
330
76
100
AcDbEntity
  8
LC-004-005-----0
 62
     7
370
    25
100
AcDbLine
 10
71.700338
 20
422.425301
 30
0.0
 11
72.516834
 21
423.241798
 31
0.0
  0
LINE
  5
B8
330
76
100
AcDbEntity
  8
LC-004-005-----0
 62
     7
370
    25
100
AcDbLine
 10
71.102621
 20
424.656011
 30
0.0
 11
71.919117
 21
425.472508
 31
0.0
  0
LINE
  5
B9
330
76
100
AcDbEntity
  8
LC-004-005-----0
 62
     7
370
    25
100
AcDbLine
 10
70.504904
 20
426.886721
 30
0.0
 11
71.3214
 21
427.703218
 31
0.0
  0
LINE
  5
BA
330
76
100
AcDbEntity
  8
LC-004-005-----0
 62
     7
370
    25
100
AcDbLine
 10
69.907187
 20
429.117431
 30
0.0
 11
70.723683
 21
429.933928
 31
0.0
  0
LINE
  5
BB
330
76
100
AcDbEntity
  8
LC-004-005-----0
 62
     7
370
    25
100
AcDbLine
 10
69.30947
 20
431.348142
 30
0.0
 11
70.125966
 21
432.164638
 31
0.0
  0
LINE
  5
BC
330
76
100
AcDbEntity
  8
LC-004-005-----0
 62
     7
370
    25
100
AcDbLine
 10
68.711753
 20
433.578852
 30
0.0
 11
69.528249
 21
434.395348
 31
0.0
  0
LINE
  5
BD
330
76
100
AcDbEntity
  8
LC-004-005-----0
 62
     7
370
    25
100
AcDbLine
 10
68.114036
 20
435.809562
 30
0.0
 11
68.930532
 21
436.626058
 31
0.0
  0
LINE
  5
BE
330
76
100
AcDbEntity
  8
LC-004-005-----0
 62
     7
370
    25
100
AcDbLine
 10
67.516319
 20
438.040272
 30
0.0
 11
68.332815
 21
438.856769
 31
0.0
  0
LINE
  5
BF
330
76
100
AcDbEntity
  8
LC-004-005-----0
 62
     7
370
    25
100
AcDbLine
 10
66.918602
 20
440.270982
 30
0.0
 11
67.735098
 21
441.087479
 31
0.0
  0
LINE
  5
C0
330
76
100
AcDbEntity
  8
LC-004-005-----0
 62
     7
370
    25
100
AcDbLine
 10
66.320885
 20
442.501692
 30
0.0
 11
67.137381
 21
443.318189
 31
0.0
  0
LINE
  5
C1
330
76
100
AcDbEntity
  8
LC-004-005-----0
 62
     7
370
    25
100
AcDbLine
 10
65.723168
 20
444.732402
 30
0.0
 11
66.539664
 21
445.548899
 31
0.0
  0
LINE
  5
C2
330
76
100
AcDbEntity
  8
LC-004-005-----0
 62
     7
370
    25
100
AcDbLine
 10
65.125451
 20
446.963113
 30
0.0
 11
65.941947
 21
447.779609
 31
0.0
  0
LINE
  5
C3
330
76
100
AcDbEntity
  8
LC-004-005-----0
 62
     7
370
    25
100
AcDbLine
 10
64.527734
 20
449.193823
 30
0.0
 11
65.34423
 21
450.010319
 31
0.0
  0
LINE
  5
C4
330
76
100
AcDbEntity
  8
LC-004-005-----0
 62
     7
370
    25
100
AcDbLine
 10
63.930017
 20
451.424533
 30
0.0
 11
64.746513
 21
452.241029
 31
0.0
  0
LINE
  5
C5
330
76
100
AcDbEntity
  8
LC-004-005-----0
 62
     7
370
    25
100
AcDbLine
 10
63.3323
 20
453.655243
 30
0.0
 11
64.148796
 21
454.47174
 31
0.0
  0
LINE
  5
C6
330
76
100
AcDbEntity
  8
LC-004-005-----0
 62
     7
370
    25
100
AcDbLine
 10
62.734583
 20
455.885953
 30
0.0
 11
63.551079
 21
456.70245
 31
0.0
  0
LINE
  5
C7
330
76
100
AcDbEntity
  8
LC-004-005-----0
 62
     7
370
    25
100
AcDbLine
 10
62.136866
 20
458.116663
 30
0.0
 11
62.953362
 21
458.93316
 31
0.0
  0
LINE
  5
C8
330
76
100
AcDbEntity
  8
LC-004-005-----0
 62
     7
370
    25
100
AcDbLine
 10
61.539149
 20
460.347373
 30
0.0
 11
62.355645
 21
461.16387
 31
0.0
  0
LINE
  5
C9
330
76
100
AcDbEntity
  8
LC-004-005-----0
 62
     7
370
    25
100
AcDbLine
 10
60.941432
 20
462.578084
 30
0.0
 11
61.757928
 21
463.39458
 31
0.0
  0
LINE
  5
CA
330
76
100
AcDbEntity
  8
LC-004-005-----0
 62
     7
370
    25
100
AcDbLine
 10
60.343715
 20
464.808794
 30
0.0
 11
61.160212
 21
465.62529
 31
0.0
  0
LINE
  5
CB
330
76
100
AcDbEntity
  8
LC-004-005-----0
 62
     7
370
    25
100
AcDbLine
 10
59.745998
 20
467.039504
 30
0.0
 11
60.562495
 21
467.856
 31
0.0
  0
LINE
  5
CC
330
76
100
AcDbEntity
  8
LC-004-005-----0
 62
     7
370
    25
100
AcDbLine
 10
59.118018
 20
469.239951
 30
0.0
 11
59.869383
 21
469.991316
 31
0.0
  0
LINE
  5
CD
330
76
100
AcDbEntity
  8
LC-004-005-----0
 62
     7
370
    25
100
AcDbLine
 10
57.892147
 20
470.842507
 30
0.0
 11
58.60352
 21
471.55388
 31
0.0
  0
LINE
  5
CE
330
76
100
AcDbEntity
  8
LC-004-005-----0
 62
     7
370
    25
100
AcDbLine
 10
55.884858
 20
471.663645
 30
0.0
 11
56.737055
 21
472.515842
 31
0.0
  0
LINE
  5
CF
330
76
100
AcDbEntity
  8
LC-004-005-----0
 62
     7
370
    25
100
AcDbLine
 10
53.082294
 20
471.689508
 30
0.0
 11
54.082294
 21
472.689508
 31
0.0
  0
LINE
  5
D0
330
76
100
AcDbEntity
  8
LC-004-005-----0
 62
     7
370
    25
100
AcDbLine
 10
50.253867
 20
471.689508
 30
0.0
 11
51.253867
 21
472.689508
 31
0.0
  0
LINE
  5
D1
330
76
100
AcDbEntity
  8
LC-004-005-----0
 62
     7
370
    25
100
AcDbLine
 10
47.42544
 20
471.689508
 30
0.0
 11
48.42544
 21
472.689508
 31
0.0
  0
LINE
  5
D2
330
76
100
AcDbEntity
  8
LC-004-005-----0
 62
     7
370
    25
100
AcDbLine
 10
44.597012
 20
471.689508
 30
0.0
 11
45.597012
 21
472.689508
 31
0.0
  0
LINE
  5
D3
330
76
100
AcDbEntity
  8
LC-004-005-----0
 62
     7
370
    25
100
AcDbLine
 10
41.768585
 20
471.689508
 30
0.0
 11
42.768585
 21
472.689508
 31
0.0
  0
LINE
  5
D4
330
76
100
AcDbEntity
  8
LC-004-005-----0
 62
     7
370
    25
100
AcDbLine
 10
38.940158
 20
471.689508
 30
0.0
 11
39.940158
 21
472.689508
 31
0.0
  0
LINE
  5
D5
330
76
100
AcDbEntity
  8
LC-004-005-----0
 62
     7
370
    25
100
AcDbLine
 10
36.111731
 20
471.689508
 30
0.0
 11
37.111731
 21
472.689508
 31
0.0
  0
LINE
  5
D6
330
76
100
AcDbEntity
  8
LC-004-005-----0
 62
     7
370
    25
100
AcDbLine
 10
33.283304
 20
471.689508
 30
0.0
 11
34.283304
 21
472.689508
 31
0.0
  0
LINE
  5
D7
330
76
100
AcDbEntity
  8
LC-004-005-----0
 62
     7
370
    25
100
AcDbLine
 10
30.454877
 20
471.689508
 30
0.0
 11
31.454877
 21
472.689508
 31
0.0
  0
LINE
  5
D8
330
76
100
AcDbEntity
  8
LC-004-005-----0
 62
     7
370
    25
100
AcDbLine
 10
27.62645
 20
471.689508
 30
0.0
 11
28.62645
 21
472.689508
 31
0.0
  0
LINE
  5
D9
330
76
100
AcDbEntity
  8
LC-004-005-----0
 62
     7
370
    25
100
AcDbLine
 10
24.798023
 20
471.689508
 30
0.0
 11
25.798023
 21
472.689508
 31
0.0
  0
LINE
  5
DA
330
76
100
AcDbEntity
  8
LC-004-005-----0
 62
     7
370
    25
100
AcDbLine
 10
21.969595
 20
471.689508
 30
0.0
 11
22.969595
 21
472.689508
 31
0.0
  0
LINE
  5
DB
330
76
100
AcDbEntity
  8
LC-004-005-----0
 62
     7
370
    25
100
AcDbLine
 10
19.141168
 20
471.689508
 30
0.0
 11
20.141168
 21
472.689508
 31
0.0
  0
LINE
  5
DC
330
76
100
AcDbEntity
  8
LC-004-005-----0
 62
     7
370
    25
100
AcDbLine
 10
16.312741
 20
471.689508
 30
0.0
 11
17.312741
 21
472.689508
 31
0.0
  0
LINE
  5
DD
330
76
100
AcDbEntity
  8
LC-004-005-----0
 62
     7
370
    25
100
AcDbLine
 10
13.484314
 20
471.689508
 30
0.0
 11
14.484314
 21
472.689508
 31
0.0
  0
LINE
  5
DE
330
76
100
AcDbEntity
  8
LC-004-005-----0
 62
     7
370
    25
100
AcDbLine
 10
10.655887
 20
471.689508
 30
0.0
 11
11.655887
 21
472.689508
 31
0.0
  0
LINE
  5
DF
330
76
100
AcDbEntity
  8
LC-004-005-----0
 62
     7
370
    25
100
AcDbLine
 10
7.82746
 20
471.689508
 30
0.0
 11
8.82746
 21
472.689508
 31
0.0
  0
LINE
  5
E0
330
76
100
AcDbEntity
  8
LC-004-005-----0
 62
     7
370
    25
100
AcDbLine
 10
4.999033
 20
471.689508
 30
0.0
 11
5.999033
 21
472.689508
 31
0.0
  0
LINE
  5
E1
330
76
100
AcDbEntity
  8
LC-004-005-----0
 62
     7
370
    25
100
AcDbLine
 10
2.269001
 20
471.787904
 30
0.0
 11
3.170606
 21
472.689508
 31
0.0
  0
ENDBLK
  5
78
330
76
100
AcDbEntity
  8
0
100
AcDbBlockEnd
  0
BLOCK
  5
F0
330
EF
100
AcDbEntity
  8
0
100
AcDbBlockBegin
  2
*X22
 70
     1
 71
     0
 10
0.0
 20
0.0
 30
0.0
  3
*X22
  1

  4
*X2
  0
LINE
  5
F2
330
EF
100
AcDbEntity
  8
LC-004-005-----0
 62
     7
370
    25
100
AcDbLine
 10
286.634177
 20
252.693052
 30
0.0
 11
287.334177
 21
253.393052
 31
0.0
  0
LINE
  5
F3
330
EF
100
AcDbEntity
  8
LC-004-005-----0
 62
     7
370
    25
100
AcDbLine
 10
297.39264
 20
263.451515
 30
0.0
 11
298.09264
 21
264.151515
 31
0.0
  0
LINE
  5
F4
330
EF
100
AcDbEntity
  8
LC-004-005-----0
 62
     7
370
    25
100
AcDbLine
 10
297.39264
 20
271.936796
 30
0.0
 11
298.09264
 21
272.636796
 31
0.0
  0
LINE
  5
F5
330
EF
100
AcDbEntity
  8
LC-004-005-----0
 62
     7
370
    25
100
AcDbLine
 10
297.39264
 20
280.422078
 30
0.0
 11
298.09264
 21
281.122078
 31
0.0
  0
LINE
  5
F6
330
EF
100
AcDbEntity
  8
LC-004-005-----0
 62
     7
370
    25
100
AcDbLine
 10
329.663614
 20
312.693052
 30
0.0
 11
330.363614
 21
313.393052
 31
0.0
  0
LINE
  5
F7
330
EF
100
AcDbEntity
  8
LC-004-005-----0
 62
     7
370
    25
100
AcDbLine
 10
297.39264
 20
288.907359
 30
0.0
 11
298.09264
 21
289.607359
 31
0.0
  0
LINE
  5
F8
330
EF
100
AcDbEntity
  8
LC-004-005-----0
 62
     7
370
    25
100
AcDbLine
 10
321.178333
 20
312.693052
 30
0.0
 11
321.878333
 21
313.393052
 31
0.0
  0
LINE
  5
F9
330
EF
100
AcDbEntity
  8
LC-004-005-----0
 62
     7
370
    25
100
AcDbLine
 10
297.39264
 20
297.39264
 30
0.0
 11
298.09264
 21
298.09264
 31
0.0
  0
LINE
  5
FA
330
EF
100
AcDbEntity
  8
LC-004-005-----0
 62
     7
370
    25
100
AcDbLine
 10
312.693052
 20
312.693052
 30
0.0
 11
313.393052
 21
313.393052
 31
0.0
  0
LINE
  5
FB
330
EF
100
AcDbEntity
  8
LC-004-005-----0
 62
     7
370
    25
100
AcDbLine
 10
297.39264
 20
305.877922
 30
0.0
 11
298.09264
 21
306.577922
 31
0.0
  0
LINE
  5
FC
330
EF
100
AcDbEntity
  8
LC-004-005-----0
 62
     7
370
    25
100
AcDbLine
 10
304.20777
 20
312.693052
 30
0.0
 11
304.90777
 21
313.393052
 31
0.0
  0
ENDBLK
  5
F1
330
EF
100
AcDbEntity
  8
0
100
AcDbBlockEnd
  0
BLOCK
  5
FF
330
FE
100
AcDbEntity
  8
0
100
AcDbBlockBegin
  2
*X33
 70
     1
 71
     0
 10
0.0
 20
0.0
 30
0.0
  3
*X33
  1

  4
*X3
  0
LINE
  5
101
330
FE
100
AcDbEntity
  8
LC-004-005-----0
 62
     7
370
    25
100
AcDbLine
 10
150.869675
 20
252.693052
 30
0.0
 11
151.569675
 21
253.393052
 31
0.0
  0
LINE
  5
102
330
FE
100
AcDbEntity
  8
LC-004-005-----0
 62
     7
370
    25
100
AcDbLine
 10
143.764386
 20
254.073044
 30
0.0
 11
144.261819
 21
254.570477
 31
0.0
  0
LINE
  5
103
330
FE
100
AcDbEntity
  8
LC-004-005-----0
 62
     7
370
    25
100
AcDbLine
 10
141.59264
 20
260.38658
 30
0.0
 11
142.29264
 21
261.08658
 31
0.0
  0
LINE
  5
104
330
FE
100
AcDbEntity
  8
LC-004-005-----0
 62
     7
370
    25
100
AcDbLine
 10
141.59264
 20
268.871861
 30
0.0
 11
142.29264
 21
269.571861
 31
0.0
  0
LINE
  5
105
330
FE
100
AcDbEntity
  8
LC-004-005-----0
 62
     7
370
    25
100
AcDbLine
 10
141.59264
 20
277.357142
 30
0.0
 11
142.29264
 21
278.057142
 31
0.0
  0
LINE
  5
106
330
FE
100
AcDbEntity
  8
LC-004-005-----0
 62
     7
370
    25
100
AcDbLine
 10
141.59264
 20
285.842424
 30
0.0
 11
142.29264
 21
286.542424
 31
0.0
  0
LINE
  5
107
330
FE
100
AcDbEntity
  8
LC-004-005-----0
 62
     7
370
    25
100
AcDbLine
 10
141.59264
 20
294.327705
 30
0.0
 11
142.29264
 21
295.027705
 31
0.0
  0
LINE
  5
108
330
FE
100
AcDbEntity
  8
LC-004-005-----0
 62
     7
370
    25
100
AcDbLine
 10
141.59264
 20
302.812986
 30
0.0
 11
142.29264
 21
303.512986
 31
0.0
  0
LINE
  5
109
330
FE
100
AcDbEntity
  8
LC-004-005-----0
 62
     7
370
    25
100
AcDbLine
 10
140.756103
 20
310.46173
 30
0.0
 11
141.259748
 21
310.965376
 31
0.0
  0
LINE
  5
10A
330
FE
100
AcDbEntity
  8
LC-004-005-----0
 62
     7
370
    25
100
AcDbLine
 10
134.502143
 20
312.693052
 30
0.0
 11
135.202143
 21
313.393052
 31
0.0
  0
LINE
  5
10B
330
FE
100
AcDbEntity
  8
LC-004-005-----0
 62
     7
370
    25
100
AcDbLine
 10
126.016862
 20
312.693052
 30
0.0
 11
126.716862
 21
313.393052
 31
0.0
  0
LINE
  5
10C
330
FE
100
AcDbEntity
  8
LC-004-005-----0
 62
     7
370
    25
100
AcDbLine
 10
117.53158
 20
312.693052
 30
0.0
 11
118.23158
 21
313.393052
 31
0.0
  0
LINE
  5
10D
330
FE
100
AcDbEntity
  8
LC-004-005-----0
 62
     7
370
    25
100
AcDbLine
 10
109.046299
 20
312.693052
 30
0.0
 11
109.746299
 21
313.393052
 31
0.0
  0
LINE
  5
10E
330
FE
100
AcDbEntity
  8
LC-004-005-----0
 62
     7
370
    25
100
AcDbLine
 10
101.356746
 20
313.488781
 30
0.0
 11
101.872066
 21
314.004101
 31
0.0
  0
ENDBLK
  5
100
330
FE
100
AcDbEntity
  8
0
100
AcDbBlockEnd
  0
BLOCK
  5
122
330
121
100
AcDbEntity
  8
0
100
AcDbBlockBegin
  2
*X44
 70
     1
 71
     0
 10
0.0
 20
0.0
 30
0.0
  3
*X44
  1

  4
*X4
  0
LINE
  5
124
330
121
100
AcDbEntity
  8
LC-004-005-----0
 62
     7
370
    25
100
AcDbLine
 10
353.159681
 20
322.046983
 30
0.0
 11
353.583945
 21
322.471247
 31
0.0
  0
LINE
  5
125
330
121
100
AcDbEntity
  8
LC-004-005-----0
 62
     7
370
    25
100
AcDbLine
 10
349.295978
 20
321.011707
 30
0.0
 11
349.720242
 21
321.435971
 31
0.0
  0
LINE
  5
126
330
121
100
AcDbEntity
  8
LC-004-005-----0
 62
     7
370
    25
100
AcDbLine
 10
345.432274
 20
319.97643
 30
0.0
 11
345.856539
 21
320.400694
 31
0.0
  0
LINE
  5
127
330
121
100
AcDbEntity
  8
LC-004-005-----0
 62
     7
370
    25
100
AcDbLine
 10
336.070716
 20
313.443299
 30
0.0
 11
336.443065
 21
313.815648
 31
0.0
  0
LINE
  5
128
330
121
100
AcDbEntity
  8
LC-004-005-----0
 62
     7
370
    25
100
AcDbLine
 10
340.220044
 20
317.592627
 30
0.0
 11
340.592393
 21
317.964976
 31
0.0
  0
LINE
  5
129
330
121
100
AcDbEntity
  8
LC-004-005-----0
 62
     7
370
    25
100
AcDbLine
 10
341.568571
 20
318.941154
 30
0.0
 11
341.992835
 21
319.365418
 31
0.0
  0
LINE
  5
12A
330
121
100
AcDbEntity
  8
LC-004-005-----0
 62
     7
370
    25
100
AcDbLine
 10
333.192042
 20
313.393052
 30
0.0
 11
333.492042
 21
313.693052
 31
0.0
  0
LINE
  5
12B
330
121
100
AcDbEntity
  8
LC-004-005-----0
 62
     7
370
    25
100
AcDbLine
 10
106.917872
 20
313.393052
 30
0.0
 11
107.217872
 21
313.693052
 31
0.0
  0
LINE
  5
12C
330
121
100
AcDbEntity
  8
LC-004-005-----0
 62
     7
370
    25
100
AcDbLine
 10
104.095223
 20
313.39883
 30
0.0
 11
104.389445
 21
313.693052
 31
0.0
  0
LINE
  5
12D
330
121
100
AcDbEntity
  8
LC-004-005-----0
 62
     7
370
    25
100
AcDbLine
 10
101.872066
 20
314.004101
 30
0.0
 11
102.094791
 21
314.226826
 31
0.0
  0
LINE
  5
12E
330
121
100
AcDbEntity
  8
LC-004-005-----0
 62
     7
370
    25
100
AcDbLine
 10
100.302383
 20
315.262845
 30
0.0
 11
100.515264
 21
315.475725
 31
0.0
  0
LINE
  5
12F
330
121
100
AcDbEntity
  8
LC-004-005-----0
 62
     7
370
    25
100
AcDbLine
 10
99.293354
 20
317.082243
 30
0.0
 11
99.53403
 21
317.322918
 31
0.0
  0
LINE
  5
130
330
121
100
AcDbEntity
  8
LC-004-005-----0
 62
     7
370
    25
100
AcDbLine
 10
98.280067
 20
318.897383
 30
0.0
 11
98.525016
 21
319.142332
 31
0.0
  0
LINE
  5
131
330
121
100
AcDbEntity
  8
LC-004-005-----0
 62
     7
370
    25
100
AcDbLine
 10
96.049357
 20
319.4951
 30
0.0
 11
96.294306
 21
319.740049
 31
0.0
  0
LINE
  5
132
330
121
100
AcDbEntity
  8
LC-004-005-----0
 62
     7
370
    25
100
AcDbLine
 10
93.818647
 20
320.092817
 30
0.0
 11
94.063596
 21
320.337766
 31
0.0
  0
LINE
  5
133
330
121
100
AcDbEntity
  8
LC-004-005-----0
 62
     7
370
    25
100
AcDbLine
 10
91.587937
 20
320.690534
 30
0.0
 11
91.832885
 21
320.935483
 31
0.0
  0
LINE
  5
134
330
121
100
AcDbEntity
  8
LC-004-005-----0
 62
     7
370
    25
100
AcDbLine
 10
89.357226
 20
321.288251
 30
0.0
 11
89.602175
 21
321.5332
 31
0.0
  0
LINE
  5
135
330
121
100
AcDbEntity
  8
LC-004-005-----0
 62
     7
370
    25
100
AcDbLine
 10
87.126516
 20
321.885968
 30
0.0
 11
87.371465
 21
322.130917
 31
0.0
  0
LINE
  5
136
330
121
100
AcDbEntity
  8
LC-004-005-----0
 62
     7
370
    25
100
AcDbLine
 10
84.895806
 20
322.483685
 30
0.0
 11
85.140755
 21
322.728634
 31
0.0
  0
ENDBLK
  5
123
330
121
100
AcDbEntity
  8
0
100
AcDbBlockEnd
  0
BLOCK
  5
13F
330
13E
100
AcDbEntity
  8
0
100
AcDbBlockBegin
  2
*X55
 70
     1
 71
     0
 10
0.0
 20
0.0
 30
0.0
  3
*X55
  1

  4
*X5
  0
LINE
  5
141
330
13E
100
AcDbEntity
  8
LC-004-005-----0
 62
     7
370
    25
100
AcDbLine
 10
332.373401
 20
414.33136
 30
0.0
 11
328.784492
 21
417.920268
 31
0.0
  0
LINE
  5
142
330
13E
100
AcDbEntity
  8
LC-004-005-----0
 62
     7
370
    25
100
AcDbLine
 10
324.34264
 20
422.362121
 30
0.0
 11
323.015253
 21
423.689508
 31
0.0
  0
LINE
  5
143
330
13E
100
AcDbEntity
  8
LC-004-005-----0
 62
     7
370
    25
100
AcDbLine
 10
332.39264
 20
411.483693
 30
0.0
 11
325.936826
 21
417.939508
 31
0.0
  0
LINE
  5
144
330
13E
100
AcDbEntity
  8
LC-004-005-----0
 62
     7
370
    25
100
AcDbLine
 10
324.34264
 20
419.533693
 30
0.0
 11
320.34264
 21
423.533693
 31
0.0
  0
LINE
  5
145
330
13E
100
AcDbEntity
  8
LC-004-005-----0
 62
     7
370
    25
100
AcDbLine
 10
332.39264
 20
408.655266
 30
0.0
 11
320.34264
 21
420.705266
 31
0.0
  0
LINE
  5
146
330
13E
100
AcDbEntity
  8
LC-004-005-----0
 62
     7
370
    25
100
AcDbLine
 10
332.39264
 20
405.826839
 30
0.0
 11
328.39264
 21
409.826839
 31
0.0
  0
LINE
  5
147
330
13E
100
AcDbEntity
  8
LC-004-005-----0
 62
     7
370
    25
100
AcDbLine
 10
324.529971
 20
413.689508
 30
0.0
 11
320.34264
 21
417.876839
 31
0.0
  0
LINE
  5
148
330
13E
100
AcDbEntity
  8
LC-004-005-----0
 62
     7
370
    25
100
AcDbLine
 10
332.39264
 20
402.998412
 30
0.0
 11
328.39264
 21
406.998412
 31
0.0
  0
LINE
  5
149
330
13E
100
AcDbEntity
  8
LC-004-005-----0
 62
     7
370
    25
100
AcDbLine
 10
321.701544
 20
413.689508
 30
0.0
 11
320.34264
 21
415.048412
 31
0.0
  0
LINE
  5
14A
330
13E
100
AcDbEntity
  8
LC-004-005-----0
 62
     7
370
    25
100
AcDbLine
 10
332.39264
 20
400.169985
 30
0.0
 11
328.39264
 21
404.169985
 31
0.0
  0
LINE
  5
14B
330
13E
100
AcDbEntity
  8
LC-004-005-----0
 62
     7
370
    25
100
AcDbLine
 10
332.353425
 20
397.380773
 30
0.0
 11
328.39264
 21
401.341558
 31
0.0
  0
LINE
  5
14C
330
13E
100
AcDbEntity
  8
LC-004-005-----0
 62
     7
370
    25
100
AcDbLine
 10
331.493299
 20
395.412472
 30
0.0
 11
327.570017
 21
399.335754
 31
0.0
  0
LINE
  5
14D
330
13E
100
AcDbEntity
  8
LC-004-005-----0
 62
     7
370
    25
100
AcDbLine
 10
329.859263
 20
394.218081
 30
0.0
 11
325.387836
 21
398.689508
 31
0.0
  0
LINE
  5
14E
330
13E
100
AcDbEntity
  8
LC-004-005-----0
 62
     7
370
    25
100
AcDbLine
 10
327.309409
 20
393.939508
 30
0.0
 11
322.559409
 21
398.689508
 31
0.0
  0
LINE
  5
14F
330
13E
100
AcDbEntity
  8
LC-004-005-----0
 62
     7
370
    25
100
AcDbLine
 10
324.708095
 20
393.712394
 30
0.0
 11
320.34264
 21
398.077849
 31
0.0
  0
LINE
  5
150
330
13E
100
AcDbEntity
  8
LC-004-005-----0
 62
     7
370
    25
100
AcDbLine
 10
324.34264
 20
391.249422
 30
0.0
 11
320.34264
 21
395.249422
 31
0.0
  0
LINE
  5
151
330
13E
100
AcDbEntity
  8
LC-004-005-----0
 62
     7
370
    25
100
AcDbLine
 10
324.34264
 20
388.420995
 30
0.0
 11
320.34264
 21
392.420995
 31
0.0
  0
LINE
  5
152
330
13E
100
AcDbEntity
  8
LC-004-005-----0
 62
     7
370
    25
100
AcDbLine
 10
324.34264
 20
385.592568
 30
0.0
 11
320.34264
 21
389.592568
 31
0.0
  0
LINE
  5
153
330
13E
100
AcDbEntity
  8
LC-004-005-----0
 62
     7
370
    25
100
AcDbLine
 10
324.34264
 20
382.764141
 30
0.0
 11
320.34264
 21
386.764141
 31
0.0
  0
LINE
  5
154
330
13E
100
AcDbEntity
  8
LC-004-005-----0
 62
     7
370
    25
100
AcDbLine
 10
324.34264
 20
379.935714
 30
0.0
 11
320.34264
 21
383.935714
 31
0.0
  0
LINE
  5
155
330
13E
100
AcDbEntity
  8
LC-004-005-----0
 62
     7
370
    25
100
AcDbLine
 10
324.34264
 20
377.107287
 30
0.0
 11
320.34264
 21
381.107287
 31
0.0
  0
LINE
  5
156
330
13E
100
AcDbEntity
  8
LC-004-005-----0
 62
     7
370
    25
100
AcDbLine
 10
324.34264
 20
374.278859
 30
0.0
 11
320.34264
 21
378.278859
 31
0.0
  0
LINE
  5
157
330
13E
100
AcDbEntity
  8
LC-004-005-----0
 62
     7
370
    25
100
AcDbLine
 10
324.34264
 20
371.450432
 30
0.0
 11
320.34264
 21
375.450432
 31
0.0
  0
LINE
  5
158
330
13E
100
AcDbEntity
  8
LC-004-005-----0
 62
     7
370
    25
100
AcDbLine
 10
324.34264
 20
368.622005
 30
0.0
 11
320.34264
 21
372.622005
 31
0.0
  0
LINE
  5
159
330
13E
100
AcDbEntity
  8
LC-004-005-----0
 62
     7
370
    25
100
AcDbLine
 10
324.34264
 20
365.793578
 30
0.0
 11
320.34264
 21
369.793578
 31
0.0
  0
LINE
  5
15A
330
13E
100
AcDbEntity
  8
LC-004-005-----0
 62
     7
370
    25
100
AcDbLine
 10
324.34264
 20
362.965151
 30
0.0
 11
320.34264
 21
366.965151
 31
0.0
  0
LINE
  5
15B
330
13E
100
AcDbEntity
  8
LC-004-005-----0
 62
     7
370
    25
100
AcDbLine
 10
324.34264
 20
360.136724
 30
0.0
 11
320.34264
 21
364.136724
 31
0.0
  0
LINE
  5
15C
330
13E
100
AcDbEntity
  8
LC-004-005-----0
 62
     7
370
    25
100
AcDbLine
 10
324.34264
 20
357.308297
 30
0.0
 11
320.34264
 21
361.308297
 31
0.0
  0
LINE
  5
15D
330
13E
100
AcDbEntity
  8
LC-004-005-----0
 62
     7
370
    25
100
AcDbLine
 10
324.34264
 20
354.47987
 30
0.0
 11
320.34264
 21
358.47987
 31
0.0
  0
LINE
  5
15E
330
13E
100
AcDbEntity
  8
LC-004-005-----0
 62
     7
370
    25
100
AcDbLine
 10
324.34264
 20
351.651442
 30
0.0
 11
320.34264
 21
355.651442
 31
0.0
  0
LINE
  5
15F
330
13E
100
AcDbEntity
  8
LC-004-005-----0
 62
     7
370
    25
100
AcDbLine
 10
324.34264
 20
348.823015
 30
0.0
 11
320.34264
 21
352.823015
 31
0.0
  0
LINE
  5
160
330
13E
100
AcDbEntity
  8
LC-004-005-----0
 62
     7
370
    25
100
AcDbLine
 10
324.34264
 20
345.994588
 30
0.0
 11
320.34264
 21
349.994588
 31
0.0
  0
LINE
  5
161
330
13E
100
AcDbEntity
  8
LC-004-005-----0
 62
     7
370
    25
100
AcDbLine
 10
324.34264
 20
343.166161
 30
0.0
 11
320.34264
 21
347.166161
 31
0.0
  0
LINE
  5
162
330
13E
100
AcDbEntity
  8
LC-004-005-----0
 62
     7
370
    25
100
AcDbLine
 10
324.34264
 20
340.337734
 30
0.0
 11
320.34264
 21
344.337734
 31
0.0
  0
LINE
  5
163
330
13E
100
AcDbEntity
  8
LC-004-005-----0
 62
     7
370
    25
100
AcDbLine
 10
324.34264
 20
337.509307
 30
0.0
 11
320.34264
 21
341.509307
 31
0.0
  0
LINE
  5
164
330
13E
100
AcDbEntity
  8
LC-004-005-----0
 62
     7
370
    25
100
AcDbLine
 10
324.34264
 20
334.68088
 30
0.0
 11
320.34264
 21
338.68088
 31
0.0
  0
LINE
  5
165
330
13E
100
AcDbEntity
  8
LC-004-005-----0
 62
     7
370
    25
100
AcDbLine
 10
324.34264
 20
331.852453
 30
0.0
 11
320.34264
 21
335.852453
 31
0.0
  0
LINE
  5
166
330
13E
100
AcDbEntity
  8
LC-004-005-----0
 62
     7
370
    25
100
AcDbLine
 10
324.34264
 20
329.024025
 30
0.0
 11
320.34264
 21
333.024025
 31
0.0
  0
LINE
  5
167
330
13E
100
AcDbEntity
  8
LC-004-005-----0
 62
     7
370
    25
100
AcDbLine
 10
324.34264
 20
326.195598
 30
0.0
 11
320.34264
 21
330.195598
 31
0.0
  0
LINE
  5
168
330
13E
100
AcDbEntity
  8
LC-004-005-----0
 62
     7
370
    25
100
AcDbLine
 10
324.34264
 20
323.367171
 30
0.0
 11
320.34264
 21
327.367171
 31
0.0
  0
LINE
  5
169
330
13E
100
AcDbEntity
  8
LC-004-005-----0
 62
     7
370
    25
100
AcDbLine
 10
324.34264
 20
320.538744
 30
0.0
 11
320.199494
 21
324.68189
 31
0.0
  0
LINE
  5
16A
330
13E
100
AcDbEntity
  8
LC-004-005-----0
 62
     7
370
    25
100
AcDbLine
 10
324.34264
 20
317.710317
 30
0.0
 11
319.601777
 21
322.45118
 31
0.0
  0
LINE
  5
16B
330
13E
100
AcDbEntity
  8
LC-004-005-----0
 62
     7
370
    25
100
AcDbLine
 10
324.34264
 20
314.88189
 30
0.0
 11
319.00406
 21
320.22047
 31
0.0
  0
LINE
  5
16C
330
13E
100
AcDbEntity
  8
LC-004-005-----0
 62
     7
370
    25
100
AcDbLine
 10
321.706595
 20
314.689508
 30
0.0
 11
318.406343
 21
317.98976
 31
0.0
  0
LINE
  5
16D
330
13E
100
AcDbEntity
  8
LC-004-005-----0
 62
     7
370
    25
100
AcDbLine
 10
318.878168
 20
314.689508
 30
0.0
 11
317.808626
 21
315.759049
 31
0.0
  0
ENDBLK
  5
140
330
13E
100
AcDbEntity
  8
0
100
AcDbBlockEnd
  0
BLOCK
  5
170
330
16F
100
AcDbEntity
  8
0
100
AcDbBlockBegin
  2
*X66
 70
     1
 71
     0
 10
0.0
 20
0.0
 30
0.0
  3
*X66
  1

  4
*X6
  0
LINE
  5
172
330
16F
100
AcDbEntity
  8
LC-004-005-----0
 62
     7
370
    25
100
AcDbLine
 10
119.34264
 20
420.88694
 30
0.0
 11
116.540073
 21
423.689508
 31
0.0
  0
LINE
  5
173
330
16F
100
AcDbEntity
  8
LC-004-005-----0
 62
     7
370
    25
100
AcDbLine
 10
119.34264
 20
418.058513
 30
0.0
 11
115.34264
 21
422.058513
 31
0.0
  0
LINE
  5
174
330
16F
100
AcDbEntity
  8
LC-004-005-----0
 62
     7
370
    25
100
AcDbLine
 10
119.34264
 20
415.230086
 30
0.0
 11
115.34264
 21
419.230086
 31
0.0
  0
LINE
  5
175
330
16F
100
AcDbEntity
  8
LC-004-005-----0
 62
     7
370
    25
100
AcDbLine
 10
118.054791
 20
413.689508
 30
0.0
 11
113.804791
 21
417.939508
 31
0.0
  0
LINE
  5
176
330
16F
100
AcDbEntity
  8
LC-004-005-----0
 62
     7
370
    25
100
AcDbLine
 10
115.226364
 20
413.689508
 30
0.0
 11
110.987983
 21
417.927889
 31
0.0
  0
LINE
  5
177
330
16F
100
AcDbEntity
  8
LC-004-005-----0
 62
     7
370
    25
100
AcDbLine
 10
112.833151
 20
413.254294
 30
0.0
 11
108.924378
 21
417.163067
 31
0.0
  0
LINE
  5
178
330
16F
100
AcDbEntity
  8
LC-004-005-----0
 62
     7
370
    25
100
AcDbLine
 10
111.761666
 20
411.497352
 30
0.0
 11
107.655285
 21
415.603733
 31
0.0
  0
LINE
  5
179
330
16F
100
AcDbEntity
  8
LC-004-005-----0
 62
     7
370
    25
100
AcDbLine
 10
111.74264
 20
408.687951
 30
0.0
 11
107.29264
 21
413.137951
 31
0.0
  0
LINE
  5
17A
330
16F
100
AcDbEntity
  8
LC-004-005-----0
 62
     7
370
    25
100
AcDbLine
 10
119.34264
 20
398.259523
 30
0.0
 11
118.912656
 21
398.689508
 31
0.0
  0
LINE
  5
17B
330
16F
100
AcDbEntity
  8
LC-004-005-----0
 62
     7
370
    25
100
AcDbLine
 10
111.74264
 20
405.859523
 30
0.0
 11
107.29264
 21
410.309523
 31
0.0
  0
LINE
  5
17C
330
16F
100
AcDbEntity
  8
LC-004-005-----0
 62
     7
370
    25
100
AcDbLine
 10
119.34264
 20
395.431096
 30
0.0
 11
116.084228
 21
398.689508
 31
0.0
  0
LINE
  5
17D
330
16F
100
AcDbEntity
  8
LC-004-005-----0
 62
     7
370
    25
100
AcDbLine
 10
111.74264
 20
403.031096
 30
0.0
 11
107.29264
 21
407.481096
 31
0.0
  0
LINE
  5
17E
330
16F
100
AcDbEntity
  8
LC-004-005-----0
 62
     7
370
    25
100
AcDbLine
 10
119.34264
 20
392.602669
 30
0.0
 11
112.791605
 21
399.153705
 31
0.0
  0
LINE
  5
17F
330
16F
100
AcDbEntity
  8
LC-004-005-----0
 62
     7
370
    25
100
AcDbLine
 10
112.206837
 20
399.738473
 30
0.0
 11
107.29264
 21
404.652669
 31
0.0
  0
LINE
  5
180
330
16F
100
AcDbEntity
  8
LC-004-005-----0
 62
     7
370
    25
100
AcDbLine
 10
119.34264
 20
389.774242
 30
0.0
 11
107.29264
 21
401.824242
 31
0.0
  0
LINE
  5
181
330
16F
100
AcDbEntity
  8
LC-004-005-----0
 62
     7
370
    25
100
AcDbLine
 10
119.34264
 20
386.945815
 30
0.0
 11
115.34264
 21
390.945815
 31
0.0
  0
LINE
  5
182
330
16F
100
AcDbEntity
  8
LC-004-005-----0
 62
     7
370
    25
100
AcDbLine
 10
112.348947
 20
393.939508
 30
0.0
 11
107.29264
 21
398.995815
 31
0.0
  0
LINE
  5
183
330
16F
100
AcDbEntity
  8
LC-004-005-----0
 62
     7
370
    25
100
AcDbLine
 10
119.34264
 20
384.117388
 30
0.0
 11
115.34264
 21
388.117388
 31
0.0
  0
LINE
  5
184
330
16F
100
AcDbEntity
  8
LC-004-005-----0
 62
     7
370
    25
100
AcDbLine
 10
119.34264
 20
381.288961
 30
0.0
 11
115.34264
 21
385.288961
 31
0.0
  0
LINE
  5
185
330
16F
100
AcDbEntity
  8
LC-004-005-----0
 62
     7
370
    25
100
AcDbLine
 10
119.34264
 20
378.460534
 30
0.0
 11
115.34264
 21
382.460534
 31
0.0
  0
LINE
  5
186
330
16F
100
AcDbEntity
  8
LC-004-005-----0
 62
     7
370
    25
100
AcDbLine
 10
119.34264
 20
375.632106
 30
0.0
 11
115.34264
 21
379.632106
 31
0.0
  0
LINE
  5
187
330
16F
100
AcDbEntity
  8
LC-004-005-----0
 62
     7
370
    25
100
AcDbLine
 10
119.34264
 20
372.803679
 30
0.0
 11
115.34264
 21
376.803679
 31
0.0
  0
LINE
  5
188
330
16F
100
AcDbEntity
  8
LC-004-005-----0
 62
     7
370
    25
100
AcDbLine
 10
119.34264
 20
369.975252
 30
0.0
 11
115.34264
 21
373.975252
 31
0.0
  0
LINE
  5
189
330
16F
100
AcDbEntity
  8
LC-004-005-----0
 62
     7
370
    25
100
AcDbLine
 10
119.34264
 20
367.146825
 30
0.0
 11
115.34264
 21
371.146825
 31
0.0
  0
LINE
  5
18A
330
16F
100
AcDbEntity
  8
LC-004-005-----0
 62
     7
370
    25
100
AcDbLine
 10
119.34264
 20
364.318398
 30
0.0
 11
115.34264
 21
368.318398
 31
0.0
  0
LINE
  5
18B
330
16F
100
AcDbEntity
  8
LC-004-005-----0
 62
     7
370
    25
100
AcDbLine
 10
119.34264
 20
361.489971
 30
0.0
 11
115.34264
 21
365.489971
 31
0.0
  0
LINE
  5
18C
330
16F
100
AcDbEntity
  8
LC-004-005-----0
 62
     7
370
    25
100
AcDbLine
 10
119.34264
 20
358.661544
 30
0.0
 11
115.34264
 21
362.661544
 31
0.0
  0
LINE
  5
18D
330
16F
100
AcDbEntity
  8
LC-004-005-----0
 62
     7
370
    25
100
AcDbLine
 10
119.34264
 20
355.833117
 30
0.0
 11
115.34264
 21
359.833117
 31
0.0
  0
LINE
  5
18E
330
16F
100
AcDbEntity
  8
LC-004-005-----0
 62
     7
370
    25
100
AcDbLine
 10
119.34264
 20
353.004689
 30
0.0
 11
115.34264
 21
357.004689
 31
0.0
  0
LINE
  5
18F
330
16F
100
AcDbEntity
  8
LC-004-005-----0
 62
     7
370
    25
100
AcDbLine
 10
119.34264
 20
350.176262
 30
0.0
 11
115.34264
 21
354.176262
 31
0.0
  0
LINE
  5
190
330
16F
100
AcDbEntity
  8
LC-004-005-----0
 62
     7
370
    25
100
AcDbLine
 10
119.34264
 20
347.347835
 30
0.0
 11
115.34264
 21
351.347835
 31
0.0
  0
LINE
  5
191
330
16F
100
AcDbEntity
  8
LC-004-005-----0
 62
     7
370
    25
100
AcDbLine
 10
119.34264
 20
344.519408
 30
0.0
 11
115.34264
 21
348.519408
 31
0.0
  0
LINE
  5
192
330
16F
100
AcDbEntity
  8
LC-004-005-----0
 62
     7
370
    25
100
AcDbLine
 10
119.34264
 20
341.690981
 30
0.0
 11
115.34264
 21
345.690981
 31
0.0
  0
LINE
  5
193
330
16F
100
AcDbEntity
  8
LC-004-005-----0
 62
     7
370
    25
100
AcDbLine
 10
119.34264
 20
338.862554
 30
0.0
 11
115.34264
 21
342.862554
 31
0.0
  0
LINE
  5
194
330
16F
100
AcDbEntity
  8
LC-004-005-----0
 62
     7
370
    25
100
AcDbLine
 10
119.34264
 20
336.034127
 30
0.0
 11
115.34264
 21
340.034127
 31
0.0
  0
LINE
  5
195
330
16F
100
AcDbEntity
  8
LC-004-005-----0
 62
     7
370
    25
100
AcDbLine
 10
119.34264
 20
333.2057
 30
0.0
 11
115.34264
 21
337.2057
 31
0.0
  0
LINE
  5
196
330
16F
100
AcDbEntity
  8
LC-004-005-----0
 62
     7
370
    25
100
AcDbLine
 10
119.34264
 20
330.377272
 30
0.0
 11
115.34264
 21
334.377272
 31
0.0
  0
LINE
  5
197
330
16F
100
AcDbEntity
  8
LC-004-005-----0
 62
     7
370
    25
100
AcDbLine
 10
119.34264
 20
327.548845
 30
0.0
 11
115.34264
 21
331.548845
 31
0.0
  0
LINE
  5
198
330
16F
100
AcDbEntity
  8
LC-004-005-----0
 62
     7
370
    25
100
AcDbLine
 10
119.524079
 20
324.538979
 30
0.0
 11
115.34264
 21
328.720418
 31
0.0
  0
LINE
  5
199
330
16F
100
AcDbEntity
  8
LC-004-005-----0
 62
     7
370
    25
100
AcDbLine
 10
120.559355
 20
320.675276
 30
0.0
 11
115.34264
 21
325.891991
 31
0.0
  0
LINE
  5
19A
330
16F
100
AcDbEntity
  8
LC-004-005-----0
 62
     7
370
    25
100
AcDbLine
 10
121.594632
 20
316.811573
 30
0.0
 11
115.34264
 21
323.063564
 31
0.0
  0
LINE
  5
19B
330
16F
100
AcDbEntity
  8
LC-004-005-----0
 62
     7
370
    25
100
AcDbLine
 10
120.888269
 20
314.689508
 30
0.0
 11
115.34264
 21
320.235137
 31
0.0
  0
LINE
  5
19C
330
16F
100
AcDbEntity
  8
LC-004-005-----0
 62
     7
370
    25
100
AcDbLine
 10
118.059842
 20
314.689508
 30
0.0
 11
115.34264
 21
317.40671
 31
0.0
  0
ENDBLK
  5
171
330
16F
100
AcDbEntity
  8
0
100
AcDbBlockEnd
  0
BLOCK
  5
1BA
330
1B9
100
AcDbEntity
  8
0
100
AcDbBlockBegin
  2
*X77
 70
     1
 71
     0
 10
0.0
 20
0.0
 30
0.0
  3
*X77
  1

  4
*X7
  0
LINE
  5
1BC
330
1B9
100
AcDbEntity
  8
LC-004-005-----0
 62
     7
370
    25
100
AcDbLine
 10
287.334177
 20
253.393052
 30
0.0
 11
297.39264
 21
263.451515
 31
0.0
  0
LINE
  5
1BD
330
1B9
100
AcDbEntity
  8
LC-004-005-----0
 62
     7
370
    25
100
AcDbLine
 10
284.84264
 20
259.386796
 30
0.0
 11
297.39264
 21
271.936796
 31
0.0
  0
LINE
  5
1BE
330
1B9
100
AcDbEntity
  8
LC-004-005-----0
 62
     7
370
    25
100
AcDbLine
 10
284.84264
 20
267.872078
 30
0.0
 11
297.39264
 21
280.422078
 31
0.0
  0
LINE
  5
1BF
330
1B9
100
AcDbEntity
  8
LC-004-005-----0
 62
     7
370
    25
100
AcDbLine
 10
330.363614
 20
313.393052
 30
0.0
 11
335.663614
 21
318.693052
 31
0.0
  0
LINE
  5
1C0
330
1B9
100
AcDbEntity
  8
LC-004-005-----0
 62
     7
370
    25
100
AcDbLine
 10
284.84264
 20
276.357359
 30
0.0
 11
297.39264
 21
288.907359
 31
0.0
  0
LINE
  5
1C1
330
1B9
100
AcDbEntity
  8
LC-004-005-----0
 62
     7
370
    25
100
AcDbLine
 10
321.878333
 20
313.393052
 30
0.0
 11
323.17479
 21
314.689508
 31
0.0
  0
LINE
  5
1C2
330
1B9
100
AcDbEntity
  8
LC-004-005-----0
 62
     7
370
    25
100
AcDbLine
 10
324.34264
 20
315.857359
 30
0.0
 11
327.178333
 21
318.693052
 31
0.0
  0
LINE
  5
1C3
330
1B9
100
AcDbEntity
  8
LC-004-005-----0
 62
     7
370
    25
100
AcDbLine
 10
284.84264
 20
284.84264
 30
0.0
 11
297.39264
 21
297.39264
 31
0.0
  0
LINE
  5
1C4
330
1B9
100
AcDbEntity
  8
LC-004-005-----0
 62
     7
370
    25
100
AcDbLine
 10
313.393052
 20
313.393052
 30
0.0
 11
318.558824
 21
318.558824
 31
0.0
  0
LINE
  5
1C5
330
1B9
100
AcDbEntity
  8
LC-004-005-----0
 62
     7
370
    25
100
AcDbLine
 10
284.84264
 20
293.327922
 30
0.0
 11
297.39264
 21
305.877922
 31
0.0
  0
LINE
  5
1C6
330
1B9
100
AcDbEntity
  8
LC-004-005-----0
 62
     7
370
    25
100
AcDbLine
 10
304.90777
 20
313.393052
 30
0.0
 11
310.20777
 21
318.693052
 31
0.0
  0
LINE
  5
1C7
330
1B9
100
AcDbEntity
  8
LC-004-005-----0
 62
     7
370
    25
100
AcDbLine
 10
284.84264
 20
301.813203
 30
0.0
 11
301.722489
 21
318.693052
 31
0.0
  0
LINE
  5
1C8
330
1B9
100
AcDbEntity
  8
LC-004-005-----0
 62
     7
370
    25
100
AcDbLine
 10
284.84264
 20
310.298484
 30
0.0
 11
293.237208
 21
318.693052
 31
0.0
  0
LINE
  5
1C9
330
1B9
100
AcDbEntity
  8
LC-004-005-----0
 62
     7
370
    25
100
AcDbLine
 10
151.569675
 20
253.393052
 30
0.0
 11
154.84264
 21
256.666017
 31
0.0
  0
LINE
  5
1CA
330
1B9
100
AcDbEntity
  8
LC-004-005-----0
 62
     7
370
    25
100
AcDbLine
 10
144.261819
 20
254.570477
 30
0.0
 11
154.84264
 21
265.151298
 31
0.0
  0
LINE
  5
1CB
330
1B9
100
AcDbEntity
  8
LC-004-005-----0
 62
     7
370
    25
100
AcDbLine
 10
142.29264
 20
261.08658
 30
0.0
 11
154.84264
 21
273.63658
 31
0.0
  0
LINE
  5
1CC
330
1B9
100
AcDbEntity
  8
LC-004-005-----0
 62
     7
370
    25
100
AcDbLine
 10
142.29264
 20
269.571861
 30
0.0
 11
154.84264
 21
282.121861
 31
0.0
  0
LINE
  5
1CD
330
1B9
100
AcDbEntity
  8
LC-004-005-----0
 62
     7
370
    25
100
AcDbLine
 10
142.29264
 20
278.057142
 30
0.0
 11
154.84264
 21
290.607142
 31
0.0
  0
LINE
  5
1CE
330
1B9
100
AcDbEntity
  8
LC-004-005-----0
 62
     7
370
    25
100
AcDbLine
 10
142.29264
 20
286.542424
 30
0.0
 11
154.84264
 21
299.092424
 31
0.0
  0
LINE
  5
1CF
330
1B9
100
AcDbEntity
  8
LC-004-005-----0
 62
     7
370
    25
100
AcDbLine
 10
142.29264
 20
295.027705
 30
0.0
 11
154.84264
 21
307.577705
 31
0.0
  0
LINE
  5
1D0
330
1B9
100
AcDbEntity
  8
LC-004-005-----0
 62
     7
370
    25
100
AcDbLine
 10
142.29264
 20
303.512986
 30
0.0
 11
154.84264
 21
316.062986
 31
0.0
  0
LINE
  5
1D1
330
1B9
100
AcDbEntity
  8
LC-004-005-----0
 62
     7
370
    25
100
AcDbLine
 10
141.259748
 20
310.965376
 30
0.0
 11
148.987424
 21
318.693052
 31
0.0
  0
LINE
  5
1D2
330
1B9
100
AcDbEntity
  8
LC-004-005-----0
 62
     7
370
    25
100
AcDbLine
 10
135.202143
 20
313.393052
 30
0.0
 11
140.502143
 21
318.693052
 31
0.0
  0
LINE
  5
1D3
330
1B9
100
AcDbEntity
  8
LC-004-005-----0
 62
     7
370
    25
100
AcDbLine
 10
126.716862
 20
313.393052
 30
0.0
 11
132.016862
 21
318.693052
 31
0.0
  0
LINE
  5
1D4
330
1B9
100
AcDbEntity
  8
LC-004-005-----0
 62
     7
370
    25
100
AcDbLine
 10
118.23158
 20
313.393052
 30
0.0
 11
119.528037
 21
314.689508
 31
0.0
  0
LINE
  5
1D5
330
1B9
100
AcDbEntity
  8
LC-004-005-----0
 62
     7
370
    25
100
AcDbLine
 10
121.606354
 20
316.767825
 30
0.0
 11
123.53158
 21
318.693052
 31
0.0
  0
LINE
  5
1D6
330
1B9
100
AcDbEntity
  8
LC-004-005-----0
 62
     7
370
    25
100
AcDbLine
 10
109.746299
 20
313.393052
 30
0.0
 11
115.046299
 21
318.693052
 31
0.0
  0
LINE
  5
1D7
330
1B9
100
AcDbEntity
  8
LC-004-005-----0
 62
     7
370
    25
100
AcDbLine
 10
102.094791
 20
314.226826
 30
0.0
 11
106.561017
 21
318.693052
 31
0.0
  0
LINE
  5
1D8
330
1B9
100
AcDbEntity
  8
LC-004-005-----0
 62
     7
370
    25
100
AcDbLine
 10
338.527801
 20
314.838865
 30
0.0
 11
334.673614
 21
318.693052
 31
0.0
  0
LINE
  5
1D9
330
1B9
100
AcDbEntity
  8
LC-004-005-----0
 62
     7
370
    25
100
AcDbLine
 10
331.488333
 20
313.393052
 30
0.0
 11
326.188333
 21
318.693052
 31
0.0
  0
LINE
  5
1DA
330
1B9
100
AcDbEntity
  8
LC-004-005-----0
 62
     7
370
    25
100
AcDbLine
 10
323.003051
 20
313.393052
 30
0.0
 11
321.706595
 21
314.689508
 31
0.0
  0
LINE
  5
1DB
330
1B9
100
AcDbEntity
  8
LC-004-005-----0
 62
     7
370
    25
100
AcDbLine
 10
318.406343
 20
317.98976
 30
0.0
 11
317.703051
 21
318.693052
 31
0.0
  0
LINE
  5
1DC
330
1B9
100
AcDbEntity
  8
LC-004-005-----0
 62
     7
370
    25
100
AcDbLine
 10
314.51777
 20
313.393052
 30
0.0
 11
309.21777
 21
318.693052
 31
0.0
  0
LINE
  5
1DD
330
1B9
100
AcDbEntity
  8
LC-004-005-----0
 62
     7
370
    25
100
AcDbLine
 10
306.032489
 20
313.393052
 30
0.0
 11
300.732489
 21
318.693052
 31
0.0
  0
LINE
  5
1DE
330
1B9
100
AcDbEntity
  8
LC-004-005-----0
 62
     7
370
    25
100
AcDbLine
 10
299.140156
 20
311.800103
 30
0.0
 11
292.247207
 21
318.693052
 31
0.0
  0
LINE
  5
1DF
330
1B9
100
AcDbEntity
  8
LC-004-005-----0
 62
     7
370
    25
100
AcDbLine
 10
297.39264
 20
305.062337
 30
0.0
 11
284.84264
 21
317.612337
 31
0.0
  0
LINE
  5
1E0
330
1B9
100
AcDbEntity
  8
LC-004-005-----0
 62
     7
370
    25
100
AcDbLine
 10
297.39264
 20
296.577056
 30
0.0
 11
284.84264
 21
309.127056
 31
0.0
  0
LINE
  5
1E1
330
1B9
100
AcDbEntity
  8
LC-004-005-----0
 62
     7
370
    25
100
AcDbLine
 10
297.39264
 20
288.091774
 30
0.0
 11
284.84264
 21
300.641774
 31
0.0
  0
LINE
  5
1E2
330
1B9
100
AcDbEntity
  8
LC-004-005-----0
 62
     7
370
    25
100
AcDbLine
 10
297.39264
 20
279.606493
 30
0.0
 11
284.84264
 21
292.156493
 31
0.0
  0
LINE
  5
1E3
330
1B9
100
AcDbEntity
  8
LC-004-005-----0
 62
     7
370
    25
100
AcDbLine
 10
297.39264
 20
271.121212
 30
0.0
 11
284.84264
 21
283.671212
 31
0.0
  0
LINE
  5
1E4
330
1B9
100
AcDbEntity
  8
LC-004-005-----0
 62
     7
370
    25
100
AcDbLine
 10
297.39264
 20
262.63593
 30
0.0
 11
284.84264
 21
275.18593
 31
0.0
  0
LINE
  5
1E5
330
1B9
100
AcDbEntity
  8
LC-004-005-----0
 62
     7
370
    25
100
AcDbLine
 10
296.199912
 20
255.343377
 30
0.0
 11
284.84264
 21
266.700649
 31
0.0
  0
LINE
  5
1E6
330
1B9
100
AcDbEntity
  8
LC-004-005-----0
 62
     7
370
    25
100
AcDbLine
 10
289.664956
 20
253.393052
 30
0.0
 11
284.84264
 21
258.215368
 31
0.0
  0
LINE
  5
1E7
330
1B9
100
AcDbEntity
  8
LC-004-005-----0
 62
     7
370
    25
100
AcDbLine
 10
154.84264
 20
311.847835
 30
0.0
 11
147.997424
 21
318.693052
 31
0.0
  0
LINE
  5
1E8
330
1B9
100
AcDbEntity
  8
LC-004-005-----0
 62
     7
370
    25
100
AcDbLine
 10
154.84264
 20
303.362554
 30
0.0
 11
139.512142
 21
318.693052
 31
0.0
  0
LINE
  5
1E9
330
1B9
100
AcDbEntity
  8
LC-004-005-----0
 62
     7
370
    25
100
AcDbLine
 10
154.84264
 20
294.877272
 30
0.0
 11
142.29264
 21
307.427272
 31
0.0
  0
LINE
  5
1EA
330
1B9
100
AcDbEntity
  8
LC-004-005-----0
 62
     7
370
    25
100
AcDbLine
 10
136.326861
 20
313.393052
 30
0.0
 11
131.026861
 21
318.693052
 31
0.0
  0
LINE
  5
1EB
330
1B9
100
AcDbEntity
  8
LC-004-005-----0
 62
     7
370
    25
100
AcDbLine
 10
154.84264
 20
286.391991
 30
0.0
 11
142.29264
 21
298.941991
 31
0.0
  0
LINE
  5
1EC
330
1B9
100
AcDbEntity
  8
LC-004-005-----0
 62
     7
370
    25
100
AcDbLine
 10
127.84158
 20
313.393052
 30
0.0
 11
122.54158
 21
318.693052
 31
0.0
  0
LINE
  5
1ED
330
1B9
100
AcDbEntity
  8
LC-004-005-----0
 62
     7
370
    25
100
AcDbLine
 10
154.84264
 20
277.90671
 30
0.0
 11
142.29264
 21
290.45671
 31
0.0
  0
LINE
  5
1EE
330
1B9
100
AcDbEntity
  8
LC-004-005-----0
 62
     7
370
    25
100
AcDbLine
 10
119.356298
 20
313.393052
 30
0.0
 11
118.059842
 21
314.689508
 31
0.0
  0
LINE
  5
1EF
330
1B9
100
AcDbEntity
  8
LC-004-005-----0
 62
     7
370
    25
100
AcDbLine
 10
115.34264
 20
317.40671
 30
0.0
 11
114.056298
 21
318.693052
 31
0.0
  0
LINE
  5
1F0
330
1B9
100
AcDbEntity
  8
LC-004-005-----0
 62
     7
370
    25
100
AcDbLine
 10
154.84264
 20
269.421428
 30
0.0
 11
142.29264
 21
281.971428
 31
0.0
  0
LINE
  5
1F1
330
1B9
100
AcDbEntity
  8
LC-004-005-----0
 62
     7
370
    25
100
AcDbLine
 10
110.871017
 20
313.393052
 30
0.0
 11
105.571017
 21
318.693052
 31
0.0
  0
LINE
  5
1F2
330
1B9
100
AcDbEntity
  8
LC-004-005-----0
 62
     7
370
    25
100
AcDbLine
 10
154.84264
 20
260.936147
 30
0.0
 11
142.29264
 21
273.486147
 31
0.0
  0
LINE
  5
1F3
330
1B9
100
AcDbEntity
  8
LC-004-005-----0
 62
     7
370
    25
100
AcDbLine
 10
153.900454
 20
253.393052
 30
0.0
 11
142.29264
 21
265.000866
 31
0.0
  0
LINE
  5
1F4
330
1B9
100
AcDbEntity
  8
LC-004-005-----0
 62
     7
370
    25
100
AcDbLine
 10
144.112499
 20
254.695726
 30
0.0
 11
143.595315
 21
255.21291
 31
0.0
  0
ENDBLK
  5
1BB
330
1B9
100
AcDbEntity
  8
0
100
AcDbBlockEnd
  0
BLOCK
  5
283
330
279
100
AcDbEntity
  8
0
100
AcDbBlockBegin
  2
*D8
 70
     1
 71
     0
 10
0.0
 20
0.0
 30
0.0
  3
*D8
  1

  0
LINE
  5
27A
330
279
100
AcDbEntity
  8
LC-005-003-----0
 62
     2
370
    -2
100
AcDbLine
 10
320.34264
 20
423.689508
 30
0.0
 11
381.6
 21
423.689508
 31
0.0
  0
LINE
  5
27B
330
279
100
AcDbEntity
  8
LC-005-003-----0
 62
     2
370
    -2
100
AcDbLine
 10
324.34264
 20
318.693052
 30
0.0
 11
381.6
 21
318.693052
 31
0.0
  0
LINE
  5
27C
330
279
100
AcDbEntity
  8
LC-005-003-----0
 62
     2
370
    -2
100
AcDbLine
 10
378.0
 20
395.689508
 30
0.0
 11
378.0
 21
346.693052
 31
0.0
  0
SOLID
  5
27D
330
279
100
AcDbEntity
  8
LC-005-003-----0
 62
     2
100
AcDbTrace
 10
382.666667
 20
395.689508
 30
0.0
 11
373.333333
 21
395.689508
 31
0.0
 12
378.0
 22
423.689508
 32
0.0
 13
378.0
 23
423.689508
 33
0.0
  0
SOLID
  5
27E
330
279
100
AcDbEntity
  8
LC-005-003-----0
 62
     2
100
AcDbTrace
 10
373.333333
 20
346.693052
 30
0.0
 11
382.666667
 21
346.693052
 31
0.0
 12
378.0
 22
318.693052
 32
0.0
 13
378.0
 23
318.693052
 33
0.0
  0
MTEXT
  5
27F
330
279
100
AcDbEntity
  8
LC-005-003-----0
 62
     2
100
AcDbMText
 10
347.2
 20
365.800744
 30
0.0
 40
28.0
 41
0.0
 71
     5
 72
     1
  1
\A1;105
  7
LCTX15-400-0-0pDIN-Schrift
 11
6.123031769111886E-17
 21
1.0
 31
0.0
 73
     1
 44
1.0
  0
POINT
  5
280
330
279
100
AcDbEntity
  8
Defpoints
 62
     0
100
AcDbPoint
 10
320.34264
 20
423.689508
 30
0.0
  0
POINT
  5
281
330
279
100
AcDbEntity
  8
Defpoints
 62
     0
100
AcDbPoint
 10
324.34264
 20
318.693052
 30
0.0
  0
POINT
  5
282
330
279
100
AcDbEntity
  8
Defpoints
 62
     0
100
AcDbPoint
 10
378.0
 20
318.693052
 30
0.0
  0
ENDBLK
  5
284
330
279
100
AcDbEntity
  8
0
100
AcDbBlockEnd
  0
BLOCK
  5
290
330
286
100
AcDbEntity
  8
0
100
AcDbBlockBegin
  2
*D9
 70
     1
 71
     0
 10
0.0
 20
0.0
 30
0.0
  3
*D9
  1

  0
LINE
  5
287
330
286
100
AcDbEntity
  8
LC-005-003-----0
 62
     2
370
    -2
100
AcDbLine
 10
154.84264
 20
253.393052
 30
0.0
 11
154.84264
 21
206.4
 31
0.0
  0
LINE
  5
288
330
286
100
AcDbEntity
  8
LC-005-003-----0
 62
     2
370
    -2
100
AcDbLine
 10
284.84264
 20
253.393052
 30
0.0
 11
284.84264
 21
206.4
 31
0.0
  0
LINE
  5
289
330
286
100
AcDbEntity
  8
LC-005-003-----0
 62
     2
370
    -2
100
AcDbLine
 10
182.84264
 20
210.0
 30
0.0
 11
256.84264
 21
210.0
 31
0.0
  0
SOLID
  5
28A
330
286
100
AcDbEntity
  8
LC-005-003-----0
 62
     2
100
AcDbTrace
 10
182.84264
 20
214.666667
 30
0.0
 11
182.84264
 21
205.333333
 31
0.0
 12
154.84264
 22
210.0
 32
0.0
 13
154.84264
 23
210.0
 33
0.0
  0
SOLID
  5
28B
330
286
100
AcDbEntity
  8
LC-005-003-----0
 62
     2
100
AcDbTrace
 10
256.84264
 20
205.333333
 30
0.0
 11
256.84264
 21
214.666667
 31
0.0
 12
284.84264
 22
210.0
 32
0.0
 13
284.84264
 23
210.0
 33
0.0
  0
MTEXT
  5
28C
330
286
100
AcDbEntity
  8
LC-005-003-----0
 62
     2
100
AcDbMText
 10
219.84264
 20
240.8
 30
0.0
 40
28.0
 41
0.0
 71
     5
 72
     1
  1
%%c\A1;130
  7
LCTX15-400-0-0pDIN-Schrift
 73
     1
 44
1.0
  0
POINT
  5
28D
330
286
100
AcDbEntity
  8
Defpoints
 62
     0
100
AcDbPoint
 10
154.84264
 20
253.393052
 30
0.0
  0
POINT
  5
28E
330
286
100
AcDbEntity
  8
Defpoints
 62
     0
100
AcDbPoint
 10
284.84264
 20
253.393052
 30
0.0
  0
POINT
  5
28F
330
286
100
AcDbEntity
  8
Defpoints
 62
     0
100
AcDbPoint
 10
284.84264
 20
210.0
 30
0.0
  0
ENDBLK
  5
291
330
286
100
AcDbEntity
  8
0
100
AcDbBlockEnd
  0
BLOCK
  5
2A2
330
298
100
AcDbEntity
  8
0
100
AcDbBlockBegin
  2
*D10
 70
     1
 71
     0
 10
0.0
 20
0.0
 30
0.0
  3
*D10
  1

  0
LINE
  5
299
330
298
100
AcDbEntity
  8
LC-005-003-----0
 62
     2
370
    -2
100
AcDbLine
 10
119.34264
 20
398.689508
 30
0.0
 11
119.34264
 21
493.6
 31
0.0
  0
LINE
  5
29A
330
298
100
AcDbEntity
  8
LC-005-003-----0
 62
     2
370
    -2
100
AcDbLine
 10
320.34264
 20
398.689508
 30
0.0
 11
320.34264
 21
493.6
 31
0.0
  0
LINE
  5
29B
330
298
100
AcDbEntity
  8
LC-005-003-----0
 62
     2
370
    -2
100
AcDbLine
 10
147.34264
 20
490.0
 30
0.0
 11
292.34264
 21
490.0
 31
0.0
  0
SOLID
  5
29C
330
298
100
AcDbEntity
  8
LC-005-003-----0
 62
     2
100
AcDbTrace
 10
147.34264
 20
494.666667
 30
0.0
 11
147.34264
 21
485.333333
 31
0.0
 12
119.34264
 22
490.0
 32
0.0
 13
119.34264
 23
490.0
 33
0.0
  0
SOLID
  5
29D
330
298
100
AcDbEntity
  8
LC-005-003-----0
 62
     2
100
AcDbTrace
 10
292.34264
 20
485.333333
 30
0.0
 11
292.34264
 21
494.666667
 31
0.0
 12
320.34264
 22
490.0
 32
0.0
 13
320.34264
 23
490.0
 33
0.0
  0
MTEXT
  5
29E
330
298
100
AcDbEntity
  8
LC-005-003-----0
 62
     2
100
AcDbMText
 10
219.84264
 20
520.8
 30
0.0
 40
28.0
 41
0.0
 71
     5
 72
     1
  1
%%c\A1;201
  7
LCTX15-400-0-0pDIN-Schrift
 73
     1
 44
1.0
  0
POINT
  5
29F
330
298
100
AcDbEntity
  8
Defpoints
 62
     0
100
AcDbPoint
 10
119.34264
 20
398.689508
 30
0.0
  0
POINT
  5
2A0
330
298
100
AcDbEntity
  8
Defpoints
 62
     0
100
AcDbPoint
 10
320.34264
 20
398.689508
 30
0.0
  0
POINT
  5
2A1
330
298
100
AcDbEntity
  8
Defpoints
 62
     0
100
AcDbPoint
 10
320.34264
 20
490.0
 30
0.0
  0
ENDBLK
  5
2A3
330
298
100
AcDbEntity
  8
0
100
AcDbBlockEnd
  0
BLOCK
  5
2AF
330
2A5
100
AcDbEntity
  8
0
100
AcDbBlockBegin
  2
*D11
 70
     1
 71
     0
 10
0.0
 20
0.0
 30
0.0
  3
*D11
  1

  0
LINE
  5
2A6
330
2A5
100
AcDbEntity
  8
LC-005-003-----0
 62
     2
370
    -2
100
AcDbLine
 10
324.34264
 20
423.689508
 30
0.0
 11
437.6
 21
423.689508
 31
0.0
  0
LINE
  5
2A7
330
2A5
100
AcDbEntity
  8
LC-005-003-----0
 62
     2
370
    -2
100
AcDbLine
 10
292.09264
 20
252.693052
 30
0.0
 11
437.6
 21
252.693052
 31
0.0
  0
LINE
  5
2A8
330
2A5
100
AcDbEntity
  8
LC-005-003-----0
 62
     2
370
    -2
100
AcDbLine
 10
434.0
 20
395.689508
 30
0.0
 11
434.0
 21
280.693052
 31
0.0
  0
SOLID
  5
2A9
330
2A5
100
AcDbEntity
  8
LC-005-003-----0
 62
     2
100
AcDbTrace
 10
438.666667
 20
395.689508
 30
0.0
 11
429.333333
 21
395.689508
 31
0.0
 12
434.0
 22
423.689508
 32
0.0
 13
434.0
 23
423.689508
 33
0.0
  0
SOLID
  5
2AA
330
2A5
100
AcDbEntity
  8
LC-005-003-----0
 62
     2
100
AcDbTrace
 10
429.333333
 20
280.693052
 30
0.0
 11
438.666667
 21
280.693052
 31
0.0
 12
434.0
 22
252.693052
 32
0.0
 13
434.0
 23
252.693052
 33
0.0
  0
MTEXT
  5
2AB
330
2A5
100
AcDbEntity
  8
LC-005-003-----0
 62
     2
100
AcDbMText
 10
403.2
 20
338.19128
 30
0.0
 40
28.0
 41
0.0
 71
     5
 72
     1
  1
\A1;171
  7
LCTX15-400-0-0pDIN-Schrift
 11
6.123031769111886E-17
 21
1.0
 31
0.0
 73
     1
 44
1.0
  0
POINT
  5
2AC
330
2A5
100
AcDbEntity
  8
Defpoints
 62
     0
100
AcDbPoint
 10
324.34264
 20
423.689508
 30
0.0
  0
POINT
  5
2AD
330
2A5
100
AcDbEntity
  8
Defpoints
 62
     0
100
AcDbPoint
 10
292.09264
 20
252.693052
 30
0.0
  0
POINT
  5
2AE
330
2A5
100
AcDbEntity
  8
Defpoints
 62
     0
100
AcDbPoint
 10
434.0
 20
252.693052
 30
0.0
  0
ENDBLK
  5
2B0
330
2A5
100
AcDbEntity
  8
0
100
AcDbBlockEnd
  0
BLOCK
  5
2BE
330
2B2
100
AcDbEntity
  8
0
100
AcDbBlockBegin
  2
*D12
 70
     1
 71
     0
 10
0.0
 20
0.0
 30
0.0
  3
*D12
  1

  0
LINE
  5
2B3
330
2B2
100
AcDbEntity
  8
LC-005-003-----0
 62
     2
370
    -2
100
AcDbLine
 10
324.34264
 20
423.689508
 30
0.0
 11
381.6
 21
423.689508
 31
0.0
  0
LINE
  5
2B4
330
2B2
100
AcDbEntity
  8
LC-005-003-----0
 62
     2
370
    -2
100
AcDbLine
 10
334.691638
 20
471.693052
 30
0.0
 11
381.6
 21
471.693052
 31
0.0
  0
LINE
  5
2B5
330
2B2
100
AcDbEntity
  8
LC-005-003-----0
 62
     2
370
    -2
100
AcDbLine
 10
378.0
 20
395.689508
 30
0.0
 11
378.0
 21
367.689508
 31
0.0
  0
LINE
  5
2B6
330
2B2
100
AcDbEntity
  8
LC-005-003-----0
 62
     2
370
    -2
100
AcDbLine
 10
378.0
 20
499.693052
 30
0.0
 11
378.0
 21
527.693052
 31
0.0
  0
LINE
  5
2B7
330
2B2
100
AcDbEntity
  8
LC-005-003-----0
 62
     2
370
    -2
100
AcDbLine
 10
378.0
 20
423.689508
 30
0.0
 11
378.0
 21
471.693052
 31
0.0
  0
SOLID
  5
2B8
330
2B2
100
AcDbEntity
  8
LC-005-003-----0
 62
     2
100
AcDbTrace
 10
382.666667
 20
395.689508
 30
0.0
 11
373.333333
 21
395.689508
 31
0.0
 12
378.0
 22
423.689508
 32
0.0
 13
378.0
 23
423.689508
 33
0.0
  0
SOLID
  5
2B9
330
2B2
100
AcDbEntity
  8
LC-005-003-----0
 62
     2
100
AcDbTrace
 10
373.333333
 20
499.693052
 30
0.0
 11
382.666667
 21
499.693052
 31
0.0
 12
378.0
 22
471.693052
 32
0.0
 13
378.0
 23
471.693052
 33
0.0
  0
MTEXT
  5
2BA
330
2B2
100
AcDbEntity
  8
LC-005-003-----0
 62
     2
100
AcDbMText
 10
347.2
 20
447.69128
 30
0.0
 40
28.0
 41
0.0
 71
     5
 72
     1
  1
\A1;48
  7
LCTX15-400-0-0pDIN-Schrift
 11
6.123031769111886E-17
 21
1.0
 31
0.0
 73
     1
 44
1.0
  0
POINT
  5
2BB
330
2B2
100
AcDbEntity
  8
Defpoints
 62
     0
100
AcDbPoint
 10
324.34264
 20
423.689508
 30
0.0
  0
POINT
  5
2BC
330
2B2
100
AcDbEntity
  8
Defpoints
 62
     0
100
AcDbPoint
 10
334.691638
 20
471.693052
 30
0.0
  0
POINT
  5
2BD
330
2B2
100
AcDbEntity
  8
Defpoints
 62
     0
100
AcDbPoint
 10
378.0
 20
471.693052
 30
0.0
  0
ENDBLK
  5
2BF
330
2B2
100
AcDbEntity
  8
0
100
AcDbBlockEnd
  0
BLOCK
  5
2D8
330
2D7
100
AcDbEntity
  8
0
100
AcDbBlockBegin
  2
*X813
 70
     1
 71
     0
 10
0.0
 20
0.0
 30
0.0
  3
*X813
  1

  4
*X8
  0
LINE
  5
2DA
330
2D7
100
AcDbEntity
  8
LC-004-005-----0
  6
DASHED
 62
     7
370
    25
100
AcDbLine
 10
128.96989
 20
402.77441
 30
0.0
 11
118.054791
 21
413.689508
 31
0.0
  0
LINE
  5
2DB
330
2D7
100
AcDbEntity
  8
LC-004-005-----0
  6
DASHED
 62
     7
370
    25
100
AcDbLine
 10
121.418752
 20
404.668693
 30
0.0
 11
112.620289
 21
413.467157
 31
0.0
  0
LINE
  5
2DC
330
2D7
100
AcDbEntity
  8
LC-004-005-----0
 62
     7
370
    25
100
AcDbLine
 10
114.084228
 20
400.689508
 30
0.0
 11
111.713434
 21
403.060302
 31
0.0
  0
ENDBLK
  5
2D9
330
2D7
100
AcDbEntity
  8
0
100
AcDbBlockEnd
  0
BLOCK
  5
2F1
330
2F0
100
AcDbEntity
  8
0
100
AcDbBlockBegin
  2
*X914
 70
     1
 71
     0
 10
0.0
 20
0.0
 30
0.0
  3
*X914
  1

  4
*X9
  0
LINE
  5
2F3
330
2F0
100
AcDbEntity
  8
LC-004-005-----0
  6
DASHED
 62
     7
370
    25
100
AcDbLine
 10
327.84264
 20
401.891558
 30
0.0
 11
316.04469
 21
413.689508
 31
0.0
  0
LINE
  5
2F4
330
2F0
100
AcDbEntity
  8
LC-004-005-----0
  6
DASHED
 62
     7
370
    25
100
AcDbLine
 10
323.387836
 20
400.689508
 30
0.0
 11
320.34264
 21
403.734704
 31
0.0
  0
LINE
  5
2F5
330
2F0
100
AcDbEntity
  8
LC-004-005-----0
  6
DASHED
 62
     7
370
    25
100
AcDbLine
 10
319.179597
 20
404.897746
 30
0.0
 11
311.190923
 21
412.88642
 31
0.0
  0
LINE
  5
2F6
330
2F0
100
AcDbEntity
  8
LC-004-005-----0
 62
     7
370
    25
100
AcDbLine
 10
310.134859
 20
402.628777
 30
0.0
 11
306.122659
 21
406.640977
 31
0.0
  0
LINE
  5
2F7
330
2F0
100
AcDbEntity
  8
LC-004-005-----0
 62
     7
370
    25
100
AcDbLine
 10
305.612489
 20
401.494292
 30
0.0
 11
303.588526
 21
403.518255
 31
0.0
  0
ENDBLK
  5
2F2
330
2F0
100
AcDbEntity
  8
0
100
AcDbBlockEnd
  0
ENDSEC
  0
SECTION
  2
ENTITIES
  0
LINE
  5
31
330
1F
100
AcDbEntity
  8
LC-001-002-----0
 62
     7
370
    50
100
AcDbLine
 10
114.24264
 20
413.689508
 30
0.0
 11
119.34264
 21
413.689508
 31
0.0
  0
LINE
  5
32
330
1F
100
AcDbEntity
  8
LC-001-002-----0
 62
     7
370
    50
100
AcDbLine
 10
325.89264
 20
413.689508
 30
0.0
 11
320.34264
 21
413.689508
 31
0.0
  0
LINE
  5
35
330
1F
100
AcDbEntity
  8
LC-002-006-MLN-0
 62
     7
370
    25
100
AcDbLine
 10
219.84264
 20
423.689508
 30
0.0
 11
219.84264
 21
242.693052
 31
0.0
  0
LINE
  5
36
330
1F
100
AcDbEntity
  8
LC-001-002-----0
 62
     7
370
    50
100
AcDbLine
 10
320.34264
 20
423.689508
 30
0.0
 11
119.34264
 21
423.689508
 31
0.0
  0
LINE
  5
37
330
1F
100
AcDbEntity
  8
LC-001-002-----0
 62
     7
370
    50
100
AcDbLine
 10
328.39264
 20
401.189508
 30
0.0
 11
328.39264
 21
411.189508
 31
0.0
  0
ARC
  5
39
330
1F
100
AcDbEntity
  8
LC-003-002-RND-0
 62
     7
370
    50
100
AcDbCircle
 10
325.89264
 20
401.189508
 30
0.0
 40
2.5
100
AcDbArc
 50
270.0
 51
0.0
  0
LINE
  5
3A
330
1F
100
AcDbEntity
  8
LC-001-002-----0
 62
     7
370
    50
100
AcDbLine
 10
320.34264
 20
413.689508
 30
0.0
 11
320.34264
 21
423.689508
 31
0.0
  0
LINE
  5
3B
330
1F
100
AcDbEntity
  8
LC-001-002-----0
 62
     7
370
    50
100
AcDbLine
 10
324.34264
 20
417.939508
 30
0.0
 11
324.34264
 21
423.689508
 31
0.0
  0
ARC
  5
3C
330
1F
100
AcDbEntity
  8
LC-003-002-RND-0
 62
     7
370
    50
100
AcDbCircle
 10
325.89264
 20
411.189508
 30
0.0
 40
2.5
100
AcDbArc
 50
0.0
 51
90.0
  0
LINE
  5
3D
330
1F
100
AcDbEntity
  8
LC-001-002-----0
 62
     7
370
    50
100
AcDbLine
 10
324.34264
 20
423.689508
 30
0.0
 11
320.34264
 21
423.689508
 31
0.0
  0
LINE
  5
3E
330
1F
100
AcDbEntity
  8
LC-001-002-----0
 62
     7
370
    50
100
AcDbLine
 10
328.39264
 20
393.939508
 30
0.0
 11
325.34264
 21
393.939508
 31
0.0
  0
LINE
  5
3F
330
1F
100
AcDbEntity
  8
LC-001-002-----0
 62
     7
370
    50
100
AcDbLine
 10
325.89264
 20
398.689508
 30
0.0
 11
320.34264
 21
398.689508
 31
0.0
  0
ARC
  5
40
330
1F
100
AcDbEntity
  8
LC-003-002-RND-0
 62
     7
370
    50
100
AcDbCircle
 10
325.34264
 20
392.939508
 30
0.0
 40
1.0
100
AcDbArc
 50
90.0
 51
180.0
  0
LINE
  5
41
330
1F
100
AcDbEntity
  8
LC-001-002-----0
 62
     7
370
    50
100
AcDbLine
 10
320.34264
 20
325.216118
 30
0.0
 11
320.34264
 21
398.689508
 31
0.0
  0
ARC
  5
42
330
1F
100
AcDbEntity
  8
LC-003-002-RND-0
 62
     7
370
    50
100
AcDbCircle
 10
328.39264
 20
397.939508
 30
0.0
 40
4.0
100
AcDbArc
 50
270.0
 51
0.0
  0
LINE
  5
43
330
1F
100
AcDbEntity
  8
LC-001-002-----0
 62
     7
370
    50
100
AcDbLine
 10
328.39264
 20
417.939508
 30
0.0
 11
324.34264
 21
417.939508
 31
0.0
  0
ARC
  5
44
330
1F
100
AcDbEntity
  8
LC-003-002-RND-0
 62
     7
370
    50
100
AcDbCircle
 10
328.39264
 20
413.939508
 30
0.0
 40
4.0
100
AcDbArc
 50
0.0
 51
90.0
  0
LINE
  5
45
330
1F
100
AcDbEntity
  8
LC-001-002-----0
 62
     7
370
    50
100
AcDbLine
 10
332.39264
 20
397.939508
 30
0.0
 11
332.39264
 21
413.939508
 31
0.0
  0
LINE
  5
46
330
1F
100
AcDbEntity
  8
LC-001-002-----0
 62
     7
370
    50
100
AcDbLine
 10
107.29264
 20
397.939508
 30
0.0
 11
107.29264
 21
413.939508
 31
0.0
  0
ARC
  5
47
330
1F
100
AcDbEntity
  8
LC-003-002-RND-0
 62
     7
370
    50
100
AcDbCircle
 10
111.29264
 20
413.939508
 30
0.0
 40
4.0
100
AcDbArc
 50
90.0
 51
180.0
  0
LINE
  5
48
330
1F
100
AcDbEntity
  8
LC-001-002-----0
 62
     7
370
    50
100
AcDbLine
 10
111.29264
 20
417.939508
 30
0.0
 11
115.34264
 21
417.939508
 31
0.0
  0
ARC
  5
49
330
1F
100
AcDbEntity
  8
LC-003-002-RND-0
 62
     7
370
    50
100
AcDbCircle
 10
111.29264
 20
397.939508
 30
0.0
 40
4.0
100
AcDbArc
 50
180.0
 51
270.0
  0
LINE
  5
4A
330
1F
100
AcDbEntity
  8
LC-001-002-----0
 62
     7
370
    50
100
AcDbLine
 10
115.34264
 20
314.689508
 30
0.0
 11
115.34264
 21
392.939508
 31
0.0
  0
LINE
  5
4B
330
1F
100
AcDbEntity
  8
LC-001-002-----0
 62
     7
370
    50
100
AcDbLine
 10
119.34264
 20
325.216118
 30
0.0
 11
119.34264
 21
398.689508
 31
0.0
  0
ARC
  5
4C
330
1F
100
AcDbEntity
  8
LC-003-002-RND-0
 62
     7
370
    50
100
AcDbCircle
 10
114.34264
 20
392.939508
 30
0.0
 40
1.0
100
AcDbArc
 50
0.0
 51
90.0
  0
LINE
  5
4D
330
1F
100
AcDbEntity
  8
LC-001-002-----0
 62
     7
370
    50
100
AcDbLine
 10
114.24264
 20
398.689508
 30
0.0
 11
119.34264
 21
398.689508
 31
0.0
  0
LINE
  5
4E
330
1F
100
AcDbEntity
  8
LC-001-002-----0
 62
     7
370
    50
100
AcDbLine
 10
111.29264
 20
393.939508
 30
0.0
 11
114.34264
 21
393.939508
 31
0.0
  0
LINE
  5
4F
330
1F
100
AcDbEntity
  8
LC-001-002-----0
 62
     7
370
    50
100
AcDbLine
 10
115.34264
 20
423.689508
 30
0.0
 11
119.34264
 21
423.689508
 31
0.0
  0
ARC
  5
50
330
1F
100
AcDbEntity
  8
LC-003-002-RND-0
 62
     7
370
    50
100
AcDbCircle
 10
114.24264
 20
411.189508
 30
0.0
 40
2.5
100
AcDbArc
 50
90.0
 51
180.0
  0
LINE
  5
51
330
1F
100
AcDbEntity
  8
LC-001-002-----0
 62
     7
370
    50
100
AcDbLine
 10
115.34264
 20
417.939508
 30
0.0
 11
115.34264
 21
423.689508
 31
0.0
  0
LINE
  5
52
330
1F
100
AcDbEntity
  8
LC-001-002-----0
 62
     7
370
    50
100
AcDbLine
 10
119.34264
 20
413.689508
 30
0.0
 11
119.34264
 21
423.689508
 31
0.0
  0
ARC
  5
53
330
1F
100
AcDbEntity
  8
LC-003-002-RND-0
 62
     7
370
    50
100
AcDbCircle
 10
114.24264
 20
401.189508
 30
0.0
 40
2.5
100
AcDbArc
 50
180.0
 51
270.0
  0
LINE
  5
54
330
1F
100
AcDbEntity
  8
LC-001-002-----0
 62
     7
370
    50
100
AcDbLine
 10
111.74264
 20
401.189508
 30
0.0
 11
111.74264
 21
411.189508
 31
0.0
  0
LINE
  5
55
330
1F
100
AcDbEntity
  8
LC-001-002-----0
 62
     7
370
    50
100
AcDbLine
 10
324.34264
 20
314.689508
 30
0.0
 11
324.34264
 21
392.939508
 31
0.0
  0
LINE
  5
56
330
1F
100
AcDbEntity
  8
LC-001-002-----0
 62
     7
370
    50
100
AcDbLine
 10
119.34264
 20
325.216118
 30
0.0
 11
122.163237
 21
314.689508
 31
0.0
  0
LINE
  5
57
330
1F
100
AcDbEntity
  8
LC-001-002-----0
 62
     7
370
    50
100
AcDbLine
 10
320.34264
 20
325.216118
 30
0.0
 11
317.522044
 21
314.689508
 31
0.0
  0
LINE
  5
58
330
1F
100
AcDbEntity
  8
LC-001-002-----0
 62
     7
370
    50
100
AcDbLine
 10
324.55664
 20
398.689508
 30
0.0
 11
323.104796
 21
398.689508
 31
0.0
  0
LINE
  5
59
330
1F
100
AcDbEntity
  8
LC-001-002-----0
 62
     7
370
    50
100
AcDbLine
 10
115.581215
 20
398.689508
 30
0.0
 11
117.03306
 21
398.689508
 31
0.0
  0
LINE
  5
5A
330
1F
100
AcDbEntity
  8
LC-001-002-----0
 62
     7
370
    50
100
AcDbLine
 10
323.104796
 20
398.689508
 30
0.0
 11
117.03306
 21
398.689508
 31
0.0
  0
LINE
  5
5B
102
{ACAD_REACTORS
330
2FD
102
}
330
1F
100
AcDbEntity
  8
LC-001-002-----0
 62
     7
370
    50
100
AcDbLine
 10
98.34264
 20
318.693052
 30
0.0
 11
98.34264
 21
318.693052
 31
0.0
  0
LINE
  5
5C
102
{ACAD_REACTORS
330
2FD
102
}
330
1F
100
AcDbEntity
  8
LC-001-002-----0
 62
     7
370
    50
100
AcDbLine
 10
98.34264
 20
318.693052
 30
0.0
 11
99.04264
 21
318.693052
 31
0.0
  0
LINE
  5
5D
102
{ACAD_REACTORS
330
2FD
102
}
330
1F
100
AcDbEntity
  8
LC-001-002-----0
 62
     7
370
    50
100
AcDbLine
 10
104.34264
 20
312.693052
 30
0.0
 11
136.59264
 21
312.693052
 31
0.0
  0
LINE
  5
5E
102
{ACAD_REACTORS
330
2FD
102
}
330
1F
100
AcDbEntity
  8
LC-001-002-----0
 62
     7
370
    50
100
AcDbLine
 10
147.59264
 20
252.693052
 30
0.0
 11
219.84264
 21
252.693052
 31
0.0
  0
LINE
  5
5F
102
{ACAD_REACTORS
330
2FD
102
}
330
1F
100
AcDbEntity
  8
LC-001-002-----0
 62
     7
370
    50
100
AcDbLine
 10
141.59264
 20
307.693052
 30
0.0
 11
141.59264
 21
258.693052
 31
0.0
  0
LINE
  5
60
102
{ACAD_REACTORS
330
2FD
102
}
330
1F
100
AcDbEntity
  8
LC-001-002-----0
 62
     7
370
    50
100
AcDbLine
 10
99.34264
 20
318.693052
 30
0.0
 11
99.34264
 21
318.693052
 31
0.0
  0
ARC
  5
61
102
{ACAD_REACTORS
330
2FD
102
}
330
1F
100
AcDbEntity
  8
LC-003-002-RND-0
 62
     7
370
    50
100
AcDbCircle
 10
136.59264
 20
307.693052
 30
0.0
 40
5.0
100
AcDbArc
 50
0.0
 51
90.0
  0
ARC
  5
62
102
{ACAD_REACTORS
330
2FD
102
}
330
1F
100
AcDbEntity
  8
LC-003-002-RND-0
 62
     7
370
    50
100
AcDbCircle
 10
147.59264
 20
258.693052
 30
0.0
 40
6.0
100
AcDbArc
 50
180.0
 51
270.0
  0
ARC
  5
63
102
{ACAD_REACTORS
330
2FD
102
}
330
1F
100
AcDbEntity
  8
LC-003-002-RND-0
 62
     7
370
    50
100
AcDbCircle
 10
104.34264
 20
318.693052
 30
0.0
 40
6.0
100
AcDbArc
 50
180.0
 51
270.0
  0
LINE
  5
64
102
{ACAD_REACTORS
330
2FD
102
}
330
1F
100
AcDbEntity
  8
LC-001-002-----0
 62
     7
370
    50
100
AcDbLine
 10
154.84264
 20
253.393052
 30
0.0
 11
154.84264
 21
252.693052
 31
0.0
  0
LINE
  5
65
102
{ACAD_REACTORS
330
2FD
102
}
330
1F
100
AcDbEntity
  8
LC-001-002-----0
 62
     7
370
    50
100
AcDbLine
 10
335.34264
 20
312.693052
 30
0.0
 11
303.09264
 21
312.693052
 31
0.0
  0
LINE
  5
66
102
{ACAD_REACTORS
330
2FD
102
}
330
1F
100
AcDbEntity
  8
LC-001-002-----0
 62
     7
370
    50
100
AcDbLine
 10
292.09264
 20
252.693052
 30
0.0
 11
219.84264
 21
252.693052
 31
0.0
  0
LINE
  5
67
102
{ACAD_REACTORS
330
2FD
102
}
330
1F
100
AcDbEntity
  8
LC-001-002-----0
 62
     7
370
    50
100
AcDbLine
 10
298.09264
 20
307.693052
 30
0.0
 11
298.09264
 21
258.693052
 31
0.0
  0
ARC
  5
68
102
{ACAD_REACTORS
330
2FD
102
}
330
1F
100
AcDbEntity
  8
LC-003-002-RND-0
 62
     7
370
    50
100
AcDbCircle
 10
303.09264
 20
307.693052
 30
0.0
 40
5.0
100
AcDbArc
 50
90.0
 51
180.0
  0
ARC
  5
69
102
{ACAD_REACTORS
330
2FD
102
}
330
1F
100
AcDbEntity
  8
LC-003-002-RND-0
 62
     7
370
    50
100
AcDbCircle
 10
292.09264
 20
258.693052
 30
0.0
 40
5.999999999999915
100
AcDbArc
 50
270.0
 51
0.0
  0
ARC
  5
6A
102
{ACAD_REACTORS
330
2FD
102
}
330
1F
100
AcDbEntity
  8
LC-003-002-RND-0
 62
     7
370
    50
100
AcDbCircle
 10
335.34264
 20
318.693052
 30
0.0
 40
6.0
100
AcDbArc
 50
270.0
 51
0.0
  0
LINE
  5
6B
102
{ACAD_REACTORS
330
2FD
102
}
330
1F
100
AcDbEntity
  8
LC-001-002-----0
 62
     7
370
    50
100
AcDbLine
 10
284.84264
 20
253.393052
 30
0.0
 11
284.84264
 21
252.693052
 31
0.0
  0
LINE
  5
6C
102
{ACAD_REACTORS
330
2FD
102
}
330
1F
100
AcDbEntity
  8
LC-001-002-----0
 62
     7
370
    50
100
AcDbLine
 10
219.84264
 20
318.693052
 30
0.0
 11
318.59479
 21
318.693052
 31
0.0
  0
LINE
  5
6D
330
1F
100
AcDbEntity
  8
LC-001-002-----0
 62
     7
370
    50
100
AcDbLine
 10
104.67264
 20
314.689508
 30
0.0
 11
135.83264
 21
314.689508
 31
0.0
  0
LINE
  5
6E
330
1F
100
AcDbEntity
  8
LC-001-002-----0
 62
     7
370
    50
100
AcDbLine
 10
135.83264
 20
314.689508
 30
0.0
 11
135.83264
 21
313.689508
 31
0.0
  0
ARC
  5
6F
330
1F
100
AcDbEntity
  8
LC-001-002-----0
 62
     7
370
    50
100
AcDbCircle
 10
104.67264
 20
318.689508
 30
0.0
 40
3.999999999999983
100
AcDbArc
 50
195.0
 51
270.0
  0
ARC
  5
70
330
1F
100
AcDbEntity
  8
LC-001-002-----0
 62
     7
370
    50
100
AcDbCircle
 10
104.67264
 20
318.689508
 30
0.0
 40
4.999999999999903
100
AcDbArc
 50
195.0
 51
270.0
  0
LINE
  5
71
330
1F
100
AcDbEntity
  8
LC-001-002-----0
 62
     7
370
    50
100
AcDbLine
 10
2.269001
 20
471.689508
 30
0.0
 11
2.269001
 21
472.689508
 31
0.0
  0
LINE
  5
72
330
1F
100
AcDbEntity
  8
LC-001-002-----0
 62
     7
370
    50
100
AcDbLine
 10
55.430725
 20
471.689508
 30
0.0
 11
2.269001
 21
471.689508
 31
0.0
  0
LINE
  5
73
330
1F
100
AcDbEntity
  8
LC-001-002-----0
 62
     7
370
    50
100
AcDbLine
 10
100.808937
 20
317.654232
 30
0.0
 11
60.260354
 21
468.983603
 31
0.0
  0
ARC
  5
74
330
1F
100
AcDbEntity
  8
LC-003-002-RND-0
 62
     7
370
    50
100
AcDbCircle
 10
55.430725
 20
467.689508
 30
0.0
 40
3.999999999999997
100
AcDbArc
 50
15.0
 51
90.0
  0
ARC
  5
75
330
1F
100
AcDbEntity
  8
LC-003-002-RND-0
 62
     7
370
    50
100
AcDbCircle
 10
55.430725
 20
467.689508
 30
0.0
 40
5.000000000000013
100
AcDbArc
 50
15.0
 51
90.0
  0
INSERT
  5
E2
330
1F
100
AcDbEntity
  8
LC-004-005-----0
 62
     7
370
    25
100
AcDbBlockReference
  2
*X11
 10
0.0
 20
0.0
 30
0.0
  0
LINE
  5
E3
330
1F
100
AcDbEntity
  8
LC-001-002-----0
 62
     7
370
    50
100
AcDbLine
 10
55.430725
 20
472.689508
 30
0.0
 11
2.269001
 21
472.689508
 31
0.0
  0
LINE
  5
E4
330
1F
100
AcDbEntity
  8
LC-001-002-----0
 62
     7
370
    50
100
AcDbLine
 10
99.843011
 20
317.395413
 30
0.0
 11
59.294428
 21
468.724784
 31
0.0
  0
LINE
  5
E5
330
1F
100
AcDbEntity
  8
LC-001-002-----0
 62
     7
370
    50
100
AcDbLine
 10
104.67264
 20
313.689508
 30
0.0
 11
135.83264
 21
313.689508
 31
0.0
  0
LINE
  5
E6
330
1F
100
AcDbEntity
  8
LC-001-002-----0
 62
     7
370
    50
100
AcDbLine
 10
291.054883
 20
472.693052
 30
0.0
 11
334.454778
 21
472.693052
 31
0.0
  0
LINE
  5
E7
330
1F
100
AcDbEntity
  8
LC-001-002-----0
 62
     7
370
    50
100
AcDbLine
 10
312.587259
 20
471.693052
 30
0.0
 11
334.691638
 21
471.693052
 31
0.0
  0
LINE
  5
E8
330
1F
100
AcDbEntity
  8
LC-001-002-----0
 62
     7
370
    50
100
AcDbLine
 10
334.691638
 20
471.693052
 30
0.0
 11
334.691638
 21
472.693052
 31
0.0
  0
LINE
  5
E9
102
{ACAD_REACTORS
330
2FD
102
}
330
1F
100
AcDbEntity
  8
LC-001-002-----0
 62
     7
370
    50
100
AcDbLine
 10
335.34264
 20
313.393052
 30
0.0
 11
303.09264
 21
313.393052
 31
0.0
  0
ARC
  5
EA
102
{ACAD_REACTORS
330
2FD
102
}
330
1F
100
AcDbEntity
  8
LC-001-002-----0
 62
     7
370
    50
100
AcDbCircle
 10
335.34264
 20
318.693052
 30
0.0
 40
5.300000000000011
100
AcDbArc
 50
270.0
 51
0.0
  0
ARC
  5
EB
102
{ACAD_REACTORS
330
2FD
102
}
330
1F
100
AcDbEntity
  8
LC-001-002-----0
 62
     7
370
    50
100
AcDbCircle
 10
292.09264
 20
258.693052
 30
0.0
 40
5.299999999999926
100
AcDbArc
 50
270.0
 51
0.0
  0
ARC
  5
EC
102
{ACAD_REACTORS
330
2FD
102
}
330
1F
100
AcDbEntity
  8
LC-001-002-----0
 62
     7
370
    50
100
AcDbCircle
 10
147.59264
 20
258.693052
 30
0.0
 40
5.299999999999983
100
AcDbArc
 50
180.0
 51
270.0
  0
LINE
  5
ED
102
{ACAD_REACTORS
330
2FD
102
}
330
1F
100
AcDbEntity
  8
LC-001-002-----0
 62
     7
370
    50
100
AcDbLine
 10
142.29264
 20
307.693052
 30
0.0
 11
142.29264
 21
258.693052
 31
0.0
  0
ARC
  5
EE
102
{ACAD_REACTORS
330
2FD
102
}
330
1F
100
AcDbEntity
  8
LC-001-002-----0
 62
     7
370
    50
100
AcDbCircle
 10
104.34264
 20
318.693052
 30
0.0
 40
5.300000000000011
100
AcDbArc
 50
180.0
 51
270.0
  0
INSERT
  5
FD
102
{ACAD_REACTORS
330
2FD
102
}
330
1F
100
AcDbEntity
  8
LC-004-005-----0
 62
     7
370
    25
100
AcDbBlockReference
  2
*X22
 10
0.0
 20
0.0
 30
0.0
  0
INSERT
  5
10F
102
{ACAD_REACTORS
330
2FD
102
}
330
1F
100
AcDbEntity
  8
LC-004-005-----0
 62
     7
370
    25
100
AcDbBlockReference
  2
*X33
 10
0.0
 20
0.0
 30
0.0
  0
LINE
  5
110
330
1F
100
AcDbEntity
  8
LC-001-002-----0
 62
     7
370
    50
100
AcDbLine
 10
335.34264
 20
313.693052
 30
0.0
 11
332.34264
 21
313.693052
 31
0.0
  0
ARC
  5
111
330
1F
100
AcDbEntity
  8
LC-001-002-----0
 62
     7
370
    50
100
AcDbCircle
 10
335.34264
 20
318.693052
 30
0.0
 40
5.0
100
AcDbArc
 50
270.0
 51
2.62271
  0
LINE
  5
112
330
1F
100
AcDbEntity
  8
LC-001-002-----0
 62
     7
370
    50
100
AcDbLine
 10
340.64264
 20
318.693052
 30
0.0
 11
354.818711
 21
322.491518
 31
0.0
  0
LINE
  5
113
330
1F
100
AcDbEntity
  8
LC-001-002-----0
 62
     7
370
    50
100
AcDbLine
 10
340.564995
 20
318.982829
 30
0.0
 11
354.741065
 21
322.781296
 31
0.0
  0
ARC
  5
114
330
1F
100
AcDbEntity
  8
LC-001-002-----0
 62
     7
370
    50
100
AcDbCircle
 10
335.34264
 20
318.693052
 30
0.0
 40
5.300000000000011
100
AcDbArc
 50
270.0
 51
0.0
  0
LINE
  5
115
330
1F
100
AcDbEntity
  8
LC-001-002-----0
 62
     7
370
    50
100
AcDbLine
 10
335.34264
 20
313.393052
 30
0.0
 11
303.09264
 21
313.393052
 31
0.0
  0
ARC
  5
116
330
1F
100
AcDbEntity
  8
LC-003-002-RND-0
 62
     7
370
    50
100
AcDbCircle
 10
340.64264
 20
318.693052
 30
0.0
 40
0.300000000000004
100
AcDbArc
 50
105.0
 51
180.0
  0
ARC
  5
117
330
1F
100
AcDbEntity
  8
LC-001-002-----0
 62
     7
370
    50
100
AcDbCircle
 10
104.34264
 20
318.693052
 30
0.0
 40
5.000000000000028
100
AcDbArc
 50
180.0
 51
270.0
  0
LINE
  5
118
330
1F
100
AcDbEntity
  8
LC-001-002-----0
 62
     7
370
    50
100
AcDbLine
 10
99.04264
 20
318.693052
 30
0.0
 11
84.86657
 21
322.491518
 31
0.0
  0
LINE
  5
119
330
1F
100
AcDbEntity
  8
LC-001-002-----0
 62
     7
370
    50
100
AcDbLine
 10
99.120286
 20
318.982829
 30
0.0
 11
84.944216
 21
322.781296
 31
0.0
  0
LINE
  5
11A
330
1F
100
AcDbEntity
  8
LC-001-002-----0
 62
     7
370
    50
100
AcDbLine
 10
107.34264
 20
313.689508
 30
0.0
 11
107.34264
 21
313.693052
 31
0.0
  0
ARC
  5
11B
330
1F
100
AcDbEntity
  8
LC-001-002-----0
 62
     7
370
    50
100
AcDbCircle
 10
104.34264
 20
318.693052
 30
0.0
 40
5.299999999999983
100
AcDbArc
 50
180.0
 51
270.0
  0
LINE
  5
11C
330
1F
100
AcDbEntity
  8
LC-001-002-----0
 62
     7
370
    50
100
AcDbLine
 10
104.34264
 20
313.393052
 30
0.0
 11
136.59264
 21
313.393052
 31
0.0
  0
ARC
  5
11D
330
1F
100
AcDbEntity
  8
LC-003-002-RND-0
 62
     7
370
    50
100
AcDbCircle
 10
99.04264
 20
318.693052
 30
0.0
 40
0.299999999999983
100
AcDbArc
 50
0.0
 51
75.0
  0
LINE
  5
11E
330
1F
100
AcDbEntity
  8
LC-001-002-----0
 62
     7
370
    50
100
AcDbLine
 10
354.818711
 20
322.491518
 30
0.0
 11
354.741065
 21
322.781296
 31
0.0
  0
LINE
  5
11F
330
1F
100
AcDbEntity
  8
LC-001-002-----0
 62
     7
370
    50
100
AcDbLine
 10
354.741065
 20
322.781296
 30
0.0
 11
324.34264
 21
322.781296
 31
0.0
  0
LINE
  5
120
330
1F
100
AcDbEntity
  8
LC-001-002-----0
 62
     7
370
    50
100
AcDbLine
 10
84.86657
 20
322.491518
 30
0.0
 11
84.944216
 21
322.781296
 31
0.0
  0
INSERT
  5
137
330
1F
100
AcDbEntity
  8
LC-004-005-----0
 62
     7
370
    25
100
AcDbBlockReference
  2
*X44
 10
0.0
 20
0.0
 30
0.0
  0
LINE
  5
138
330
1F
100
AcDbEntity
  8
LC-001-002-----0
 62
     7
370
    50
100
AcDbLine
 10
289.072594
 20
470.958628
 30
0.0
 11
282.739733
 21
423.689508
 31
0.0
  0
LINE
  5
139
330
1F
100
AcDbEntity
  8
LC-001-002-----0
 62
     7
370
    50
100
AcDbLine
 10
304.524343
 20
423.689508
 30
0.0
 11
310.857204
 21
470.958628
 31
0.0
  0
LINE
  5
13A
330
1F
100
AcDbEntity
  8
LC-001-002-----0
 62
     7
370
    50
100
AcDbLine
 10
305.281044
 20
423.689508
 30
0.0
 11
311.596115
 21
470.82584
 31
0.0
  0
ARC
  5
13B
330
1F
100
AcDbEntity
  8
LC-003-002-RND-0
 62
     7
370
    50
100
AcDbCircle
 10
312.587259
 20
470.693052
 30
0.0
 40
1.0
100
AcDbArc
 50
90.0
 51
172.36926
  0
ARC
  5
13C
330
1F
100
AcDbEntity
  8
LC-003-002-RND-0
 62
     7
370
    50
100
AcDbCircle
 10
312.839493
 20
470.693052
 30
0.0
 40
2.0
100
AcDbArc
 50
90.0
 51
172.36926
  0
ARC
  5
13D
330
1F
100
AcDbEntity
  8
LC-003-002-RND-0
 62
     7
370
    50
100
AcDbCircle
 10
291.054883
 20
470.693052
 30
0.0
 40
2.0
100
AcDbArc
 50
90.0
 51
172.36926
  0
INSERT
  5
16E
330
1F
100
AcDbEntity
  8
LC-004-005-----0
 62
     7
370
    25
100
AcDbBlockReference
  2
*X55
 10
0.0
 20
0.0
 30
0.0
  0
INSERT
  5
19D
330
1F
100
AcDbEntity
  8
LC-004-005-----0
 62
     7
370
    25
100
AcDbBlockReference
  2
*X66
 10
0.0
 20
0.0
 30
0.0
  0
ARC
  5
19E
330
1F
100
AcDbEntity
  8
LC-001-002-----0
 62
     7
370
    50
100
AcDbCircle
 10
292.09264
 20
258.693052
 30
0.0
 40
5.299999999999926
100
AcDbArc
 50
270.0
 51
0.0
  0
LINE
  5
19F
330
1F
100
AcDbEntity
  8
LC-001-002-----0
 62
     7
370
    50
100
AcDbLine
 10
292.09264
 20
253.393052
 30
0.0
 11
219.84264
 21
253.393052
 31
0.0
  0
LINE
  5
1A0
330
1F
100
AcDbEntity
  8
LC-001-002-----0
 62
     7
370
    50
100
AcDbLine
 10
284.84264
 20
318.693052
 30
0.0
 11
284.84264
 21
253.393052
 31
0.0
  0
LINE
  5
1A1
330
1F
100
AcDbEntity
  8
LC-001-002-----0
 62
     7
370
    50
100
AcDbLine
 10
297.39264
 20
307.693052
 30
0.0
 11
297.39264
 21
258.693052
 31
0.0
  0
ARC
  5
1A2
330
1F
100
AcDbEntity
  8
LC-001-002-----0
 62
     7
370
    50
100
AcDbCircle
 10
303.09264
 20
307.693052
 30
0.0
 40
5.699999999999989
100
AcDbArc
 50
90.0
 51
180.0
  0
LINE
  5
1A3
330
1F
100
AcDbEntity
  8
LC-001-002-----0
 62
     7
370
    50
100
AcDbLine
 10
332.34264
 20
313.393052
 30
0.0
 11
303.09264
 21
313.393052
 31
0.0
  0
LINE
  5
1A4
330
1F
100
AcDbEntity
  8
LC-001-002-----0
 62
     7
370
    50
100
AcDbLine
 10
332.34264
 20
313.393052
 30
0.0
 11
332.34264
 21
313.693052
 31
0.0
  0
LINE
  5
1A5
330
1F
100
AcDbEntity
  8
LC-001-002-----0
 62
     7
370
    50
100
AcDbLine
 10
335.34264
 20
313.693052
 30
0.0
 11
332.34264
 21
313.693052
 31
0.0
  0
LINE
  5
1A6
330
1F
100
AcDbEntity
  8
LC-001-002-----0
 62
     7
370
    50
100
AcDbLine
 10
219.84264
 20
318.693052
 30
0.0
 11
318.59479
 21
318.693052
 31
0.0
  0
LINE
  5
1A7
330
1F
100
AcDbEntity
  8
LC-001-002-----0
 62
     7
370
    50
100
AcDbLine
 10
324.34264
 20
314.689508
 30
0.0
 11
324.34264
 21
318.693052
 31
0.0
  0
LINE
  5
1A8
330
1F
100
AcDbEntity
  8
LC-001-002-----0
 62
     7
370
    50
100
AcDbLine
 10
317.522044
 20
314.689508
 30
0.0
 11
324.34264
 21
314.689508
 31
0.0
  0
LINE
  5
1A9
330
1F
100
AcDbEntity
  8
LC-001-002-----0
 62
     7
370
    50
100
AcDbLine
 10
318.59479
 20
318.693052
 30
0.0
 11
317.522044
 21
314.689508
 31
0.0
  0
LINE
  5
1AA
330
1F
100
AcDbEntity
  8
LC-001-002-----0
 62
     7
370
    50
100
AcDbLine
 10
324.34264
 20
318.693052
 30
0.0
 11
340.34264
 21
318.693052
 31
0.0
  0
ARC
  5
1AB
330
1F
100
AcDbEntity
  8
LC-001-002-----0
 62
     7
370
    50
100
AcDbCircle
 10
147.59264
 20
258.693052
 30
0.0
 40
5.299999999999955
100
AcDbArc
 50
180.0
 51
270.0
  0
LINE
  5
1AC
330
1F
100
AcDbEntity
  8
LC-001-002-----0
 62
     7
370
    50
100
AcDbLine
 10
147.59264
 20
253.393052
 30
0.0
 11
219.84264
 21
253.393052
 31
0.0
  0
LINE
  5
1AD
330
1F
100
AcDbEntity
  8
LC-001-002-----0
 62
     7
370
    50
100
AcDbLine
 10
154.84264
 20
318.693052
 30
0.0
 11
154.84264
 21
253.393052
 31
0.0
  0
LINE
  5
1AE
330
1F
100
AcDbEntity
  8
LC-001-002-----0
 62
     7
370
    50
100
AcDbLine
 10
142.29264
 20
307.693052
 30
0.0
 11
142.29264
 21
258.693052
 31
0.0
  0
ARC
  5
1AF
330
1F
100
AcDbEntity
  8
LC-001-002-----0
 62
     7
370
    50
100
AcDbCircle
 10
136.59264
 20
307.693052
 30
0.0
 40
5.699999999999989
100
AcDbArc
 50
0.0
 51
90.0
  0
LINE
  5
1B0
330
1F
100
AcDbEntity
  8
LC-001-002-----0
 62
     7
370
    50
100
AcDbLine
 10
107.34264
 20
313.393052
 30
0.0
 11
136.59264
 21
313.393052
 31
0.0
  0
LINE
  5
1B1
330
1F
100
AcDbEntity
  8
LC-001-002-----0
 62
     7
370
    50
100
AcDbLine
 10
107.34264
 20
313.393052
 30
0.0
 11
107.34264
 21
313.693052
 31
0.0
  0
LINE
  5
1B2
330
1F
100
AcDbEntity
  8
LC-001-002-----0
 62
     7
370
    50
100
AcDbLine
 10
104.34264
 20
313.693052
 30
0.0
 11
107.34264
 21
313.693052
 31
0.0
  0
ARC
  5
1B3
330
1F
100
AcDbEntity
  8
LC-001-002-----0
 62
     7
370
    50
100
AcDbCircle
 10
104.34264
 20
318.693052
 30
0.0
 40
5.0
100
AcDbArc
 50
180.0
 51
270.0
  0
LINE
  5
1B4
330
1F
100
AcDbEntity
  8
LC-001-002-----0
 62
     7
370
    50
100
AcDbLine
 10
219.84264
 20
318.693052
 30
0.0
 11
121.090491
 21
318.693052
 31
0.0
  0
LINE
  5
1B5
330
1F
100
AcDbEntity
  8
LC-001-002-----0
 62
     7
370
    50
100
AcDbLine
 10
115.34264
 20
314.689508
 30
0.0
 11
115.34264
 21
318.693052
 31
0.0
  0
LINE
  5
1B6
330
1F
100
AcDbEntity
  8
LC-001-002-----0
 62
     7
370
    50
100
AcDbLine
 10
121.090491
 20
318.693052
 30
0.0
 11
122.163237
 21
314.689508
 31
0.0
  0
LINE
  5
1B7
330
1F
100
AcDbEntity
  8
LC-001-002-----0
 62
     7
370
    50
100
AcDbLine
 10
115.34264
 20
318.693052
 30
0.0
 11
100.530586
 21
318.693052
 31
0.0
  0
ARC
  5
1B8
330
1F
100
AcDbEntity
  8
LC-001-002-----0
 62
     7
370
    50
100
AcDbCircle
 10
335.34264
 20
318.693052
 30
0.0
 40
4.99999999999983
100
AcDbArc
 50
270.0
 51
0.0
  0
INSERT
  5
1F5
330
1F
100
AcDbEntity
  8
LC-004-005-----0
 62
     7
370
    25
100
AcDbBlockReference
  2
*X77
 10
0.0
 20
0.0
 30
0.0
  0
LINE
  5
1F6
330
1F
100
AcDbEntity
  8
LC-001-002-----0
 62
     7
370
    50
100
AcDbLine
 10
320.34264
 20
325.216118
 30
0.0
 11
119.34264
 21
325.216118
 31
0.0
  0
CIRCLE
  5
1F7
102
{ACAD_REACTORS
330
2FE
102
}
330
1F
100
AcDbEntity
  8
LC-001-002-----0
 62
     7
370
    50
100
AcDbCircle
 10
681.849912
 20
362.693052
 30
0.0
 40
65.0
  0
CIRCLE
  5
1F8
102
{ACAD_REACTORS
330
2FE
102
}
330
1F
100
AcDbEntity
  8
LC-001-002-----0
 62
     7
370
    50
100
AcDbCircle
 10
681.849912
 20
362.693052
 30
0.0
 40
95.75346582622677
  0
LINE
  5
1F9
102
{ACAD_REACTORS
330
2FE
102
}
330
1F
100
AcDbEntity
  8
LC-001-002-----0
 62
     7
370
    50
100
AcDbLine
 10
464.276273
 20
375.193052
 30
0.0
 11
464.276273
 21
350.193052
 31
0.0
  0
LINE
  5
1FA
102
{ACAD_REACTORS
330
2FE
102
}
330
1F
100
AcDbEntity
  8
LC-001-002-----0
 62
     7
370
    50
100
AcDbLine
 10
779.811414
 20
168.018753
 30
0.0
 11
801.462049
 21
180.518753
 31
0.0
  0
LINE
  5
1FB
102
{ACAD_REACTORS
330
2FE
102
}
330
1F
100
AcDbEntity
  8
LC-001-002-----0
 62
     7
370
    50
100
AcDbLine
 10
801.462049
 20
544.86735
 30
0.0
 11
779.811414
 21
557.36735
 31
0.0
  0
ARC
  5
1FC
102
{ACAD_REACTORS
330
2FE
102
}
330
1F
100
AcDbEntity
  8
LC-001-002-----0
 62
     7
370
    50
100
AcDbCircle
 10
681.849912
 20
362.693052
 30
0.0
 40
120.4999999999943
100
AcDbArc
 50
305.954257
 51
54.045743
  0
LINE
  5
1FE
102
{ACAD_REACTORS
330
2FE
102
}
330
1F
100
AcDbEntity
  8
LC-005-003-----0
 62
     7
370
    25
100
AcDbLine
 10
521.274631
 20
375.193052
 30
0.0
 11
521.274631
 21
350.193052
 31
0.0
  0
LINE
  5
1FF
102
{ACAD_REACTORS
330
2FE
102
}
330
1F
100
AcDbEntity
  8
LC-005-003-----0
 62
     7
370
    25
100
AcDbLine
 10
563.610604
 20
375.193052
 30
0.0
 11
563.610604
 21
350.193052
 31
0.0
  0
LINE
  5
200
102
{ACAD_REACTORS
330
2FE
102
}
330
1F
100
AcDbEntity
  8
LC-005-003-----0
 62
     7
370
    25
100
AcDbLine
 10
751.312234
 20
217.38078
 30
0.0
 11
772.962869
 21
229.88078
 31
0.0
  0
LINE
  5
201
102
{ACAD_REACTORS
330
2FE
102
}
330
1F
100
AcDbEntity
  8
LC-005-003-----0
 62
     7
370
    25
100
AcDbLine
 10
772.962869
 20
495.505324
 30
0.0
 11
751.312234
 21
508.005324
 31
0.0
  0
LINE
  5
202
102
{ACAD_REACTORS
330
2FE
102
}
330
1F
100
AcDbEntity
  8
LC-005-003-----0
 62
     7
370
    25
100
AcDbLine
 10
730.144248
 20
254.044807
 30
0.0
 11
751.794883
 21
266.544807
 31
0.0
  0
LINE
  5
203
102
{ACAD_REACTORS
330
2FE
102
}
330
1F
100
AcDbEntity
  8
LC-005-003-----0
 62
     7
370
    25
100
AcDbLine
 10
751.794883
 20
458.841296
 30
0.0
 11
730.144248
 21
471.341296
 31
0.0
  0
LINE
  5
204
102
{ACAD_REACTORS
330
2FE
102
}
330
1F
100
AcDbEntity
  8
LC-001-002-----0
 62
     7
370
    50
100
AcDbLine
 10
464.276273
 20
350.193052
 30
0.0
 11
569.996202
 21
350.193052
 31
0.0
  0
LINE
  5
205
102
{ACAD_REACTORS
330
2FE
102
}
330
1F
100
AcDbEntity
  8
LC-001-002-----0
 62
     7
370
    50
100
AcDbLine
 10
464.276273
 20
375.193052
 30
0.0
 11
569.996202
 21
375.193052
 31
0.0
  0
LINE
  5
206
102
{ACAD_REACTORS
330
2FE
102
}
330
1F
100
AcDbEntity
  8
LC-001-002-----0
 62
     7
370
    50
100
AcDbLine
 10
779.811414
 20
168.018753
 30
0.0
 11
726.951449
 21
259.574897
 31
0.0
  0
LINE
  5
207
102
{ACAD_REACTORS
330
2FE
102
}
330
1F
100
AcDbEntity
  8
LC-001-002-----0
 62
     7
370
    50
100
AcDbLine
 10
801.462049
 20
544.86735
 30
0.0
 11
748.602084
 21
453.311206
 31
0.0
  0
LINE
  5
208
102
{ACAD_REACTORS
330
2FE
102
}
330
1F
100
AcDbEntity
  8
LC-001-002-----0
 62
     7
370
    50
100
AcDbLine
 10
801.462049
 20
180.518753
 30
0.0
 11
748.602084
 21
272.074897
 31
0.0
  0
LINE
  5
209
102
{ACAD_REACTORS
330
2FE
102
}
330
1F
100
AcDbEntity
  8
LC-001-002-----0
 62
     7
370
    50
100
AcDbLine
 10
779.811414
 20
557.36735
 30
0.0
 11
726.951449
 21
465.811206
 31
0.0
  0
CIRCLE
  5
20A
102
{ACAD_REACTORS
330
2FE
102
}
330
1F
100
AcDbEntity
  8
LC-001-002-----0
 62
     7
370
    50
100
AcDbCircle
 10
681.849912
 20
362.693052
 30
0.0
 40
100.4999999999942
  0
CIRCLE
  5
20B
102
{ACAD_REACTORS
330
2FE
102
}
330
1F
100
AcDbEntity
  8
LC-001-002-----0
 62
     7
370
    50
100
AcDbCircle
 10
681.849912
 20
362.693052
 30
0.0
 40
104.4999999999942
  0
CIRCLE
  5
20C
102
{ACAD_REACTORS
330
2FE
102
}
330
1F
100
AcDbEntity
  8
LC-001-002-----0
 62
     7
370
    50
100
AcDbCircle
 10
681.849912
 20
362.693052
 30
0.0
 40
112.5499999999942
  0
ARC
  5
20D
102
{ACAD_REACTORS
330
2FE
102
}
330
1F
100
AcDbEntity
  8
LC-001-002-----0
 62
     7
370
    50
100
AcDbCircle
 10
681.849912
 20
362.693052
 30
0.0
 40
134.9760704593715
100
AcDbArc
 50
350.106122
 51
359.893878
  0
LINE
  5
20E
102
{ACAD_REACTORS
330
2FE
102
}
330
1F
100
AcDbEntity
  8
LC-001-002-----0
 62
     7
370
    50
100
AcDbLine
 10
800.557245
 20
342.015603
 30
0.0
 11
814.818804
 21
339.500905
 31
0.0
  0
LINE
  5
20F
102
{ACAD_REACTORS
330
2FE
102
}
330
1F
100
AcDbEntity
  8
LC-001-002-----0
 62
     7
370
    50
100
AcDbLine
 10
802.344415
 20
362.443052
 30
0.0
 11
816.825982
 21
362.443052
 31
0.0
  0
ARC
  5
210
102
{ACAD_REACTORS
330
2FE
102
}
330
1F
100
AcDbEntity
  8
LC-001-002-----0
 62
     7
370
    50
100
AcDbCircle
 10
681.849912
 20
362.693052
 30
0.0
 40
120.4999999999945
100
AcDbArc
 50
65.954257
 51
174.045743
  0
ARC
  5
211
102
{ACAD_REACTORS
330
2FE
102
}
330
1F
100
AcDbEntity
  8
LC-001-002-----0
 62
     7
370
    50
100
AcDbCircle
 10
681.849912
 20
362.693052
 30
0.0
 40
120.4999999999945
100
AcDbArc
 50
185.954257
 51
294.045743
  0
ARC
  5
212
102
{ACAD_REACTORS
330
2FE
102
}
330
1F
100
AcDbEntity
  8
LC-001-002-----0
 62
     7
370
    50
100
AcDbCircle
 10
681.849912
 20
362.693052
 30
0.0
 40
134.9760704593715
100
AcDbArc
 50
0.106122
 51
9.893878
  0
LINE
  5
213
102
{ACAD_REACTORS
330
2FE
102
}
330
1F
100
AcDbEntity
  8
LC-001-002-----0
 62
     7
370
    50
100
AcDbLine
 10
802.344415
 20
362.943052
 30
0.0
 11
816.825982
 21
362.943052
 31
0.0
  0
LINE
  5
214
102
{ACAD_REACTORS
330
2FE
102
}
330
1F
100
AcDbEntity
  8
LC-001-002-----0
 62
     7
370
    50
100
AcDbLine
 10
800.557245
 20
383.370501
 30
0.0
 11
814.818804
 21
385.885198
 31
0.0
  0
ARC
  5
215
102
{ACAD_REACTORS
330
2FE
102
}
330
1F
100
AcDbEntity
  8
LC-001-002-----0
 62
     7
370
    50
100
AcDbCircle
 10
681.849912
 20
362.693052
 30
0.0
 40
134.9760704593714
100
AcDbArc
 50
10.106122
 51
19.893878
  0
LINE
  5
216
102
{ACAD_REACTORS
330
2FE
102
}
330
1F
100
AcDbEntity
  8
LC-001-002-----0
 62
     7
370
    50
100
AcDbLine
 10
800.470421
 20
383.862905
 30
0.0
 11
814.73198
 21
386.377602
 31
0.0
  0
LINE
  5
217
102
{ACAD_REACTORS
330
2FE
102
}
330
1F
100
AcDbEntity
  8
LC-001-002-----0
 62
     7
370
    50
100
AcDbLine
 10
795.163212
 20
403.669676
 30
0.0
 11
808.771434
 21
408.622664
 31
0.0
  0
ARC
  5
218
102
{ACAD_REACTORS
330
2FE
102
}
330
1F
100
AcDbEntity
  8
LC-001-002-----0
 62
     7
370
    50
100
AcDbCircle
 10
681.849912
 20
362.693052
 30
0.0
 40
134.9760704593714
100
AcDbArc
 50
20.106122
 51
29.893878
  0
LINE
  5
219
102
{ACAD_REACTORS
330
2FE
102
}
330
1F
100
AcDbEntity
  8
LC-001-002-----0
 62
     7
370
    50
100
AcDbLine
 10
794.992202
 20
404.139522
 30
0.0
 11
808.600424
 21
409.09251
 31
0.0
  0
LINE
  5
21A
102
{ACAD_REACTORS
330
2FE
102
}
330
1F
100
AcDbEntity
  8
LC-001-002-----0
 62
     7
370
    50
100
AcDbLine
 10
786.326213
 20
422.723797
 30
0.0
 11
798.867618
 21
429.964581
 31
0.0
  0
ARC
  5
21B
102
{ACAD_REACTORS
330
2FE
102
}
330
1F
100
AcDbEntity
  8
LC-001-002-----0
 62
     7
370
    50
100
AcDbCircle
 10
681.849912
 20
362.693052
 30
0.0
 40
134.9760704593714
100
AcDbArc
 50
30.106122
 51
39.893878
  0
LINE
  5
21C
102
{ACAD_REACTORS
330
2FE
102
}
330
1F
100
AcDbEntity
  8
LC-001-002-----0
 62
     7
370
    50
100
AcDbLine
 10
786.076213
 20
423.15681
 30
0.0
 11
798.617618
 21
430.397593
 31
0.0
  0
LINE
  5
21D
102
{ACAD_REACTORS
330
2FE
102
}
330
1F
100
AcDbEntity
  8
LC-001-002-----0
 62
     7
370
    50
100
AcDbLine
 10
774.314753
 20
439.953914
 30
0.0
 11
785.408277
 21
449.262486
 31
0.0
  0
ARC
  5
21E
102
{ACAD_REACTORS
330
2FE
102
}
330
1F
100
AcDbEntity
  8
LC-001-002-----0
 62
     7
370
    50
100
AcDbCircle
 10
681.849912
 20
362.693052
 30
0.0
 40
134.9760704593713
100
AcDbArc
 50
40.106122
 51
49.893878
  0
LINE
  5
21F
102
{ACAD_REACTORS
330
2FE
102
}
330
1F
100
AcDbEntity
  8
LC-001-002-----0
 62
     7
370
    50
100
AcDbLine
 10
773.993359
 20
440.336937
 30
0.0
 11
785.086884
 21
449.645509
 31
0.0
  0
LINE
  5
220
102
{ACAD_REACTORS
330
2FE
102
}
330
1F
100
AcDbEntity
  8
LC-001-002-----0
 62
     7
370
    50
100
AcDbLine
 10
759.493797
 20
454.836499
 30
0.0
 11
768.802369
 21
465.930024
 31
0.0
  0
ARC
  5
221
102
{ACAD_REACTORS
330
2FE
102
}
330
1F
100
AcDbEntity
  8
LC-001-002-----0
 62
     7
370
    50
100
AcDbCircle
 10
681.849912
 20
362.693052
 30
0.0
 40
134.9760704593714
100
AcDbArc
 50
50.106122
 51
54.686281
  0
LINE
  5
222
102
{ACAD_REACTORS
330
2FE
102
}
330
1F
100
AcDbEntity
  8
LC-001-002-----0
 62
     7
370
    50
100
AcDbLine
 10
759.110774
 20
455.157893
 30
0.0
 11
768.419346
 21
466.251417
 31
0.0
  0
ARC
  5
223
102
{ACAD_REACTORS
330
2FE
102
}
330
1F
100
AcDbEntity
  8
LC-001-002-----0
 62
     7
370
    50
100
AcDbCircle
 10
681.849912
 20
362.693052
 30
0.0
 40
134.9760704593712
100
AcDbArc
 50
65.313719
 51
69.893878
  0
LINE
  5
224
102
{ACAD_REACTORS
330
2FE
102
}
330
1F
100
AcDbEntity
  8
LC-001-002-----0
 62
     7
370
    50
100
AcDbLine
 10
723.296382
 20
475.835342
 30
0.0
 11
728.24937
 21
489.443564
 31
0.0
  0
ARC
  5
225
102
{ACAD_REACTORS
330
2FE
102
}
330
1F
100
AcDbEntity
  8
LC-001-002-----0
 62
     7
370
    50
100
AcDbCircle
 10
681.849912
 20
362.693052
 30
0.0
 40
134.9760704593713
100
AcDbArc
 50
70.106122
 51
79.893878
  0
LINE
  5
226
102
{ACAD_REACTORS
330
2FE
102
}
330
1F
100
AcDbEntity
  8
LC-001-002-----0
 62
     7
370
    50
100
AcDbLine
 10
722.826536
 20
476.006352
 30
0.0
 11
727.779524
 21
489.614574
 31
0.0
  0
LINE
  5
227
102
{ACAD_REACTORS
330
2FE
102
}
330
1F
100
AcDbEntity
  8
LC-001-002-----0
 62
     7
370
    50
100
AcDbLine
 10
703.019765
 20
481.313561
 30
0.0
 11
705.534462
 21
495.57512
 31
0.0
  0
ARC
  5
228
102
{ACAD_REACTORS
330
2FE
102
}
330
1F
100
AcDbEntity
  8
LC-001-002-----0
 62
     7
370
    50
100
AcDbCircle
 10
681.849912
 20
362.693052
 30
0.0
 40
134.9760704593712
100
AcDbArc
 50
80.106122
 51
89.893878
  0
LINE
  5
229
102
{ACAD_REACTORS
330
2FE
102
}
330
1F
100
AcDbEntity
  8
LC-001-002-----0
 62
     7
370
    50
100
AcDbLine
 10
702.527361
 20
481.400385
 30
0.0
 11
705.042058
 21
495.661944
 31
0.0
  0
LINE
  5
22A
102
{ACAD_REACTORS
330
2FE
102
}
330
1F
100
AcDbEntity
  8
LC-001-002-----0
 62
     7
370
    50
100
AcDbLine
 10
682.099912
 20
483.187555
 30
0.0
 11
682.099912
 21
497.669122
 31
0.0
  0
ARC
  5
22B
102
{ACAD_REACTORS
330
2FE
102
}
330
1F
100
AcDbEntity
  8
LC-001-002-----0
 62
     7
370
    50
100
AcDbCircle
 10
681.849912
 20
362.693052
 30
0.0
 40
134.9760704593713
100
AcDbArc
 50
90.106122
 51
99.893878
  0
LINE
  5
22C
102
{ACAD_REACTORS
330
2FE
102
}
330
1F
100
AcDbEntity
  8
LC-001-002-----0
 62
     7
370
    50
100
AcDbLine
 10
681.599912
 20
483.187555
 30
0.0
 11
681.599912
 21
497.669122
 31
0.0
  0
LINE
  5
22D
102
{ACAD_REACTORS
330
2FE
102
}
330
1F
100
AcDbEntity
  8
LC-001-002-----0
 62
     7
370
    50
100
AcDbLine
 10
661.172463
 20
481.400385
 30
0.0
 11
658.657765
 21
495.661944
 31
0.0
  0
ARC
  5
22E
102
{ACAD_REACTORS
330
2FE
102
}
330
1F
100
AcDbEntity
  8
LC-001-002-----0
 62
     7
370
    50
100
AcDbCircle
 10
681.849912
 20
362.693052
 30
0.0
 40
134.9760704593713
100
AcDbArc
 50
100.106122
 51
109.893878
  0
LINE
  5
22F
102
{ACAD_REACTORS
330
2FE
102
}
330
1F
100
AcDbEntity
  8
LC-001-002-----0
 62
     7
370
    50
100
AcDbLine
 10
660.680059
 20
481.313561
 30
0.0
 11
658.165361
 21
495.57512
 31
0.0
  0
LINE
  5
230
102
{ACAD_REACTORS
330
2FE
102
}
330
1F
100
AcDbEntity
  8
LC-001-002-----0
 62
     7
370
    50
100
AcDbLine
 10
640.873288
 20
476.006352
 30
0.0
 11
635.9203
 21
489.614574
 31
0.0
  0
ARC
  5
231
102
{ACAD_REACTORS
330
2FE
102
}
330
1F
100
AcDbEntity
  8
LC-001-002-----0
 62
     7
370
    50
100
AcDbCircle
 10
681.849912
 20
362.693052
 30
0.0
 40
134.9760704593712
100
AcDbArc
 50
110.106122
 51
119.893878
  0
LINE
  5
232
102
{ACAD_REACTORS
330
2FE
102
}
330
1F
100
AcDbEntity
  8
LC-001-002-----0
 62
     7
370
    50
100
AcDbLine
 10
640.403441
 20
475.835342
 30
0.0
 11
635.450454
 21
489.443564
 31
0.0
  0
LINE
  5
233
102
{ACAD_REACTORS
330
2FE
102
}
330
1F
100
AcDbEntity
  8
LC-001-002-----0
 62
     7
370
    50
100
AcDbLine
 10
621.819167
 20
467.169353
 30
0.0
 11
614.578383
 21
479.710758
 31
0.0
  0
ARC
  5
234
102
{ACAD_REACTORS
330
2FE
102
}
330
1F
100
AcDbEntity
  8
LC-001-002-----0
 62
     7
370
    50
100
AcDbCircle
 10
681.849912
 20
362.693052
 30
0.0
 40
134.9760704593712
100
AcDbArc
 50
120.106122
 51
129.893878
  0
LINE
  5
235
102
{ACAD_REACTORS
330
2FE
102
}
330
1F
100
AcDbEntity
  8
LC-001-002-----0
 62
     7
370
    50
100
AcDbLine
 10
621.386154
 20
466.919353
 30
0.0
 11
614.14537
 21
479.460758
 31
0.0
  0
LINE
  5
236
102
{ACAD_REACTORS
330
2FE
102
}
330
1F
100
AcDbEntity
  8
LC-001-002-----0
 62
     7
370
    50
100
AcDbLine
 10
604.589049
 20
455.157893
 30
0.0
 11
595.280477
 21
466.251417
 31
0.0
  0
ARC
  5
237
102
{ACAD_REACTORS
330
2FE
102
}
330
1F
100
AcDbEntity
  8
LC-001-002-----0
 62
     7
370
    50
100
AcDbCircle
 10
681.849912
 20
362.693052
 30
0.0
 40
134.9760704593712
100
AcDbArc
 50
130.106122
 51
139.893878
  0
LINE
  5
238
102
{ACAD_REACTORS
330
2FE
102
}
330
1F
100
AcDbEntity
  8
LC-001-002-----0
 62
     7
370
    50
100
AcDbLine
 10
604.206027
 20
454.836499
 30
0.0
 11
594.897455
 21
465.930024
 31
0.0
  0
LINE
  5
239
102
{ACAD_REACTORS
330
2FE
102
}
330
1F
100
AcDbEntity
  8
LC-001-002-----0
 62
     7
370
    50
100
AcDbLine
 10
589.706464
 20
440.336937
 30
0.0
 11
578.61294
 21
449.645509
 31
0.0
  0
ARC
  5
23A
102
{ACAD_REACTORS
330
2FE
102
}
330
1F
100
AcDbEntity
  8
LC-001-002-----0
 62
     7
370
    50
100
AcDbCircle
 10
681.849912
 20
362.693052
 30
0.0
 40
134.9760704593711
100
AcDbArc
 50
140.106122
 51
149.893878
  0
LINE
  5
23B
102
{ACAD_REACTORS
330
2FE
102
}
330
1F
100
AcDbEntity
  8
LC-001-002-----0
 62
     7
370
    50
100
AcDbLine
 10
589.38507
 20
439.953914
 30
0.0
 11
578.291546
 21
449.262486
 31
0.0
  0
LINE
  5
23C
102
{ACAD_REACTORS
330
2FE
102
}
330
1F
100
AcDbEntity
  8
LC-001-002-----0
 62
     7
370
    50
100
AcDbLine
 10
577.623611
 20
423.15681
 30
0.0
 11
565.082206
 21
430.397593
 31
0.0
  0
ARC
  5
23D
102
{ACAD_REACTORS
330
2FE
102
}
330
1F
100
AcDbEntity
  8
LC-001-002-----0
 62
     7
370
    50
100
AcDbCircle
 10
681.849912
 20
362.693052
 30
0.0
 40
134.9760704593712
100
AcDbArc
 50
150.106122
 51
159.893878
  0
LINE
  5
23E
102
{ACAD_REACTORS
330
2FE
102
}
330
1F
100
AcDbEntity
  8
LC-001-002-----0
 62
     7
370
    50
100
AcDbLine
 10
577.373611
 20
422.723797
 30
0.0
 11
564.832206
 21
429.964581
 31
0.0
  0
LINE
  5
23F
102
{ACAD_REACTORS
330
2FE
102
}
330
1F
100
AcDbEntity
  8
LC-001-002-----0
 62
     7
370
    50
100
AcDbLine
 10
568.707621
 20
404.139522
 30
0.0
 11
555.099399
 21
409.09251
 31
0.0
  0
ARC
  5
240
102
{ACAD_REACTORS
330
2FE
102
}
330
1F
100
AcDbEntity
  8
LC-001-002-----0
 62
     7
370
    50
100
AcDbCircle
 10
681.849912
 20
362.693052
 30
0.0
 40
134.9760704593712
100
AcDbArc
 50
160.106122
 51
169.893878
  0
LINE
  5
241
102
{ACAD_REACTORS
330
2FE
102
}
330
1F
100
AcDbEntity
  8
LC-001-002-----0
 62
     7
370
    50
100
AcDbLine
 10
568.536611
 20
403.669676
 30
0.0
 11
554.928389
 21
408.622664
 31
0.0
  0
LINE
  5
242
102
{ACAD_REACTORS
330
2FE
102
}
330
1F
100
AcDbEntity
  8
LC-001-002-----0
 62
     7
370
    50
100
AcDbLine
 10
563.229403
 20
383.862905
 30
0.0
 11
548.967843
 21
386.377602
 31
0.0
  0
ARC
  5
243
102
{ACAD_REACTORS
330
2FE
102
}
330
1F
100
AcDbEntity
  8
LC-001-002-----0
 62
     7
370
    50
100
AcDbCircle
 10
681.849912
 20
362.693052
 30
0.0
 40
134.9760704593711
100
AcDbArc
 50
170.106122
 51
174.686281
  0
LINE
  5
244
102
{ACAD_REACTORS
330
2FE
102
}
330
1F
100
AcDbEntity
  8
LC-001-002-----0
 62
     7
370
    50
100
AcDbLine
 10
563.142579
 20
383.370501
 30
0.0
 11
548.881019
 21
385.885198
 31
0.0
  0
ARC
  5
245
102
{ACAD_REACTORS
330
2FE
102
}
330
1F
100
AcDbEntity
  8
LC-001-002-----0
 62
     7
370
    50
100
AcDbCircle
 10
681.849912
 20
362.693052
 30
0.0
 40
134.9760704593712
100
AcDbArc
 50
185.313719
 51
189.893878
  0
LINE
  5
246
102
{ACAD_REACTORS
330
2FE
102
}
330
1F
100
AcDbEntity
  8
LC-001-002-----0
 62
     7
370
    50
100
AcDbLine
 10
563.142579
 20
342.015603
 30
0.0
 11
548.881019
 21
339.500905
 31
0.0
  0
ARC
  5
247
102
{ACAD_REACTORS
330
2FE
102
}
330
1F
100
AcDbEntity
  8
LC-001-002-----0
 62
     7
370
    50
100
AcDbCircle
 10
681.849912
 20
362.693052
 30
0.0
 40
134.9760704593712
100
AcDbArc
 50
190.106122
 51
199.893878
  0
LINE
  5
248
102
{ACAD_REACTORS
330
2FE
102
}
330
1F
100
AcDbEntity
  8
LC-001-002-----0
 62
     7
370
    50
100
AcDbLine
 10
563.229403
 20
341.523199
 30
0.0
 11
548.967843
 21
339.008501
 31
0.0
  0
LINE
  5
249
102
{ACAD_REACTORS
330
2FE
102
}
330
1F
100
AcDbEntity
  8
LC-001-002-----0
 62
     7
370
    50
100
AcDbLine
 10
568.536611
 20
321.716428
 30
0.0
 11
554.928389
 21
316.76344
 31
0.0
  0
ARC
  5
24A
102
{ACAD_REACTORS
330
2FE
102
}
330
1F
100
AcDbEntity
  8
LC-001-002-----0
 62
     7
370
    50
100
AcDbCircle
 10
681.849912
 20
362.693052
 30
0.0
 40
134.9760704593713
100
AcDbArc
 50
200.106122
 51
209.893878
  0
LINE
  5
24B
102
{ACAD_REACTORS
330
2FE
102
}
330
1F
100
AcDbEntity
  8
LC-001-002-----0
 62
     7
370
    50
100
AcDbLine
 10
568.707621
 20
321.246581
 30
0.0
 11
555.099399
 21
316.293594
 31
0.0
  0
LINE
  5
24C
102
{ACAD_REACTORS
330
2FE
102
}
330
1F
100
AcDbEntity
  8
LC-001-002-----0
 62
     7
370
    50
100
AcDbLine
 10
577.373611
 20
302.662306
 30
0.0
 11
564.832206
 21
295.421523
 31
0.0
  0
ARC
  5
24D
102
{ACAD_REACTORS
330
2FE
102
}
330
1F
100
AcDbEntity
  8
LC-001-002-----0
 62
     7
370
    50
100
AcDbCircle
 10
681.849912
 20
362.693052
 30
0.0
 40
134.9760704593712
100
AcDbArc
 50
210.106122
 51
219.893878
  0
LINE
  5
24E
102
{ACAD_REACTORS
330
2FE
102
}
330
1F
100
AcDbEntity
  8
LC-001-002-----0
 62
     7
370
    50
100
AcDbLine
 10
577.623611
 20
302.229294
 30
0.0
 11
565.082206
 21
294.98851
 31
0.0
  0
LINE
  5
24F
102
{ACAD_REACTORS
330
2FE
102
}
330
1F
100
AcDbEntity
  8
LC-001-002-----0
 62
     7
370
    50
100
AcDbLine
 10
589.38507
 20
285.432189
 30
0.0
 11
578.291546
 21
276.123617
 31
0.0
  0
ARC
  5
250
102
{ACAD_REACTORS
330
2FE
102
}
330
1F
100
AcDbEntity
  8
LC-001-002-----0
 62
     7
370
    50
100
AcDbCircle
 10
681.849912
 20
362.693052
 30
0.0
 40
134.976070459371
100
AcDbArc
 50
220.106122
 51
229.893878
  0
LINE
  5
251
102
{ACAD_REACTORS
330
2FE
102
}
330
1F
100
AcDbEntity
  8
LC-001-002-----0
 62
     7
370
    50
100
AcDbLine
 10
589.706464
 20
285.049167
 30
0.0
 11
578.61294
 21
275.740595
 31
0.0
  0
LINE
  5
252
102
{ACAD_REACTORS
330
2FE
102
}
330
1F
100
AcDbEntity
  8
LC-001-002-----0
 62
     7
370
    50
100
AcDbLine
 10
604.206027
 20
270.549604
 30
0.0
 11
594.897455
 21
259.45608
 31
0.0
  0
ARC
  5
253
102
{ACAD_REACTORS
330
2FE
102
}
330
1F
100
AcDbEntity
  8
LC-001-002-----0
 62
     7
370
    50
100
AcDbCircle
 10
681.849912
 20
362.693052
 30
0.0
 40
134.976070459371
100
AcDbArc
 50
230.106122
 51
239.893878
  0
LINE
  5
254
102
{ACAD_REACTORS
330
2FE
102
}
330
1F
100
AcDbEntity
  8
LC-001-002-----0
 62
     7
370
    50
100
AcDbLine
 10
604.589049
 20
270.22821
 30
0.0
 11
595.280477
 21
259.134686
 31
0.0
  0
LINE
  5
255
102
{ACAD_REACTORS
330
2FE
102
}
330
1F
100
AcDbEntity
  8
LC-001-002-----0
 62
     7
370
    50
100
AcDbLine
 10
621.386154
 20
258.466751
 30
0.0
 11
614.14537
 21
245.925346
 31
0.0
  0
ARC
  5
256
102
{ACAD_REACTORS
330
2FE
102
}
330
1F
100
AcDbEntity
  8
LC-001-002-----0
 62
     7
370
    50
100
AcDbCircle
 10
681.849912
 20
362.693052
 30
0.0
 40
134.9760704593712
100
AcDbArc
 50
240.106122
 51
249.893878
  0
LINE
  5
257
102
{ACAD_REACTORS
330
2FE
102
}
330
1F
100
AcDbEntity
  8
LC-001-002-----0
 62
     7
370
    50
100
AcDbLine
 10
621.819167
 20
258.216751
 30
0.0
 11
614.578383
 21
245.675346
 31
0.0
  0
LINE
  5
258
102
{ACAD_REACTORS
330
2FE
102
}
330
1F
100
AcDbEntity
  8
LC-001-002-----0
 62
     7
370
    50
100
AcDbLine
 10
640.403441
 20
249.550761
 30
0.0
 11
635.450454
 21
235.942539
 31
0.0
  0
ARC
  5
259
102
{ACAD_REACTORS
330
2FE
102
}
330
1F
100
AcDbEntity
  8
LC-001-002-----0
 62
     7
370
    50
100
AcDbCircle
 10
681.849912
 20
362.693052
 30
0.0
 40
134.9760704593711
100
AcDbArc
 50
250.106122
 51
259.893878
  0
LINE
  5
25A
102
{ACAD_REACTORS
330
2FE
102
}
330
1F
100
AcDbEntity
  8
LC-001-002-----0
 62
     7
370
    50
100
AcDbLine
 10
640.873288
 20
249.379751
 30
0.0
 11
635.9203
 21
235.771529
 31
0.0
  0
LINE
  5
25B
102
{ACAD_REACTORS
330
2FE
102
}
330
1F
100
AcDbEntity
  8
LC-001-002-----0
 62
     7
370
    50
100
AcDbLine
 10
660.680059
 20
244.072543
 30
0.0
 11
658.165361
 21
229.810983
 31
0.0
  0
ARC
  5
25C
102
{ACAD_REACTORS
330
2FE
102
}
330
1F
100
AcDbEntity
  8
LC-001-002-----0
 62
     7
370
    50
100
AcDbCircle
 10
681.849912
 20
362.693052
 30
0.0
 40
134.9760704593712
100
AcDbArc
 50
260.106122
 51
269.893878
  0
LINE
  5
25D
102
{ACAD_REACTORS
330
2FE
102
}
330
1F
100
AcDbEntity
  8
LC-001-002-----0
 62
     7
370
    50
100
AcDbLine
 10
661.172463
 20
243.985719
 30
0.0
 11
658.657765
 21
229.724159
 31
0.0
  0
LINE
  5
25E
102
{ACAD_REACTORS
330
2FE
102
}
330
1F
100
AcDbEntity
  8
LC-001-002-----0
 62
     7
370
    50
100
AcDbLine
 10
681.599912
 20
242.198549
 30
0.0
 11
681.599912
 21
227.716981
 31
0.0
  0
ARC
  5
25F
102
{ACAD_REACTORS
330
2FE
102
}
330
1F
100
AcDbEntity
  8
LC-001-002-----0
 62
     7
370
    50
100
AcDbCircle
 10
681.849912
 20
362.693052
 30
0.0
 40
134.9760704593711
100
AcDbArc
 50
270.106122
 51
279.893878
  0
LINE
  5
260
102
{ACAD_REACTORS
330
2FE
102
}
330
1F
100
AcDbEntity
  8
LC-001-002-----0
 62
     7
370
    50
100
AcDbLine
 10
682.099912
 20
242.198549
 30
0.0
 11
682.099912
 21
227.716981
 31
0.0
  0
LINE
  5
261
102
{ACAD_REACTORS
330
2FE
102
}
330
1F
100
AcDbEntity
  8
LC-001-002-----0
 62
     7
370
    50
100
AcDbLine
 10
702.527361
 20
243.985719
 30
0.0
 11
705.042058
 21
229.724159
 31
0.0
  0
ARC
  5
262
102
{ACAD_REACTORS
330
2FE
102
}
330
1F
100
AcDbEntity
  8
LC-001-002-----0
 62
     7
370
    50
100
AcDbCircle
 10
681.849912
 20
362.693052
 30
0.0
 40
134.9760704593711
100
AcDbArc
 50
280.106122
 51
289.893878
  0
LINE
  5
263
102
{ACAD_REACTORS
330
2FE
102
}
330
1F
100
AcDbEntity
  8
LC-001-002-----0
 62
     7
370
    50
100
AcDbLine
 10
703.019765
 20
244.072543
 30
0.0
 11
705.534462
 21
229.810983
 31
0.0
  0
LINE
  5
264
102
{ACAD_REACTORS
330
2FE
102
}
330
1F
100
AcDbEntity
  8
LC-001-002-----0
 62
     7
370
    50
100
AcDbLine
 10
722.826536
 20
249.379751
 30
0.0
 11
727.779524
 21
235.771529
 31
0.0
  0
ARC
  5
265
102
{ACAD_REACTORS
330
2FE
102
}
330
1F
100
AcDbEntity
  8
LC-001-002-----0
 62
     7
370
    50
100
AcDbCircle
 10
681.849912
 20
362.693052
 30
0.0
 40
134.9760704593711
100
AcDbArc
 50
290.106122
 51
294.686281
  0
LINE
  5
266
102
{ACAD_REACTORS
330
2FE
102
}
330
1F
100
AcDbEntity
  8
LC-001-002-----0
 62
     7
370
    50
100
AcDbLine
 10
723.296382
 20
249.550761
 30
0.0
 11
728.24937
 21
235.942539
 31
0.0
  0
ARC
  5
267
102
{ACAD_REACTORS
330
2FE
102
}
330
1F
100
AcDbEntity
  8
LC-001-002-----0
 62
     7
370
    50
100
AcDbCircle
 10
681.849912
 20
362.693052
 30
0.0
 40
134.9760704593711
100
AcDbArc
 50
305.313719
 51
309.893878
  0
LINE
  5
268
102
{ACAD_REACTORS
330
2FE
102
}
330
1F
100
AcDbEntity
  8
LC-001-002-----0
 62
     7
370
    50
100
AcDbLine
 10
759.110774
 20
270.22821
 30
0.0
 11
768.419346
 21
259.134686
 31
0.0
  0
ARC
  5
269
102
{ACAD_REACTORS
330
2FE
102
}
330
1F
100
AcDbEntity
  8
LC-001-002-----0
 62
     7
370
    50
100
AcDbCircle
 10
681.849912
 20
362.693052
 30
0.0
 40
134.976070459371
100
AcDbArc
 50
310.106122
 51
319.893878
  0
LINE
  5
26A
102
{ACAD_REACTORS
330
2FE
102
}
330
1F
100
AcDbEntity
  8
LC-001-002-----0
 62
     7
370
    50
100
AcDbLine
 10
759.493797
 20
270.549604
 30
0.0
 11
768.802369
 21
259.45608
 31
0.0
  0
LINE
  5
26B
102
{ACAD_REACTORS
330
2FE
102
}
330
1F
100
AcDbEntity
  8
LC-001-002-----0
 62
     7
370
    50
100
AcDbLine
 10
773.993359
 20
285.049167
 30
0.0
 11
785.086884
 21
275.740595
 31
0.0
  0
ARC
  5
26C
102
{ACAD_REACTORS
330
2FE
102
}
330
1F
100
AcDbEntity
  8
LC-001-002-----0
 62
     7
370
    50
100
AcDbCircle
 10
681.849912
 20
362.693052
 30
0.0
 40
134.976070459371
100
AcDbArc
 50
320.106122
 51
329.893878
  0
LINE
  5
26D
102
{ACAD_REACTORS
330
2FE
102
}
330
1F
100
AcDbEntity
  8
LC-001-002-----0
 62
     7
370
    50
100
AcDbLine
 10
774.314753
 20
285.432189
 30
0.0
 11
785.408277
 21
276.123617
 31
0.0
  0
LINE
  5
26E
102
{ACAD_REACTORS
330
2FE
102
}
330
1F
100
AcDbEntity
  8
LC-001-002-----0
 62
     7
370
    50
100
AcDbLine
 10
786.076213
 20
302.229294
 30
0.0
 11
798.617618
 21
294.98851
 31
0.0
  0
ARC
  5
26F
102
{ACAD_REACTORS
330
2FE
102
}
330
1F
100
AcDbEntity
  8
LC-001-002-----0
 62
     7
370
    50
100
AcDbCircle
 10
681.849912
 20
362.693052
 30
0.0
 40
134.9760704593711
100
AcDbArc
 50
330.106122
 51
339.893878
  0
LINE
  5
270
102
{ACAD_REACTORS
330
2FE
102
}
330
1F
100
AcDbEntity
  8
LC-001-002-----0
 62
     7
370
    50
100
AcDbLine
 10
786.326213
 20
302.662306
 30
0.0
 11
798.867618
 21
295.421523
 31
0.0
  0
LINE
  5
271
102
{ACAD_REACTORS
330
2FE
102
}
330
1F
100
AcDbEntity
  8
LC-001-002-----0
 62
     7
370
    50
100
AcDbLine
 10
794.992202
 20
321.246581
 30
0.0
 11
808.600424
 21
316.293594
 31
0.0
  0
ARC
  5
272
102
{ACAD_REACTORS
330
2FE
102
}
330
1F
100
AcDbEntity
  8
LC-001-002-----0
 62
     7
370
    50
100
AcDbCircle
 10
681.849912
 20
362.693052
 30
0.0
 40
134.976070459371
100
AcDbArc
 50
340.106122
 51
349.893878
  0
LINE
  5
273
102
{ACAD_REACTORS
330
2FE
102
}
330
1F
100
AcDbEntity
  8
LC-001-002-----0
 62
     7
370
    50
100
AcDbLine
 10
795.163212
 20
321.716428
 30
0.0
 11
808.771434
 21
316.76344
 31
0.0
  0
LINE
  5
274
102
{ACAD_REACTORS
330
2FE
102
}
330
1F
100
AcDbEntity
  8
LC-001-002-----0
 62
     7
370
    50
100
AcDbLine
 10
800.470421
 20
341.523199
 30
0.0
 11
814.73198
 21
339.008501
 31
0.0
  0
DIMENSION
  5
277
330
1F
100
AcDbEntity
  8
LC-005-003-----0
 62
     7
370
    25
100
AcDbDimension
  2
*D8
 10
378.0
 20
318.693052
 30
0.0
 11
347.2
 21
365.800744
 31
0.0
 70
   160
 71
     5
 42
104.996457
 53
90.0
  3
LC-DIM-L-0140-02-02
100
AcDbAlignedDimension
 13
320.34264
 23
423.689508
 33
0.0
 14
324.34264
 24
318.693052
 34
0.0
 50
90.0
100
AcDbRotatedDimension
  0
DIMENSION
  5
285
330
1F
100
AcDbEntity
  8
LC-005-003-----0
 62
     7
370
    25
100
AcDbDimension
  2
*D9
 10
284.84264
 20
210.0
 30
0.0
 11
219.84264
 21
240.8
 31
0.0
 70
   160
  1
%%c<>
 71
     5
 42
130.0
  3
LC-DIM-L-0140-02-02
100
AcDbAlignedDimension
 13
154.84264
 23
253.393052
 33
0.0
 14
284.84264
 24
253.393052
 34
0.0
100
AcDbRotatedDimension
  0
LINE
  5
292
330
1F
100
AcDbEntity
  8
LC-001-002-----0
 62
     7
370
    50
100
AcDbLine
 10
115.34264
 20
322.781296
 30
0.0
 11
99.435144
 21
322.781296
 31
0.0
  0
LINE
  5
293
330
1F
100
AcDbEntity
  8
LC-001-002-----0
 62
     7
370
    50
100
AcDbLine
 10
98.399868
 20
322.781296
 30
0.0
 11
84.944216
 21
322.781296
 31
0.0
  0
LINE
  5
294
330
1F
100
AcDbEntity
  8
LC-001-002-----0
 62
     7
370
    50
100
AcDbLine
 10
317.522044
 20
314.689508
 30
0.0
 11
324.34264
 21
314.689508
 31
0.0
  0
LINE
  5
295
330
1F
100
AcDbEntity
  8
LC-001-002-----0
 62
     7
370
    50
100
AcDbLine
 10
99.49531
 20
318.693052
 30
0.0
 11
99.347878
 21
318.693052
 31
0.0
  0
LINE
  5
296
102
{ACAD_REACTORS
330
2FD
102
}
330
1F
100
AcDbEntity
  8
LC-001-002-----0
 62
     7
370
    50
100
AcDbLine
 10
324.34264
 20
318.693052
 30
0.0
 11
341.34264
 21
318.693052
 31
0.0
  0
DIMENSION
  5
297
330
1F
100
AcDbEntity
  8
LC-005-003-----0
 62
     7
370
    25
100
AcDbDimension
  2
*D10
 10
320.34264
 20
490.0
 30
0.0
 11
219.84264
 21
520.8
 31
0.0
 70
   160
  1
%%c<>
 71
     5
 42
201.0
  3
LC-DIM-L-0140-02-02
100
AcDbAlignedDimension
 13
119.34264
 23
398.689508
 33
0.0
 14
320.34264
 24
398.689508
 34
0.0
100
AcDbRotatedDimension
  0
DIMENSION
  5
2A4
330
1F
100
AcDbEntity
  8
LC-005-003-----0
 62
     7
370
    25
100
AcDbDimension
  2
*D11
 10
434.0
 20
252.693052
 30
0.0
 11
403.2
 21
338.19128
 31
0.0
 70
   160
 71
     5
 42
170.996457
 53
90.0
  3
LC-DIM-L-0140-02-02
100
AcDbAlignedDimension
 13
324.34264
 23
423.689508
 33
0.0
 14
292.09264
 24
252.693052
 34
0.0
 50
90.0
100
AcDbRotatedDimension
  0
DIMENSION
  5
2B1
330
1F
100
AcDbEntity
  8
LC-005-003-----0
 62
     7
370
    25
100
AcDbDimension
  2
*D12
 10
378.0
 20
471.693052
 30
0.0
 11
347.2
 21
447.69128
 31
0.0
 70
   160
 71
     5
 42
48.003543
 53
90.0
  3
LC-DIM-L-0140-02-02
100
AcDbAlignedDimension
 13
324.34264
 23
423.689508
 33
0.0
 14
334.691638
 24
471.693052
 34
0.0
 50
90.0
100
AcDbRotatedDimension
  0
LINE
  5
2C1
330
1F
100
AcDbEntity
  8
LC-001-002-----0
  6
DASHDOT
 62
     7
370
    25
100
AcDbLine
 10
464.276273
 20
362.693052
 30
0.0
 11
816.825982
 21
362.443052
 31
0.0
  0
LINE
  5
2C2
330
1F
100
AcDbEntity
  8
LC-001-002-----0
  6
DASHDOT
 62
     7
370
    25
100
AcDbLine
 10
790.636731
 20
551.11735
 30
0.0
 11
681.849912
 21
362.693052
 31
0.0
  0
LINE
  5
2C3
330
1F
100
AcDbEntity
  8
LC-001-002-----0
  6
DASHDOT
 62
     7
370
    25
100
AcDbLine
 10
681.849912
 20
362.693052
 30
0.0
 11
790.636731
 21
174.268753
 31
0.0
  0
LINE
  5
2C4
330
1F
100
AcDbEntity
  8
LC-001-002-----0
  6
DASHDOT
 62
     7
370
    25
100
AcDbLine
 10
681.849912
 20
227.716981
 30
0.0
 11
681.849912
 21
497.669122
 31
0.0
  0
LINE
  5
2C5
102
{ACAD_REACTORS
330
2FF
102
}
330
1F
100
AcDbEntity
  8
LC-001-002-----0
 62
     7
370
    50
100
AcDbLine
 10
111.84264
 20
401.689508
 30
0.0
 11
111.84264
 21
402.189508
 31
0.0
  0
LINE
  5
2C6
102
{ACAD_REACTORS
330
2FF
102
}
330
1F
100
AcDbEntity
  8
LC-001-002-----0
 62
     7
370
    50
100
AcDbLine
 10
119.34264
 20
400.689508
 30
0.0
 11
119.34264
 21
404.689508
 31
0.0
  0
ARC
  5
2C7
102
{ACAD_REACTORS
330
2FF
102
}
330
1F
100
AcDbEntity
  8
LC-001-002-----0
 62
     7
370
    50
100
AcDbCircle
 10
137.34264
 20
401.189508
 30
0.0
 40
0.5000000000000169
100
AcDbArc
 50
255.917352
 51
39.059812
  0
LINE
  5
2C8
102
{ACAD_REACTORS
330
2FF
102
}
330
1F
100
AcDbEntity
  8
LC-001-002-----0
 62
     7
370
    50
100
AcDbLine
 10
137.730885
 20
401.504574
 30
0.0
 11
128.142794
 21
413.31964
 31
0.0
  0
LINE
  5
2C9
102
{ACAD_REACTORS
330
2FF
102
}
330
1F
100
AcDbEntity
  8
LC-001-002-----0
 62
     7
370
    50
100
AcDbLine
 10
112.84264
 20
413.689508
 30
0.0
 11
111.84264
 21
412.689508
 31
0.0
  0
LINE
  5
2CA
102
{ACAD_REACTORS
330
2FF
102
}
330
1F
100
AcDbEntity
  8
LC-001-002-----0
 62
     7
370
    50
100
AcDbLine
 10
112.84264
 20
400.689508
 30
0.0
 11
111.84264
 21
401.689508
 31
0.0
  0
LINE
  5
2CB
102
{ACAD_REACTORS
330
2FF
102
}
330
1F
100
AcDbEntity
  8
LC-001-002-----0
 62
     7
370
    50
100
AcDbLine
 10
219.84264
 20
413.689508
 30
0.0
 11
112.84264
 21
413.689508
 31
0.0
  0
LINE
  5
2CC
102
{ACAD_REACTORS
330
2FF
102
}
330
1F
100
AcDbEntity
  8
LC-001-002-----0
 62
     7
370
    50
100
AcDbLine
 10
219.84264
 20
400.689508
 30
0.0
 11
112.84264
 21
400.689508
 31
0.0
  0
ARC
  5
2CD
102
{ACAD_REACTORS
330
2FF
102
}
330
1F
100
AcDbEntity
  8
LC-003-002-RND-0
 62
     7
370
    50
100
AcDbCircle
 10
127.366305
 20
412.689508
 30
0.0
 40
0.9999999999999871
100
AcDbArc
 50
39.059812
 51
90.0
  0
LINE
  5
2CE
102
{ACAD_REACTORS
330
2FF
102
}
330
1F
100
AcDbEntity
  8
LC-001-002-----0
 62
     7
370
    50
100
AcDbLine
 10
111.34264
 20
411.689508
 30
0.0
 11
111.84264
 21
412.189508
 31
0.0
  0
LINE
  5
2CF
102
{ACAD_REACTORS
330
2FF
102
}
330
1F
100
AcDbEntity
  8
LC-001-002-----0
 62
     7
370
    50
100
AcDbLine
 10
111.34264
 20
411.689508
 30
0.0
 11
111.84264
 21
411.189508
 31
0.0
  0
LINE
  5
2D0
102
{ACAD_REACTORS
330
2FF
102
}
330
1F
100
AcDbEntity
  8
LC-001-002-----0
 62
     7
370
    50
100
AcDbLine
 10
111.34264
 20
402.689508
 30
0.0
 11
111.84264
 21
403.189508
 31
0.0
  0
LINE
  5
2D1
102
{ACAD_REACTORS
330
2FF
102
}
330
1F
100
AcDbEntity
  8
LC-001-002-----0
 62
     7
370
    50
100
AcDbLine
 10
111.34264
 20
402.689508
 30
0.0
 11
111.84264
 21
402.189508
 31
0.0
  0
LINE
  5
2D2
102
{ACAD_REACTORS
330
2FF
102
}
330
1F
100
AcDbEntity
  8
LC-001-002-----0
 62
     7
370
    50
100
AcDbLine
 10
111.34264
 20
407.189508
 30
0.0
 11
111.84264
 21
407.689508
 31
0.0
  0
LINE
  5
2D3
102
{ACAD_REACTORS
330
2FF
102
}
330
1F
100
AcDbEntity
  8
LC-001-002-----0
 62
     7
370
    50
100
AcDbLine
 10
111.34264
 20
407.189508
 30
0.0
 11
111.84264
 21
406.689508
 31
0.0
  0
LINE
  5
2D4
102
{ACAD_REACTORS
330
2FF
102
}
330
1F
100
AcDbEntity
  8
LC-001-002-----0
 62
     7
370
    50
100
AcDbLine
 10
111.84264
 20
412.189508
 30
0.0
 11
111.84264
 21
412.689508
 31
0.0
  0
LINE
  5
2D5
102
{ACAD_REACTORS
330
2FF
102
}
330
1F
100
AcDbEntity
  8
LC-001-002-----0
 62
     7
370
    50
100
AcDbLine
 10
111.84264
 20
403.189508
 30
0.0
 11
111.84264
 21
406.689508
 31
0.0
  0
LINE
  5
2D6
102
{ACAD_REACTORS
330
2FF
102
}
330
1F
100
AcDbEntity
  8
LC-001-002-----0
 62
     7
370
    50
100
AcDbLine
 10
111.84264
 20
407.689508
 30
0.0
 11
111.84264
 21
411.189508
 31
0.0
  0
INSERT
  5
2DD
102
{ACAD_REACTORS
330
2FF
102
}
330
1F
100
AcDbEntity
  8
LC-004-005-----0
 62
     7
370
    25
100
AcDbBlockReference
  2
*X813
 10
0.0
 20
0.0
 30
0.0
  0
ARC
  5
2DE
102
{ACAD_REACTORS
330
2FF
102
}
330
1F
100
AcDbEntity
  8
LC-001-002-----0
 62
     7
370
    50
100
AcDbCircle
 10
119.84264
 20
404.689508
 30
0.0
 40
0.5000000000000205
100
AcDbArc
 50
75.47792
 51
180.0
  0
LINE
  5
2DF
102
{ACAD_REACTORS
330
2FF
102
}
330
1F
100
AcDbEntity
  8
LC-001-002-----0
 62
     7
370
    50
100
AcDbLine
 10
119.968017
 20
405.173534
 30
0.0
 11
137.217264
 21
400.705483
 31
0.0
  0
LINE
  5
2E0
102
{ACAD_REACTORS
330
2FF
102
}
330
1F
100
AcDbEntity
  8
LC-001-002-----0
 62
     7
370
    50
100
AcDbLine
 10
327.84264
 20
401.689508
 30
0.0
 11
327.84264
 21
402.189508
 31
0.0
  0
LINE
  5
2E1
102
{ACAD_REACTORS
330
2FF
102
}
330
1F
100
AcDbEntity
  8
LC-001-002-----0
 62
     7
370
    50
100
AcDbLine
 10
320.34264
 20
400.689508
 30
0.0
 11
320.34264
 21
404.689508
 31
0.0
  0
ARC
  5
2E2
102
{ACAD_REACTORS
330
2FF
102
}
330
1F
100
AcDbEntity
  8
LC-001-002-----0
 62
     7
370
    50
100
AcDbCircle
 10
302.34264
 20
401.189508
 30
0.0
 40
0.4999999999999936
100
AcDbArc
 50
140.940188
 51
284.082648
  0
LINE
  5
2E3
102
{ACAD_REACTORS
330
2FF
102
}
330
1F
100
AcDbEntity
  8
LC-001-002-----0
 62
     7
370
    50
100
AcDbLine
 10
301.954396
 20
401.504574
 30
0.0
 11
311.542487
 21
413.31964
 31
0.0
  0
LINE
  5
2E4
102
{ACAD_REACTORS
330
2FF
102
}
330
1F
100
AcDbEntity
  8
LC-001-002-----0
 62
     7
370
    50
100
AcDbLine
 10
326.84264
 20
413.689508
 30
0.0
 11
327.84264
 21
412.689508
 31
0.0
  0
LINE
  5
2E5
102
{ACAD_REACTORS
330
2FF
102
}
330
1F
100
AcDbEntity
  8
LC-001-002-----0
 62
     7
370
    50
100
AcDbLine
 10
326.84264
 20
400.689508
 30
0.0
 11
327.84264
 21
401.689508
 31
0.0
  0
ARC
  5
2E6
102
{ACAD_REACTORS
330
2FF
102
}
330
1F
100
AcDbEntity
  8
LC-003-002-RND-0
 62
     7
370
    50
100
AcDbCircle
 10
312.318975
 20
412.689508
 30
0.0
 40
0.9999999999999432
100
AcDbArc
 50
90.0
 51
140.940188
  0
LINE
  5
2E7
102
{ACAD_REACTORS
330
2FF
102
}
330
1F
100
AcDbEntity
  8
LC-001-002-----0
 62
     7
370
    50
100
AcDbLine
 10
328.34264
 20
411.689508
 30
0.0
 11
327.84264
 21
412.189508
 31
0.0
  0
LINE
  5
2E8
102
{ACAD_REACTORS
330
2FF
102
}
330
1F
100
AcDbEntity
  8
LC-001-002-----0
 62
     7
370
    50
100
AcDbLine
 10
328.34264
 20
411.689508
 30
0.0
 11
327.84264
 21
411.189508
 31
0.0
  0
LINE
  5
2E9
102
{ACAD_REACTORS
330
2FF
102
}
330
1F
100
AcDbEntity
  8
LC-001-002-----0
 62
     7
370
    50
100
AcDbLine
 10
328.34264
 20
402.689508
 30
0.0
 11
327.84264
 21
403.189508
 31
0.0
  0
LINE
  5
2EA
102
{ACAD_REACTORS
330
2FF
102
}
330
1F
100
AcDbEntity
  8
LC-001-002-----0
 62
     7
370
    50
100
AcDbLine
 10
328.34264
 20
402.689508
 30
0.0
 11
327.84264
 21
402.189508
 31
0.0
  0
LINE
  5
2EB
102
{ACAD_REACTORS
330
2FF
102
}
330
1F
100
AcDbEntity
  8
LC-001-002-----0
 62
     7
370
    50
100
AcDbLine
 10
328.34264
 20
407.189508
 30
0.0
 11
327.84264
 21
407.689508
 31
0.0
  0
LINE
  5
2EC
102
{ACAD_REACTORS
330
2FF
102
}
330
1F
100
AcDbEntity
  8
LC-001-002-----0
 62
     7
370
    50
100
AcDbLine
 10
328.34264
 20
407.189508
 30
0.0
 11
327.84264
 21
406.689508
 31
0.0
  0
LINE
  5
2ED
102
{ACAD_REACTORS
330
2FF
102
}
330
1F
100
AcDbEntity
  8
LC-001-002-----0
 62
     7
370
    50
100
AcDbLine
 10
327.84264
 20
412.189508
 30
0.0
 11
327.84264
 21
412.689508
 31
0.0
  0
LINE
  5
2EE
102
{ACAD_REACTORS
330
2FF
102
}
330
1F
100
AcDbEntity
  8
LC-001-002-----0
 62
     7
370
    50
100
AcDbLine
 10
327.84264
 20
403.189508
 30
0.0
 11
327.84264
 21
406.689508
 31
0.0
  0
LINE
  5
2EF
102
{ACAD_REACTORS
330
2FF
102
}
330
1F
100
AcDbEntity
  8
LC-001-002-----0
 62
     7
370
    50
100
AcDbLine
 10
327.84264
 20
407.689508
 30
0.0
 11
327.84264
 21
411.189508
 31
0.0
  0
INSERT
  5
2F8
102
{ACAD_REACTORS
330
2FF
102
}
330
1F
100
AcDbEntity
  8
LC-004-005-----0
 62
     7
370
    25
100
AcDbBlockReference
  2
*X914
 10
0.0
 20
0.0
 30
0.0
  0
ARC
  5
2F9
102
{ACAD_REACTORS
330
2FF
102
}
330
1F
100
AcDbEntity
  8
LC-001-002-----0
 62
     7
370
    50
100
AcDbCircle
 10
319.84264
 20
404.689508
 30
0.0
 40
0.5
100
AcDbArc
 50
0.0
 51
104.52208
  0
LINE
  5
2FA
102
{ACAD_REACTORS
330
2FF
102
}
330
1F
100
AcDbEntity
  8
LC-001-002-----0
 62
     7
370
    50
100
AcDbLine
 10
319.717264
 20
405.173534
 30
0.0
 11
302.468017
 21
400.705483
 31
0.0
  0
LINE
  5
2FB
102
{ACAD_REACTORS
330
2FF
102
}
330
1F
100
AcDbEntity
  8
LC-001-002-----0
 62
     7
370
    50
100
AcDbLine
 10
219.84264
 20
413.689508
 30
0.0
 11
326.84264
 21
413.689508
 31
0.0
  0
LINE
  5
2FC
102
{ACAD_REACTORS
330
2FF
102
}
330
1F
100
AcDbEntity
  8
LC-001-002-----0
 62
     7
370
    50
100
AcDbLine
 10
219.84264
 20
400.689508
 30
0.0
 11
326.84264
 21
400.689508
 31
0.0
  0
ENDSEC
  0
SECTION
  2
OBJECTS
  0
DICTIONARY
  5
C
330
0
100
AcDbDictionary
281
     1
  3
ACAD_GROUP
350
D
  3
ACAD_LAYOUT
350
1A
  3
ACAD_MLINESTYLE
350
17
  3
ACAD_PLOTSETTINGS
350
19
  3
ACAD_PLOTSTYLENAME
350
E
  0
DICTIONARY
  5
D
102
{ACAD_REACTORS
330
C
102
}
330
C
100
AcDbDictionary
281
     1
  3
LCGROUP1018
350
2FE
  3
LCGROUP1039
350
2FF
  3
LCGROUP693
350
2FD
  0
DICTIONARY
  5
1A
102
{ACAD_REACTORS
330
C
102
}
330
C
100
AcDbDictionary
281
     1
  3
Layout1
350
1E
  3
Layout2
350
26
  3
Model
350
22
  0
DICTIONARY
  5
17
102
{ACAD_REACTORS
330
C
102
}
330
C
100
AcDbDictionary
281
     1
  3
Standard
350
18
  0
DICTIONARY
  5
19
102
{ACAD_REACTORS
330
C
102
}
330
C
100
AcDbDictionary
281
     1
  0
ACDBDICTIONARYWDFLT
  5
E
102
{ACAD_REACTORS
330
C
102
}
330
C
100
AcDbDictionary
281
     1
  3
Normal
350
F
100
AcDbDictionaryWithDefault
340
F
  0
GROUP
  5
2FE
102
{ACAD_REACTORS
330
D
102
}
330
D
100
AcDbGroup
300
GRP1018
 70
     1
 71
     1
340
1F7
340
1F8
340
1F9
340
1FA
340
1FB
340
1FC
340
1FE
340
1FF
340
200
340
201
340
202
340
203
340
204
340
205
340
206
340
207
340
208
340
209
340
20A
340
20B
340
20C
340
20D
340
20E
340
20F
340
210
340
211
340
212
340
213
340
214
340
215
340
216
340
217
340
218
340
219
340
21A
340
21B
340
21C
340
21D
340
21E
340
21F
340
220
340
221
340
222
340
223
340
224
340
225
340
226
340
227
340
228
340
229
340
22A
340
22B
340
22C
340
22D
340
22E
340
22F
340
230
340
231
340
232
340
233
340
234
340
235
340
236
340
237
340
238
340
239
340
23A
340
23B
340
23C
340
23D
340
23E
340
23F
340
240
340
241
340
242
340
243
340
244
340
245
340
246
340
247
340
248
340
249
340
24A
340
24B
340
24C
340
24D
340
24E
340
24F
340
250
340
251
340
252
340
253
340
254
340
255
340
256
340
257
340
258
340
259
340
25A
340
25B
340
25C
340
25D
340
25E
340
25F
340
260
340
261
340
262
340
263
340
264
340
265
340
266
340
267
340
268
340
269
340
26A
340
26B
340
26C
340
26D
340
26E
340
26F
340
270
340
271
340
272
340
273
340
274
  0
GROUP
  5
2FF
102
{ACAD_REACTORS
330
D
102
}
330
D
100
AcDbGroup
300
GRP1039
 70
     1
 71
     1
340
2C5
340
2C6
340
2C7
340
2C8
340
2C9
340
2CA
340
2CB
340
2CC
340
2CD
340
2CE
340
2CF
340
2D0
340
2D1
340
2D2
340
2D3
340
2D4
340
2D5
340
2D6
340
2DD
340
2DE
340
2DF
340
2E0
340
2E1
340
2E2
340
2E3
340
2E4
340
2E5
340
2E6
340
2E7
340
2E8
340
2E9
340
2EA
340
2EB
340
2EC
340
2ED
340
2EE
340
2EF
340
2F8
340
2F9
340
2FA
340
2FB
340
2FC
  0
GROUP
  5
2FD
102
{ACAD_REACTORS
330
D
102
}
330
D
100
AcDbGroup
300
GRP693
 70
     1
 71
     1
340
5B
340
5C
340
5D
340
5E
340
5F
340
60
340
61
340
62
340
63
340
64
340
65
340
66
340
67
340
68
340
69
340
6A
340
6B
340
6C
340
E9
340
EA
340
EB
340
EC
340
ED
340
EE
340
FD
340
10F
340
296
  0
LAYOUT
  5
1E
102
{ACAD_REACTORS
330
1A
102
}
330
1A
100
AcDbPlotSettings
  1

  2

  4

  6

 40
0.0
 41
0.0
 42
0.0
 43
0.0
 44
0.0
 45
0.0
 46
0.0
 47
0.0
 48
0.0
 49
0.0
140
0.0
141
0.0
142
1.0
143
1.0
 70
   688
 72
     0
 73
     0
 74
     5
  7

 75
    16
147
1.0
148
0.0
149
0.0
100
AcDbLayout
  1
Layout1
 70
     1
 71
     1
 10
0.0
 20
0.0
 11
840.0
 21
594.0
 12
0.0
 22
0.0
 32
0.0
 14
0.0
 24
0.0
 34
0.0
 15
840.0
 25
594.0
 35
0.0
146
0.0
 13
0.0
 23
0.0
 33
0.0
 16
1.0
 26
0.0
 36
0.0
 17
0.0
 27
1.0
 37
0.0
 76
     0
330
1B
  0
LAYOUT
  5
26
102
{ACAD_REACTORS
330
1A
102
}
330
1A
100
AcDbPlotSettings
  1

  2

  4

  6

 40
0.0
 41
0.0
 42
0.0
 43
0.0
 44
0.0
 45
0.0
 46
0.0
 47
0.0
 48
0.0
 49
0.0
140
0.0
141
0.0
142
1.0
143
1.0
 70
   688
 72
     0
 73
     0
 74
     5
  7

 75
    16
147
1.0
148
0.0
149
0.0
100
AcDbLayout
  1
Layout2
 70
     1
 71
     2
 10
0.0
 20
0.0
 11
0.0
 21
0.0
 12
0.0
 22
0.0
 32
0.0
 14
0.0
 24
0.0
 34
0.0
 15
0.0
 25
0.0
 35
0.0
146
0.0
 13
0.0
 23
0.0
 33
0.0
 16
1.0
 26
0.0
 36
0.0
 17
0.0
 27
1.0
 37
0.0
 76
     0
330
23
  0
LAYOUT
  5
22
102
{ACAD_REACTORS
330
1A
102
}
330
1A
100
AcDbPlotSettings
  1

  2

  4

  6

 40
0.0
 41
0.0
 42
0.0
 43
0.0
 44
0.0
 45
0.0
 46
0.0
 47
0.0
 48
0.0
 49
0.0
140
0.0
141
0.0
142
1.0
143
1.0
 70
  1776
 72
     0
 73
     0
 74
     0
  7

 75
     0
147
1.0
148
0.0
149
0.0
100
AcDbLayout
  1
Model
 70
     1
 71
     0
 10
0.0
 20
0.0
 11
840.0
 21
594.0
 12
0.0
 22
0.0
 32
0.0
 14
0.0
 24
0.0
 34
0.0
 15
840.0
 25
594.0
 35
0.0
146
0.0
 13
0.0
 23
0.0
 33
0.0
 16
1.0
 26
0.0
 36
0.0
 17
0.0
 27
1.0
 37
0.0
 76
     0
330
1F
  0
MLINESTYLE
  5
18
102
{ACAD_REACTORS
330
17
102
}
330
17
100
AcDbMlineStyle
  2
Standard
 70
     0
  3

 62
   256
 51
90.0
 52
90.0
 71
     2
 49
0.5
 62
   256
  6
BYLAYER
 49
-0.5
 62
   256
  6
BYLAYER
  0
ACDBPLACEHOLDER
  5
F
102
{ACAD_REACTORS
330
E
102
}
330
E
  0
ENDSEC
  0
EOF
