  0
SECTION
  2
HEADER
  9
$ACADVER
  1
AC1015
  9
$ACADMAINTVER
 70
     6
  9
$DWGCODEPAGE
  3
ANSI_1252
  9
$INSBASE
 10
0.0
 20
0.0
 30
0.0
  9
$EXTMIN
 10
-284.380931
 20
-170.700994
 30
0.0
  9
$EXTMAX
 10
555.619069
 20
423.299006
 30
0.0
  9
$LIMMIN
 10
-284.380931
 20
-170.700994
  9
$LIMMAX
 10
555.619069
 20
423.299006
  9
$ORTHOMODE
 70
     0
  9
$REGENMODE
 70
     1
  9
$FILLMODE
 70
     1
  9
$QTEXTMODE
 70
     0
  9
$MIRRTEXT
 70
     1
  9
$LTSCALE
 40
2.0
  9
$ATTMODE
 70
     1
  9
$TEXTSIZE
 40
2.5
  9
$TRACEWID
 40
1.0
  9
$TEXTSTYLE
  7
Standard
  9
$CLAYER
  8
0
  9
$CELTYPE
  6
ByLayer
  9
$CECOLOR
 62
     7
  9
$CELTSCALE
 40
1.0
  9
$DISPSILH
 70
     0
  9
$DIMSCALE
 40
2.0
  9
$DIMASZ
 40
3.5
  9
$DIMEXO
 40
0.625
  9
$DIMDLI
 40
3.75
  9
$DIMRND
 40
0.0
  9
$DIMDLE
 40
0.0
  9
$DIMEXE
 40
1.25
  9
$DIMTP
 40
0.0
  9
$DIMTM
 40
0.0
  9
$DIMTXT
 40
3.5
  9
$DIMCEN
 40
2.5
  9
$DIMTSZ
 40
0.0
  9
$DIMTOL
 70
     0
  9
$DIMLIM
 70
     0
  9
$DIMTIH
 70
     0
  9
$DIMTOH
 70
     0
  9
$DIMSE1
 70
     0
  9
$DIMSE2
 70
     0
  9
$DIMTAD
 70
     1
  9
$DIMZIN
 70
     8
  9
$DIMBLK
  1

  9
$DIMASO
 70
     1
  9
$DIMSHO
 70
     1
  9
$DIMPOST
  1

  9
$DIMAPOST
  1

  9
$DIMALT
 70
     0
  9
$DIMALTD
 70
     3
  9
$DIMALTF
 40
0.03937
  9
$DIMLFAC
 40
1.0
  9
$DIMTOFL
 70
     1
  9
$DIMTVP
 40
0.0
  9
$DIMTIX
 70
     0
  9
$DIMSOXD
 70
     0
  9
$DIMSAH
 70
     0
  9
$DIMBLK1
  1

  9
$DIMBLK2
  1

  9
$DIMSTYLE
  2
ISO-25
  9
$DIMCLRD
 70
     0
  9
$DIMCLRE
 70
     0
  9
$DIMCLRT
 70
     0
  9
$DIMTFAC
 40
1.0
  9
$DIMGAP
 40
0.625
  9
$DIMJUST
 70
     0
  9
$DIMSD1
 70
     0
  9
$DIMSD2
 70
     0
  9
$DIMTOLJ
 70
     0
  9
$DIMTZIN
 70
     8
  9
$DIMALTZ
 70
     0
  9
$DIMALTTZ
 70
     0
  9
$DIMUPT
 70
     0
  9
$DIMDEC
 70
     2
  9
$DIMTDEC
 70
     2
  9
$DIMALTU
 70
     2
  9
$DIMALTTD
 70
     3
  9
$DIMTXSTY
  7
Standard
  9
$DIMAUNIT
 70
     0
  9
$DIMADEC
 70
     0
  9
$DIMALTRND
 40
0.0
  9
$DIMAZIN
 70
     0
  9
$DIMDSEP
 70
    44
  9
$DIMATFIT
 70
     3
  9
$DIMFRAC
 70
     0
  9
$DIMLDRBLK
  1

  9
$DIMLUNIT
 70
     2
  9
$DIMLWD
 70
    -2
  9
$DIMLWE
 70
    -2
  9
$DIMTMOVE
 70
     0
  9
$LUNITS
 70
     2
  9
$LUPREC
 70
     4
  9
$SKETCHINC
 40
1.0
  9
$FILLETRAD
 40
10.0
  9
$AUNITS
 70
     0
  9
$AUPREC
 70
     0
  9
$MENU
  1
.
  9
$ELEVATION
 40
0.0
  9
$PELEVATION
 40
0.0
  9
$THICKNESS
 40
0.0
  9
$LIMCHECK
 70
     0
  9
$CHAMFERA
 40
10.0
  9
$CHAMFERB
 40
10.0
  9
$CHAMFERC
 40
20.0
  9
$CHAMFERD
 40
0.0
  9
$SKPOLY
 70
     0
  9
$TDCREATE
 40
2456555.54890044
  9
$TDUCREATE
 40
2456555.465567106
  9
$TDUPDATE
 40
2456555.548900452
  9
$TDUUPDATE
 40
2456555.465567118
  9
$TDINDWG
 40
0.0000000116
  9
$TDUSRTIMER
 40
0.0000000116
  9
$USRTIMER
 70
     1
  9
$ANGBASE
 50
0.0
  9
$ANGDIR
 70
     0
  9
$PDMODE
 70
     0
  9
$PDSIZE
 40
0.0
  9
$PLINEWID
 40
0.0
  9
$SPLFRAME
 70
     0
  9
$SPLINETYPE
 70
     6
  9
$SPLINESEGS
 70
     8
  9
$HANDSEED
  5
206
  9
$SURFTAB1
 70
     6
  9
$SURFTAB2
 70
     6
  9
$SURFTYPE
 70
     6
  9
$SURFU
 70
     6
  9
$SURFV
 70
     6
  9
$UCSBASE
  2

  9
$UCSNAME
  2

  9
$UCSORG
 10
0.0
 20
0.0
 30
0.0
  9
$UCSXDIR
 10
1.0
 20
0.0
 30
0.0
  9
$UCSYDIR
 10
0.0
 20
1.0
 30
0.0
  9
$UCSORTHOREF
  2

  9
$UCSORTHOVIEW
 70
     0
  9
$UCSORGTOP
 10
0.0
 20
0.0
 30
0.0
  9
$UCSORGBOTTOM
 10
0.0
 20
0.0
 30
0.0
  9
$UCSORGLEFT
 10
0.0
 20
0.0
 30
0.0
  9
$UCSORGRIGHT
 10
0.0
 20
0.0
 30
0.0
  9
$UCSORGFRONT
 10
0.0
 20
0.0
 30
0.0
  9
$UCSORGBACK
 10
0.0
 20
0.0
 30
0.0
  9
$PUCSBASE
  2

  9
$PUCSNAME
  2

  9
$PUCSORG
 10
0.0
 20
0.0
 30
0.0
  9
$PUCSXDIR
 10
1.0
 20
0.0
 30
0.0
  9
$PUCSYDIR
 10
0.0
 20
1.0
 30
0.0
  9
$PUCSORTHOREF
  2

  9
$PUCSORTHOVIEW
 70
     0
  9
$PUCSORGTOP
 10
0.0
 20
0.0
 30
0.0
  9
$PUCSORGBOTTOM
 10
0.0
 20
0.0
 30
0.0
  9
$PUCSORGLEFT
 10
0.0
 20
0.0
 30
0.0
  9
$PUCSORGRIGHT
 10
0.0
 20
0.0
 30
0.0
  9
$PUCSORGFRONT
 10
0.0
 20
0.0
 30
0.0
  9
$PUCSORGBACK
 10
0.0
 20
0.0
 30
0.0
  9
$USERI1
 70
     0
  9
$USERI2
 70
     0
  9
$USERI3
 70
     0
  9
$USERI4
 70
     0
  9
$USERI5
 70
     0
  9
$USERR1
 40
0.0
  9
$USERR2
 40
0.0
  9
$USERR3
 40
0.0
  9
$USERR4
 40
0.0
  9
$USERR5
 40
0.0
  9
$WORLDVIEW
 70
     1
  9
$SHADEDGE
 70
     3
  9
$SHADEDIF
 70
    70
  9
$TILEMODE
 70
     1
  9
$MAXACTVP
 70
    64
  9
$PINSBASE
 10
0.0
 20
0.0
 30
0.0
  9
$PLIMCHECK
 70
     0
  9
$PEXTMIN
 10
-284.380931
 20
-170.700994
 30
0.0
  9
$PEXTMAX
 10
555.619069
 20
423.299006
 30
0.0
  9
$PLIMMIN
 10
-284.380931
 20
-170.700994
  9
$PLIMMAX
 10
555.619069
 20
423.299006
  9
$UNITMODE
 70
     0
  9
$VISRETAIN
 70
     1
  9
$PLINEGEN
 70
     0
  9
$PSLTSCALE
 70
     1
  9
$TREEDEPTH
 70
  3020
  9
$CMLSTYLE
  2
Standard
  9
$CMLJUST
 70
     0
  9
$CMLSCALE
 40
20.0
  9
$PROXYGRAPHICS
 70
     1
  9
$MEASUREMENT
 70
     1
  9
$CELWEIGHT
370
    -1
  9
$ENDCAPS
280
     0
  9
$JOINSTYLE
280
     0
  9
$LWDISPLAY
290
     0
  9
$INSUNITS
 70
     4
  9
$HYPERLINKBASE
  1

  9
$STYLESHEET
  1

  9
$XEDIT
290
     1
  9
$CEPSNTYPE
380
     0
  9
$PSTYLEMODE
290
     1
  9
$FINGERPRINTGUID
  2
{FAEB1C30-E019-11D5-929B-00C0DF256EC4}
  9
$VERSIONGUID
  2
{FAEB1C32-E019-11D5-929B-00C0DF256EC4}
  9
$EXTNAMES
290
     1
  9
$PSVPSCALE
 40
0.0
  9
$OLESTARTUP
290
     0
  0
ENDSEC
  0
SECTION
  2
CLASSES
  0
CLASS
  1
ACDBDICTIONARYWDFLT
  2
AcDbDictionaryWithDefault
  3
ObjectDBX Classes
 90
        0
280
     0
281
     0
  0
CLASS
  1
ACDBPLACEHOLDER
  2
AcDbPlaceHolder
  3
ObjectDBX Classes
 90
        0
280
     0
281
     0
  0
CLASS
  1
LAYOUT
  2
AcDbLayout
  3
ObjectDBX Classes
 90
        0
280
     0
281
     0
  0
ENDSEC
  0
SECTION
  2
TABLES
  0
TABLE
  2
VPORT
  5
8
330
0
100
AcDbSymbolTable
 70
     2
  0
VPORT
  5
29
330
8
100
AcDbSymbolTableRecord
100
AcDbViewportTableRecord
  2
*ACTIVE
 70
     0
 10
0.0
 20
0.0
 11
1.0
 21
1.0
 12
135.619069
 22
126.299006
 13
0.0
 23
0.0
 14
1.0
 24
1.0
 15
0.0
 25
0.0
 16
0.0
 26
0.0
 36
1.0
 17
0.0
 27
0.0
 37
0.0
 40
594.0
 41
1.414141
 42
50.0
 43
0.0
 44
0.0
 50
0.0
 51
0.0
 71
    16
 72
   100
 73
     1
 74
     0
 75
     0
 76
     0
 77
     0
 78
     0
281
     0
 65
     0
110
0.0
120
0.0
130
0.0
111
1.0
121
0.0
131
0.0
112
0.0
122
1.0
132
0.0
 79
     0
146
0.0
  0
ENDTAB
  0
TABLE
  2
LTYPE
  5
5
330
0
100
AcDbSymbolTable
 70
     3
  0
LTYPE
  5
14
330
5
100
AcDbSymbolTableRecord
100
AcDbLinetypeTableRecord
  2
ByBlock
 70
     0
  3

 72
    65
 73
     0
 40
0.0
  0
LTYPE
  5
15
330
5
100
AcDbSymbolTableRecord
100
AcDbLinetypeTableRecord
  2
ByLayer
 70
     0
  3

 72
    65
 73
     0
 40
0.0
  0
LTYPE
  5
16
330
5
100
AcDbSymbolTableRecord
100
AcDbLinetypeTableRecord
  2
Continuous
 70
     0
  3
Solid line
 72
    65
 73
     0
 40
0.0
  0
LTYPE
  5
2A
330
5
100
AcDbSymbolTableRecord
100
AcDbLinetypeTableRecord
  2
DASHED
 70
     0
  3
__ __ __ __ __
 72
    65
 73
     2
 40
6.25
 49
5.0
 74
     4
 75
     0
340
0
 46
1.0
 50
0.0
 44
0.0
 45
0.0
 49
-1.25
 74
     4
 75
     0
340
0
 46
1.0
 50
0.0
 44
0.0
 45
0.0
  0
LTYPE
  5
30
330
5
100
AcDbSymbolTableRecord
100
AcDbLinetypeTableRecord
  2
DASHDOT
 70
     0
  3
__ . __ . __ . __ . __
 72
    65
 73
     4
 40
7.5
 49
5.0
 74
     4
 75
     0
340
0
 46
1.0
 50
0.0
 44
0.0
 45
0.0
 49
-1.25
 74
     4
 75
     0
340
0
 46
1.0
 50
0.0
 44
0.0
 45
0.0
 49
0.0
 74
     4
 75
     0
340
0
 46
1.0
 50
0.0
 44
0.0
 45
0.0
 49
-1.25
 74
     4
 75
     0
340
0
 46
1.0
 50
0.0
 44
0.0
 45
0.0
  0
ENDTAB
  0
TABLE
  2
LAYER
  5
2
330
0
100
AcDbSymbolTable
 70
     8
  0
LAYER
  5
10
330
2
100
AcDbSymbolTableRecord
100
AcDbLayerTableRecord
  2
0
 70
     0
 62
     7
  6
Continuous
370
    -3
390
F
  0
LAYER
  5
2B
330
2
100
AcDbSymbolTableRecord
100
AcDbLayerTableRecord
  2
LC-INFO-1-2-mm-A3-0
 70
     1
 62
     7
  6
ByBlock
370
    -3
390
F
  0
LAYER
  5
2C
330
2
100
AcDbSymbolTableRecord
100
AcDbLayerTableRecord
  2
LC-CUT-HIDDEN
 70
     0
 62
     7
  6
DASHED
370
    -3
390
F
  0
LAYER
  5
2D
330
2
100
AcDbSymbolTableRecord
100
AcDbLayerTableRecord
  2
LC-VIEWPORT
 70
     0
 62
     7
  6
ByBlock
370
    -3
390
F
  0
LAYER
  5
2E
330
2
100
AcDbSymbolTableRecord
100
AcDbLayerTableRecord
  2
LC-3D-HIDDEN
 70
     0
 62
     9
  6
DASHED
370
    -3
390
F
  0
LAYER
  5
31
330
2
100
AcDbSymbolTableRecord
100
AcDbLayerTableRecord
  2
LC-001-002-----0
 70
     0
 62
     2
  6
DASHDOT
370
    -3
390
F
  0
LAYER
  5
34
330
2
100
AcDbSymbolTableRecord
100
AcDbLayerTableRecord
  2
LC-002-100-D00-0
 70
     0
 62
     1
  6
ByBlock
370
    -3
390
F
  0
LAYER
  5
1DA
330
2
100
AcDbSymbolTableRecord
100
AcDbLayerTableRecord
  2
Defpoints
 70
     0
 62
     7
  6
Continuous
290
     0
370
    -3
390
F
  0
ENDTAB
  0
TABLE
  2
STYLE
  5
3
330
0
100
AcDbSymbolTable
 70
     3
  0
STYLE
  5
11
330
3
100
AcDbSymbolTableRecord
100
AcDbTextStyleTableRecord
  2
Standard
 70
     0
 40
0.0
 41
1.0
 50
0.0
 71
     0
 42
2.5
  3
txt
  4

  0
STYLE
  5
2F
330
3
100
AcDbSymbolTableRecord
100
AcDbTextStyleTableRecord
  2
LCTX15-400-0-0-Arial
 70
     0
 40
0.0
 41
0.8
 50
0.0
 71
     0
 42
3.5
  3

  4

1001
ACAD
1000
Arial
1071
 16777218
  0
STYLE
  5
1D7
330
3
100
AcDbSymbolTableRecord
100
AcDbTextStyleTableRecord
  2
LCTX15-400-0-0pDIN-Schrift
 70
     0
 40
2.5
 41
0.8
 50
15.0
 71
     0
 42
3.5
  3
STANDARD
  4

  0
ENDTAB
  0
TABLE
  2
VIEW
  5
6
330
0
100
AcDbSymbolTable
 70
     0
  0
ENDTAB
  0
TABLE
  2
UCS
  5
7
330
0
100
AcDbSymbolTable
 70
     0
  0
ENDTAB
  0
TABLE
  2
APPID
  5
9
330
0
100
AcDbSymbolTable
 70
     1
  0
APPID
  5
12
330
9
100
AcDbSymbolTableRecord
100
AcDbRegAppTableRecord
  2
ACAD
 70
     0
  0
ENDTAB
  0
TABLE
  2
DIMSTYLE
  5
A
330
0
100
AcDbSymbolTable
 70
     3
100
AcDbDimStyleTable
  0
DIMSTYLE
105
27
330
A
100
AcDbSymbolTableRecord
100
AcDbDimStyleTableRecord
  2
ISO-25
 70
     0
 41
2.5
 42
0.625
 43
3.75
 44
1.25
 73
     0
 74
     0
 77
     1
 78
     8
140
2.5
141
2.5
143
0.03937
147
0.625
171
     3
172
     1
271
     2
272
     2
274
     3
278
    44
283
     0
284
     8
340
11
  0
DIMSTYLE
105
1D8
102
{ACAD_REACTORS
330
1D9
330
1E8
102
}
330
A
100
AcDbSymbolTableRecord
100
AcDbDimStyleTableRecord
  2
LC-DIM-L-0140-02-02
 70
     0
 40
2.0
 41
14.0
 42
0.0
 43
7.5
 44
1.8
 73
     0
 74
     0
 77
     1
 78
     8
 79
     2
140
14.0
141
0.0
146
0.71
147
1.5
176
     2
177
     2
178
     2
179
     2
271
     2
278
    44
289
     1
340
1D7
  0
DIMSTYLE
105
1F7
102
{ACAD_REACTORS
330
1F8
102
}
330
A
100
AcDbSymbolTableRecord
100
AcDbDimStyleTableRecord
  2
LC-DIM-L-0140-01-02
 70
     0
 40
2.0
 41
14.0
 42
0.0
 43
7.5
 44
1.8
 73
     0
 74
     0
 77
     1
 78
     8
 79
     2
140
14.0
141
0.0
146
0.71
147
1.5
176
     2
177
     2
178
     2
179
     1
271
     1
278
    44
289
     1
340
1D7
  0
ENDTAB
  0
TABLE
  2
BLOCK_RECORD
  5
1
330
0
100
AcDbSymbolTable
 70
    24
  0
BLOCK_RECORD
  5
1F
330
1
100
AcDbSymbolTableRecord
100
AcDbBlockTableRecord
  2
*Model_Space
340
22
  0
BLOCK_RECORD
  5
1B
330
1
100
AcDbSymbolTableRecord
100
AcDbBlockTableRecord
  2
*Paper_Space
340
1E
  0
BLOCK_RECORD
  5
23
330
1
100
AcDbSymbolTableRecord
100
AcDbBlockTableRecord
  2
*Paper_Space0
340
26
  0
BLOCK_RECORD
  5
48
330
1
100
AcDbSymbolTableRecord
100
AcDbBlockTableRecord
  2
KLON1
340
0
102
{BLKREFS
331
54
102
}
  0
BLOCK_RECORD
  5
58
330
1
100
AcDbSymbolTableRecord
100
AcDbBlockTableRecord
  2
KLON2
340
0
102
{BLKREFS
331
63
102
}
  0
BLOCK_RECORD
  5
64
330
1
100
AcDbSymbolTableRecord
100
AcDbBlockTableRecord
  2
KLON3
340
0
102
{BLKREFS
331
6F
102
}
  0
BLOCK_RECORD
  5
70
330
1
100
AcDbSymbolTableRecord
100
AcDbBlockTableRecord
  2
KLON4
340
0
102
{BLKREFS
331
7B
102
}
  0
BLOCK_RECORD
  5
84
330
1
100
AcDbSymbolTableRecord
100
AcDbBlockTableRecord
  2
KLON5
340
0
102
{BLKREFS
331
8F
102
}
  0
BLOCK_RECORD
  5
92
330
1
100
AcDbSymbolTableRecord
100
AcDbBlockTableRecord
  2
KLON6
340
0
102
{BLKREFS
331
9D
102
}
  0
BLOCK_RECORD
  5
A0
330
1
100
AcDbSymbolTableRecord
100
AcDbBlockTableRecord
  2
KLON7
340
0
102
{BLKREFS
331
AC
102
}
  0
BLOCK_RECORD
  5
AE
330
1
100
AcDbSymbolTableRecord
100
AcDbBlockTableRecord
  2
KLON8
340
0
102
{BLKREFS
331
B9
102
}
  0
BLOCK_RECORD
  5
161
330
1
100
AcDbSymbolTableRecord
100
AcDbBlockTableRecord
  2
KLON9
340
0
102
{BLKREFS
331
16F
102
}
  0
BLOCK_RECORD
  5
170
330
1
100
AcDbSymbolTableRecord
100
AcDbBlockTableRecord
  2
KLON10
340
0
102
{BLKREFS
331
17D
102
}
  0
BLOCK_RECORD
  5
17E
330
1
100
AcDbSymbolTableRecord
100
AcDbBlockTableRecord
  2
KLON11
340
0
102
{BLKREFS
331
183
102
}
  0
BLOCK_RECORD
  5
184
330
1
100
AcDbSymbolTableRecord
100
AcDbBlockTableRecord
  2
KLON12
340
0
102
{BLKREFS
331
18A
102
}
  0
BLOCK_RECORD
  5
18B
330
1
100
AcDbSymbolTableRecord
100
AcDbBlockTableRecord
  2
KLON13
340
0
102
{BLKREFS
331
193
102
}
  0
BLOCK_RECORD
  5
194
330
1
100
AcDbSymbolTableRecord
100
AcDbBlockTableRecord
  2
KLON14
340
0
102
{BLKREFS
331
19B
102
}
  0
BLOCK_RECORD
  5
19C
330
1
100
AcDbSymbolTableRecord
100
AcDbBlockTableRecord
  2
KLON15
340
0
102
{BLKREFS
331
1A9
102
}
  0
BLOCK_RECORD
  5
1AA
330
1
100
AcDbSymbolTableRecord
100
AcDbBlockTableRecord
  2
KLON16
340
0
102
{BLKREFS
331
1B8
102
}
  0
BLOCK_RECORD
  5
1B9
330
1
100
AcDbSymbolTableRecord
100
AcDbBlockTableRecord
  2
KLON17
340
0
102
{BLKREFS
331
1BF
102
}
  0
BLOCK_RECORD
  5
1C0
330
1
100
AcDbSymbolTableRecord
100
AcDbBlockTableRecord
  2
KLON18
340
0
102
{BLKREFS
331
1C5
102
}
  0
BLOCK_RECORD
  5
1C6
330
1
100
AcDbSymbolTableRecord
100
AcDbBlockTableRecord
  2
KLON19
340
0
102
{BLKREFS
331
1CD
102
}
  0
BLOCK_RECORD
  5
1CE
330
1
100
AcDbSymbolTableRecord
100
AcDbBlockTableRecord
  2
KLON20
340
0
102
{BLKREFS
331
1D6
102
}
  0
BLOCK_RECORD
  5
1DB
330
1
100
AcDbSymbolTableRecord
100
AcDbBlockTableRecord
  2
*D21
340
0
  0
BLOCK_RECORD
  5
1E9
330
1
100
AcDbSymbolTableRecord
100
AcDbBlockTableRecord
  2
*D22
340
0
  0
BLOCK_RECORD
  5
1F9
330
1
100
AcDbSymbolTableRecord
100
AcDbBlockTableRecord
  2
*D23
340
0
  0
ENDTAB
  0
ENDSEC
  0
SECTION
  2
BLOCKS
  0
BLOCK
  5
20
330
1F
100
AcDbEntity
  8
0
100
AcDbBlockBegin
  2
*Model_Space
 70
     0
 71
     0
 10
0.0
 20
0.0
 30
0.0
  3
*Model_Space
  1

  0
ENDBLK
  5
21
330
1F
100
AcDbEntity
  8
0
100
AcDbBlockEnd
  0
BLOCK
  5
1C
330
1B
100
AcDbEntity
 67
     1
  8
0
100
AcDbBlockBegin
  2
*Paper_Space
 70
     0
 71
     0
 10
0.0
 20
0.0
 30
0.0
  3
*Paper_Space
  1

  0
ENDBLK
  5
1D
330
1B
100
AcDbEntity
 67
     1
  8
0
100
AcDbBlockEnd
  0
BLOCK
  5
24
330
23
100
AcDbEntity
  8
0
100
AcDbBlockBegin
  2
*Paper_Space0
 70
     0
 71
     0
 10
0.0
 20
0.0
 30
0.0
  3
*Paper_Space0
  1

  0
ENDBLK
  5
25
330
23
100
AcDbEntity
  8
0
100
AcDbBlockEnd
  0
BLOCK
  5
49
330
48
100
AcDbEntity
  8
0
100
AcDbBlockBegin
  2
KLON1
 70
     0
 71
     0
 10
0.0
 20
0.0
 30
0.0
  3
KLON1
  1

  4
KLON1
  0
LINE
  5
4B
330
48
100
AcDbEntity
  8
LC-002-100-D00-0
 62
     7
370
    15
100
AcDbLine
 10
108.653816
 20
62.763764
 30
0.0
 11
108.603689
 21
62.67694
 31
0.0
  0
LINE
  5
4C
330
48
100
AcDbEntity
  8
LC-002-100-D00-0
 62
     7
370
    15
100
AcDbLine
 10
108.603689
 20
62.67694
 30
0.0
 11
108.555085
 21
62.592754
 31
0.0
  0
LINE
  5
4D
330
48
100
AcDbEntity
  8
LC-002-100-D00-0
 62
     7
370
    15
100
AcDbLine
 10
108.555085
 20
62.592754
 30
0.0
 11
108.50948
 21
62.513764
 31
0.0
  0
LINE
  5
4E
330
48
100
AcDbEntity
  8
LC-002-100-D00-0
 62
     7
370
    15
100
AcDbLine
 10
108.50948
 20
62.513764
 30
0.0
 11
108.46826
 21
62.442371
 31
0.0
  0
LINE
  5
4F
330
48
100
AcDbEntity
  8
LC-002-100-D00-0
 62
     7
370
    15
100
AcDbLine
 10
108.46826
 20
62.442371
 30
0.0
 11
108.432679
 21
62.380742
 31
0.0
  0
LINE
  5
50
330
48
100
AcDbEntity
  8
LC-002-100-D00-0
 62
     7
370
    15
100
AcDbLine
 10
108.432679
 20
62.380742
 30
0.0
 11
108.403816
 21
62.330752
 31
0.0
  0
LINE
  5
51
330
48
100
AcDbEntity
  8
LC-002-100-D00-0
 62
     7
370
    15
100
AcDbLine
 10
108.403816
 20
62.330752
 30
0.0
 11
108.382552
 21
62.293918
 31
0.0
  0
LINE
  5
52
330
48
100
AcDbEntity
  8
LC-002-100-D00-0
 62
     7
370
    15
100
AcDbLine
 10
108.382552
 20
62.293918
 30
0.0
 11
108.369528
 21
62.27136
 31
0.0
  0
LINE
  5
53
330
48
100
AcDbEntity
  8
LC-002-100-D00-0
 62
     7
370
    15
100
AcDbLine
 10
108.369528
 20
62.27136
 30
0.0
 11
108.36514
 21
62.263764
 31
0.0
  0
ENDBLK
  5
4A
330
48
100
AcDbEntity
  8
0
100
AcDbBlockEnd
  0
BLOCK
  5
59
330
58
100
AcDbEntity
  8
0
100
AcDbBlockBegin
  2
KLON2
 70
     0
 71
     0
 10
0.0
 20
0.0
 30
0.0
  3
KLON2
  1

  4
KLON2
  0
LINE
  5
5B
330
58
100
AcDbEntity
  8
LC-002-100-D00-0
 62
     7
370
    15
100
AcDbLine
 10
108.36514
 20
57.263764
 30
0.0
 11
108.370687
 21
57.254157
 31
0.0
  0
LINE
  5
5C
330
58
100
AcDbEntity
  8
LC-002-100-D00-0
 62
     7
370
    15
100
AcDbLine
 10
108.370687
 20
57.254157
 30
0.0
 11
108.387115
 21
57.225704
 31
0.0
  0
LINE
  5
5D
330
58
100
AcDbEntity
  8
LC-002-100-D00-0
 62
     7
370
    15
100
AcDbLine
 10
108.387115
 20
57.225704
 30
0.0
 11
108.413792
 21
57.179499
 31
0.0
  0
LINE
  5
5E
330
58
100
AcDbEntity
  8
LC-002-100-D00-0
 62
     7
370
    15
100
AcDbLine
 10
108.413792
 20
57.179499
 30
0.0
 11
108.449693
 21
57.117318
 31
0.0
  0
LINE
  5
5F
330
58
100
AcDbEntity
  8
LC-002-100-D00-0
 62
     7
370
    15
100
AcDbLine
 10
108.449693
 20
57.117318
 30
0.0
 11
108.493439
 21
57.041549
 31
0.0
  0
LINE
  5
60
330
58
100
AcDbEntity
  8
LC-002-100-D00-0
 62
     7
370
    15
100
AcDbLine
 10
108.493439
 20
57.041549
 30
0.0
 11
108.543347
 21
56.955106
 31
0.0
  0
LINE
  5
61
330
58
100
AcDbEntity
  8
LC-002-100-D00-0
 62
     7
370
    15
100
AcDbLine
 10
108.543347
 20
56.955106
 30
0.0
 11
108.597497
 21
56.861309
 31
0.0
  0
LINE
  5
62
330
58
100
AcDbEntity
  8
LC-002-100-D00-0
 62
     7
370
    15
100
AcDbLine
 10
108.597497
 20
56.861309
 30
0.0
 11
108.653816
 21
56.763764
 31
0.0
  0
ENDBLK
  5
5A
330
58
100
AcDbEntity
  8
0
100
AcDbBlockEnd
  0
BLOCK
  5
65
330
64
100
AcDbEntity
  8
0
100
AcDbBlockBegin
  2
KLON3
 70
     0
 71
     0
 10
0.0
 20
0.0
 30
0.0
  3
KLON3
  1

  4
KLON3
  0
LINE
  5
67
330
64
100
AcDbEntity
  8
LC-002-100-D00-0
 62
     7
370
    15
100
AcDbLine
 10
105.47839
 20
57.263764
 30
0.0
 11
105.472843
 21
57.254157
 31
0.0
  0
LINE
  5
68
330
64
100
AcDbEntity
  8
LC-002-100-D00-0
 62
     7
370
    15
100
AcDbLine
 10
105.472843
 20
57.254157
 30
0.0
 11
105.456415
 21
57.225704
 31
0.0
  0
LINE
  5
69
330
64
100
AcDbEntity
  8
LC-002-100-D00-0
 62
     7
370
    15
100
AcDbLine
 10
105.456415
 20
57.225704
 30
0.0
 11
105.429741
 21
57.179499
 31
0.0
  0
LINE
  5
6A
330
64
100
AcDbEntity
  8
LC-002-100-D00-0
 62
     7
370
    15
100
AcDbLine
 10
105.429741
 20
57.179499
 30
0.0
 11
105.393841
 21
57.117318
 31
0.0
  0
LINE
  5
6B
330
64
100
AcDbEntity
  8
LC-002-100-D00-0
 62
     7
370
    15
100
AcDbLine
 10
105.393841
 20
57.117318
 30
0.0
 11
105.350095
 21
57.041549
 31
0.0
  0
LINE
  5
6C
330
64
100
AcDbEntity
  8
LC-002-100-D00-0
 62
     7
370
    15
100
AcDbLine
 10
105.350095
 20
57.041549
 30
0.0
 11
105.300187
 21
56.955106
 31
0.0
  0
LINE
  5
6D
330
64
100
AcDbEntity
  8
LC-002-100-D00-0
 62
     7
370
    15
100
AcDbLine
 10
105.300187
 20
56.955106
 30
0.0
 11
105.246032
 21
56.861309
 31
0.0
  0
LINE
  5
6E
330
64
100
AcDbEntity
  8
LC-002-100-D00-0
 62
     7
370
    15
100
AcDbLine
 10
105.246032
 20
56.861309
 30
0.0
 11
105.189714
 21
56.763764
 31
0.0
  0
ENDBLK
  5
66
330
64
100
AcDbEntity
  8
0
100
AcDbBlockEnd
  0
BLOCK
  5
71
330
70
100
AcDbEntity
  8
0
100
AcDbBlockBegin
  2
KLON4
 70
     0
 71
     0
 10
0.0
 20
0.0
 30
0.0
  3
KLON4
  1

  4
KLON4
  0
LINE
  5
73
330
70
100
AcDbEntity
  8
LC-002-100-D00-0
 62
     7
370
    15
100
AcDbLine
 10
105.189714
 20
62.763764
 30
0.0
 11
105.246032
 21
62.666219
 31
0.0
  0
LINE
  5
74
330
70
100
AcDbEntity
  8
LC-002-100-D00-0
 62
     7
370
    15
100
AcDbLine
 10
105.246032
 20
62.666219
 30
0.0
 11
105.300187
 21
62.572423
 31
0.0
  0
LINE
  5
75
330
70
100
AcDbEntity
  8
LC-002-100-D00-0
 62
     7
370
    15
100
AcDbLine
 10
105.300187
 20
62.572423
 30
0.0
 11
105.350095
 21
62.485979
 31
0.0
  0
LINE
  5
76
330
70
100
AcDbEntity
  8
LC-002-100-D00-0
 62
     7
370
    15
100
AcDbLine
 10
105.350095
 20
62.485979
 30
0.0
 11
105.393841
 21
62.410211
 31
0.0
  0
LINE
  5
77
330
70
100
AcDbEntity
  8
LC-002-100-D00-0
 62
     7
370
    15
100
AcDbLine
 10
105.393841
 20
62.410211
 30
0.0
 11
105.429741
 21
62.348029
 31
0.0
  0
LINE
  5
78
330
70
100
AcDbEntity
  8
LC-002-100-D00-0
 62
     7
370
    15
100
AcDbLine
 10
105.429741
 20
62.348029
 30
0.0
 11
105.456415
 21
62.301825
 31
0.0
  0
LINE
  5
79
330
70
100
AcDbEntity
  8
LC-002-100-D00-0
 62
     7
370
    15
100
AcDbLine
 10
105.456415
 20
62.301825
 30
0.0
 11
105.472843
 21
62.273372
 31
0.0
  0
LINE
  5
7A
330
70
100
AcDbEntity
  8
LC-002-100-D00-0
 62
     7
370
    15
100
AcDbLine
 10
105.472843
 20
62.273372
 30
0.0
 11
105.47839
 21
62.263764
 31
0.0
  0
ENDBLK
  5
72
330
70
100
AcDbEntity
  8
0
100
AcDbBlockEnd
  0
BLOCK
  5
85
330
84
100
AcDbEntity
  8
0
100
AcDbBlockBegin
  2
KLON5
 70
     0
 71
     0
 10
0.0
 20
0.0
 30
0.0
  3
KLON5
  1

  4
KLON5
  0
LINE
  5
87
330
84
100
AcDbEntity
  8
LC-002-100-D00-0
 62
     7
370
    15
100
AcDbLine
 10
156.97839
 20
57.263764
 30
0.0
 11
156.972843
 21
57.254157
 31
0.0
  0
LINE
  5
88
330
84
100
AcDbEntity
  8
LC-002-100-D00-0
 62
     7
370
    15
100
AcDbLine
 10
156.972843
 20
57.254157
 30
0.0
 11
156.956416
 21
57.225704
 31
0.0
  0
LINE
  5
89
330
84
100
AcDbEntity
  8
LC-002-100-D00-0
 62
     7
370
    15
100
AcDbLine
 10
156.956416
 20
57.225704
 30
0.0
 11
156.92974
 21
57.179499
 31
0.0
  0
LINE
  5
8A
330
84
100
AcDbEntity
  8
LC-002-100-D00-0
 62
     7
370
    15
100
AcDbLine
 10
156.92974
 20
57.179499
 30
0.0
 11
156.893839
 21
57.117318
 31
0.0
  0
LINE
  5
8B
330
84
100
AcDbEntity
  8
LC-002-100-D00-0
 62
     7
370
    15
100
AcDbLine
 10
156.893839
 20
57.117318
 30
0.0
 11
156.850094
 21
57.041549
 31
0.0
  0
LINE
  5
8C
330
84
100
AcDbEntity
  8
LC-002-100-D00-0
 62
     7
370
    15
100
AcDbLine
 10
156.850094
 20
57.041549
 30
0.0
 11
156.800186
 21
56.955106
 31
0.0
  0
LINE
  5
8D
330
84
100
AcDbEntity
  8
LC-002-100-D00-0
 62
     7
370
    15
100
AcDbLine
 10
156.800186
 20
56.955106
 30
0.0
 11
156.746033
 21
56.861309
 31
0.0
  0
LINE
  5
8E
330
84
100
AcDbEntity
  8
LC-002-100-D00-0
 62
     7
370
    15
100
AcDbLine
 10
156.746033
 20
56.861309
 30
0.0
 11
156.689715
 21
56.763764
 31
0.0
  0
ENDBLK
  5
86
330
84
100
AcDbEntity
  8
0
100
AcDbBlockEnd
  0
BLOCK
  5
93
330
92
100
AcDbEntity
  8
0
100
AcDbBlockBegin
  2
KLON6
 70
     0
 71
     0
 10
0.0
 20
0.0
 30
0.0
  3
KLON6
  1

  4
KLON6
  0
LINE
  5
95
330
92
100
AcDbEntity
  8
LC-002-100-D00-0
 62
     7
370
    15
100
AcDbLine
 10
159.865142
 20
57.263764
 30
0.0
 11
159.870688
 21
57.254157
 31
0.0
  0
LINE
  5
96
330
92
100
AcDbEntity
  8
LC-002-100-D00-0
 62
     7
370
    15
100
AcDbLine
 10
159.870688
 20
57.254157
 30
0.0
 11
159.887116
 21
57.225704
 31
0.0
  0
LINE
  5
97
330
92
100
AcDbEntity
  8
LC-002-100-D00-0
 62
     7
370
    15
100
AcDbLine
 10
159.887116
 20
57.225704
 30
0.0
 11
159.913792
 21
57.179499
 31
0.0
  0
LINE
  5
98
330
92
100
AcDbEntity
  8
LC-002-100-D00-0
 62
     7
370
    15
100
AcDbLine
 10
159.913792
 20
57.179499
 30
0.0
 11
159.949693
 21
57.117318
 31
0.0
  0
LINE
  5
99
330
92
100
AcDbEntity
  8
LC-002-100-D00-0
 62
     7
370
    15
100
AcDbLine
 10
159.949693
 20
57.117318
 30
0.0
 11
159.993437
 21
57.041549
 31
0.0
  0
LINE
  5
9A
330
92
100
AcDbEntity
  8
LC-002-100-D00-0
 62
     7
370
    15
100
AcDbLine
 10
159.993437
 20
57.041549
 30
0.0
 11
160.043346
 21
56.955106
 31
0.0
  0
LINE
  5
9B
330
92
100
AcDbEntity
  8
LC-002-100-D00-0
 62
     7
370
    15
100
AcDbLine
 10
160.043346
 20
56.955106
 30
0.0
 11
160.097499
 21
56.861309
 31
0.0
  0
LINE
  5
9C
330
92
100
AcDbEntity
  8
LC-002-100-D00-0
 62
     7
370
    15
100
AcDbLine
 10
160.097499
 20
56.861309
 30
0.0
 11
160.153817
 21
56.763764
 31
0.0
  0
ENDBLK
  5
94
330
92
100
AcDbEntity
  8
0
100
AcDbBlockEnd
  0
BLOCK
  5
A1
330
A0
100
AcDbEntity
  8
0
100
AcDbBlockBegin
  2
KLON7
 70
     0
 71
     0
 10
0.0
 20
0.0
 30
0.0
  3
KLON7
  1

  4
KLON7
  0
LINE
  5
A3
330
A0
100
AcDbEntity
  8
LC-002-100-D00-0
 62
     7
370
    15
100
AcDbLine
 10
160.153817
 20
62.763764
 30
0.0
 11
160.103689
 21
62.67694
 31
0.0
  0
LINE
  5
A4
330
A0
100
AcDbEntity
  8
LC-002-100-D00-0
 62
     7
370
    15
100
AcDbLine
 10
160.103689
 20
62.67694
 30
0.0
 11
160.055084
 21
62.592754
 31
0.0
  0
LINE
  5
A5
330
A0
100
AcDbEntity
  8
LC-002-100-D00-0
 62
     7
370
    15
100
AcDbLine
 10
160.055084
 20
62.592754
 30
0.0
 11
160.009479
 21
62.513764
 31
0.0
  0
LINE
  5
A6
330
A0
100
AcDbEntity
  8
LC-002-100-D00-0
 62
     7
370
    15
100
AcDbLine
 10
160.009479
 20
62.513764
 30
0.0
 11
159.96826
 21
62.442371
 31
0.0
  0
LINE
  5
A7
330
A0
100
AcDbEntity
  8
LC-002-100-D00-0
 62
     7
370
    15
100
AcDbLine
 10
159.96826
 20
62.442371
 30
0.0
 11
159.932679
 21
62.380742
 31
0.0
  0
LINE
  5
A8
330
A0
100
AcDbEntity
  8
LC-002-100-D00-0
 62
     7
370
    15
100
AcDbLine
 10
159.932679
 20
62.380742
 30
0.0
 11
159.903817
 21
62.330752
 31
0.0
  0
LINE
  5
A9
330
A0
100
AcDbEntity
  8
LC-002-100-D00-0
 62
     7
370
    15
100
AcDbLine
 10
159.903817
 20
62.330752
 30
0.0
 11
159.882551
 21
62.293918
 31
0.0
  0
LINE
  5
AA
330
A0
100
AcDbEntity
  8
LC-002-100-D00-0
 62
     7
370
    15
100
AcDbLine
 10
159.882551
 20
62.293918
 30
0.0
 11
159.869527
 21
62.27136
 31
0.0
  0
LINE
  5
AB
330
A0
100
AcDbEntity
  8
LC-002-100-D00-0
 62
     7
370
    15
100
AcDbLine
 10
159.869527
 20
62.27136
 30
0.0
 11
159.865142
 21
62.263764
 31
0.0
  0
ENDBLK
  5
A2
330
A0
100
AcDbEntity
  8
0
100
AcDbBlockEnd
  0
BLOCK
  5
AF
330
AE
100
AcDbEntity
  8
0
100
AcDbBlockBegin
  2
KLON8
 70
     0
 71
     0
 10
0.0
 20
0.0
 30
0.0
  3
KLON8
  1

  4
KLON8
  0
LINE
  5
B1
330
AE
100
AcDbEntity
  8
LC-002-100-D00-0
 62
     7
370
    15
100
AcDbLine
 10
156.689715
 20
62.763764
 30
0.0
 11
156.746033
 21
62.666219
 31
0.0
  0
LINE
  5
B2
330
AE
100
AcDbEntity
  8
LC-002-100-D00-0
 62
     7
370
    15
100
AcDbLine
 10
156.746033
 20
62.666219
 30
0.0
 11
156.800186
 21
62.572423
 31
0.0
  0
LINE
  5
B3
330
AE
100
AcDbEntity
  8
LC-002-100-D00-0
 62
     7
370
    15
100
AcDbLine
 10
156.800186
 20
62.572423
 30
0.0
 11
156.850094
 21
62.485979
 31
0.0
  0
LINE
  5
B4
330
AE
100
AcDbEntity
  8
LC-002-100-D00-0
 62
     7
370
    15
100
AcDbLine
 10
156.850094
 20
62.485979
 30
0.0
 11
156.893839
 21
62.410211
 31
0.0
  0
LINE
  5
B5
330
AE
100
AcDbEntity
  8
LC-002-100-D00-0
 62
     7
370
    15
100
AcDbLine
 10
156.893839
 20
62.410211
 30
0.0
 11
156.92974
 21
62.348029
 31
0.0
  0
LINE
  5
B6
330
AE
100
AcDbEntity
  8
LC-002-100-D00-0
 62
     7
370
    15
100
AcDbLine
 10
156.92974
 20
62.348029
 30
0.0
 11
156.956416
 21
62.301825
 31
0.0
  0
LINE
  5
B7
330
AE
100
AcDbEntity
  8
LC-002-100-D00-0
 62
     7
370
    15
100
AcDbLine
 10
156.956416
 20
62.301825
 30
0.0
 11
156.972843
 21
62.273372
 31
0.0
  0
LINE
  5
B8
330
AE
100
AcDbEntity
  8
LC-002-100-D00-0
 62
     7
370
    15
100
AcDbLine
 10
156.972843
 20
62.273372
 30
0.0
 11
156.97839
 21
62.263764
 31
0.0
  0
ENDBLK
  5
B0
330
AE
100
AcDbEntity
  8
0
100
AcDbBlockEnd
  0
BLOCK
  5
162
330
161
100
AcDbEntity
  8
0
100
AcDbBlockBegin
  2
KLON9
 70
     0
 71
     0
 10
0.0
 20
0.0
 30
0.0
  3
KLON9
  1

  4
KLON9
  0
LINE
  5
164
330
161
100
AcDbEntity
  8
LC-002-100-D00-0
 62
     7
370
    25
100
AcDbLine
 10
165.171766
 20
142.721126
 30
0.0
 11
168.421766
 21
145.971126
 31
0.0
  0
LINE
  5
165
330
161
100
AcDbEntity
  8
LC-002-100-D00-0
 62
     7
370
    25
100
AcDbLine
 10
164.421766
 20
146.461254
 30
0.0
 11
168.421766
 21
150.461254
 31
0.0
  0
LINE
  5
166
330
161
100
AcDbEntity
  8
LC-002-100-D00-0
 62
     7
370
    25
100
AcDbLine
 10
164.830999
 20
151.360615
 30
0.0
 11
168.421766
 21
154.951382
 31
0.0
  0
LINE
  5
167
330
161
100
AcDbEntity
  8
LC-002-100-D00-0
 62
     7
370
    25
100
AcDbLine
 10
163.421766
 20
154.44151
 30
0.0
 11
168.421766
 21
159.44151
 31
0.0
  0
LINE
  5
168
330
161
100
AcDbEntity
  8
LC-002-100-D00-0
 62
     7
370
    25
100
AcDbLine
 10
175.340871
 20
166.360615
 30
0.0
 11
176.671766
 21
167.69151
 31
0.0
  0
LINE
  5
169
330
161
100
AcDbEntity
  8
LC-002-100-D00-0
 62
     7
370
    25
100
AcDbLine
 10
163.421766
 20
158.931638
 30
0.0
 11
168.421766
 21
163.931638
 31
0.0
  0
LINE
  5
16A
330
161
100
AcDbEntity
  8
LC-002-100-D00-0
 62
     7
370
    25
100
AcDbLine
 10
173.444814
 20
168.954686
 30
0.0
 11
176.546752
 21
172.056624
 31
0.0
  0
LINE
  5
16B
330
161
100
AcDbEntity
  8
LC-002-100-D00-0
 62
     7
370
    25
100
AcDbLine
 10
163.421766
 20
163.421766
 30
0.0
 11
168.421766
 21
168.421766
 31
0.0
  0
LINE
  5
16C
330
161
100
AcDbEntity
  8
LC-002-100-D00-0
 62
     7
370
    25
100
AcDbLine
 10
170.360615
 20
170.360615
 30
0.0
 11
173.360615
 21
173.360615
 31
0.0
  0
LINE
  5
16D
330
161
100
AcDbEntity
  8
LC-002-100-D00-0
 62
     7
370
    25
100
AcDbLine
 10
163.421766
 20
167.911894
 30
0.0
 11
168.870487
 21
173.360615
 31
0.0
  0
LINE
  5
16E
330
161
100
AcDbEntity
  8
LC-002-100-D00-0
 62
     7
370
    25
100
AcDbLine
 10
163.421766
 20
172.402022
 30
0.0
 11
164.380359
 21
173.360615
 31
0.0
  0
ENDBLK
  5
163
330
161
100
AcDbEntity
  8
0
100
AcDbBlockEnd
  0
BLOCK
  5
171
330
170
100
AcDbEntity
  8
0
100
AcDbBlockBegin
  2
KLON10
 70
     0
 71
     0
 10
0.0
 20
0.0
 30
0.0
  3
KLON10
  1

  4
KLON10
  0
LINE
  5
173
330
170
100
AcDbEntity
  8
LC-002-100-D00-0
 62
     7
370
    25
100
AcDbLine
 10
150.340871
 20
141.360615
 30
0.0
 11
151.671766
 21
142.69151
 31
0.0
  0
LINE
  5
174
330
170
100
AcDbEntity
  8
LC-002-100-D00-0
 62
     7
370
    25
100
AcDbLine
 10
148.421766
 20
143.931638
 30
0.0
 11
152.421766
 21
147.931638
 31
0.0
  0
LINE
  5
175
330
170
100
AcDbEntity
  8
LC-002-100-D00-0
 62
     7
370
    25
100
AcDbLine
 10
148.421766
 20
148.421766
 30
0.0
 11
153.421766
 21
153.421766
 31
0.0
  0
LINE
  5
176
330
170
100
AcDbEntity
  8
LC-002-100-D00-0
 62
     7
370
    25
100
AcDbLine
 10
148.421766
 20
152.911894
 30
0.0
 11
153.421766
 21
157.911894
 31
0.0
  0
LINE
  5
177
330
170
100
AcDbEntity
  8
LC-002-100-D00-0
 62
     7
370
    25
100
AcDbLine
 10
148.421766
 20
157.402022
 30
0.0
 11
153.421766
 21
162.402022
 31
0.0
  0
LINE
  5
178
330
170
100
AcDbEntity
  8
LC-002-100-D00-0
 62
     7
370
    25
100
AcDbLine
 10
148.421766
 20
161.89215
 30
0.0
 11
153.421766
 21
166.89215
 31
0.0
  0
LINE
  5
179
330
170
100
AcDbEntity
  8
LC-002-100-D00-0
 62
     7
370
    25
100
AcDbLine
 10
148.421766
 20
166.382278
 30
0.0
 11
153.421766
 21
171.382278
 31
0.0
  0
LINE
  5
17A
330
170
100
AcDbEntity
  8
LC-002-100-D00-0
 62
     7
370
    25
100
AcDbLine
 10
147.82505
 20
170.27569
 30
0.0
 11
150.909975
 21
173.360615
 31
0.0
  0
LINE
  5
17B
330
170
100
AcDbEntity
  8
LC-002-100-D00-0
 62
     7
370
    25
100
AcDbLine
 10
140.171766
 20
167.112534
 30
0.0
 11
146.419847
 21
173.360615
 31
0.0
  0
LINE
  5
17C
330
170
100
AcDbEntity
  8
LC-002-100-D00-0
 62
     7
370
    25
100
AcDbLine
 10
140.18859
 20
171.619487
 30
0.0
 11
141.912894
 21
173.343791
 31
0.0
  0
ENDBLK
  5
172
330
170
100
AcDbEntity
  8
0
100
AcDbBlockEnd
  0
BLOCK
  5
17F
330
17E
100
AcDbEntity
  8
0
100
AcDbBlockBegin
  2
KLON11
 70
     0
 71
     0
 10
0.0
 20
0.0
 30
0.0
  3
KLON11
  1

  4
KLON11
  0
LINE
  5
181
330
17E
100
AcDbEntity
  8
LC-002-100-D00-0
 62
     7
370
    25
100
AcDbLine
 10
151.671766
 20
142.69151
 30
0.0
 11
154.171766
 21
145.19151
 31
0.0
  0
LINE
  5
182
330
17E
100
AcDbEntity
  8
LC-002-100-D00-0
  6
DASHED
 62
     7
370
    25
100
AcDbLine
 10
152.421766
 20
147.931636
 30
0.0
 11
154.171766
 21
149.681636
 31
0.0
  0
ENDBLK
  5
180
330
17E
100
AcDbEntity
  8
0
100
AcDbBlockEnd
  0
BLOCK
  5
185
330
184
100
AcDbEntity
  8
0
100
AcDbBlockBegin
  2
KLON12
 70
     0
 71
     0
 10
0.0
 20
0.0
 30
0.0
  3
KLON12
  1

  4
KLON12
  0
LINE
  5
187
330
184
100
AcDbEntity
  8
LC-002-100-D00-0
 62
     7
370
    25
100
AcDbLine
 10
162.671766
 20
144.711254
 30
0.0
 11
164.421766
 21
146.461254
 31
0.0
  0
LINE
  5
188
330
184
100
AcDbEntity
  8
LC-002-100-D00-0
  6
DASHED
 62
     7
370
    25
100
AcDbLine
 10
163.811257
 20
141.360615
 30
0.0
 11
165.171766
 21
142.721124
 31
0.0
  0
LINE
  5
189
330
184
100
AcDbEntity
  8
LC-002-100-D00-0
  6
DASHED
 62
     7
370
    25
100
AcDbLine
 10
162.671766
 20
149.20138
 30
0.0
 11
164.831001
 21
151.360615
 31
0.0
  0
ENDBLK
  5
186
330
184
100
AcDbEntity
  8
0
100
AcDbBlockEnd
  0
BLOCK
  5
18C
330
18B
100
AcDbEntity
  8
0
100
AcDbBlockBegin
  2
KLON13
 70
     0
 71
     0
 10
0.0
 20
0.0
 30
0.0
  3
KLON13
  1

  4
KLON13
  0
LINE
  5
18E
330
18B
100
AcDbEntity
  8
LC-002-100-D00-0
 62
     7
370
    25
100
AcDbLine
 10
154.830999
 20
141.360615
 30
0.0
 11
156.321766
 21
142.851382
 31
0.0
  0
LINE
  5
18F
330
18B
100
AcDbEntity
  8
LC-002-100-D00-0
 62
     7
370
    25
100
AcDbLine
 10
153.421766
 20
144.44151
 30
0.0
 11
156.321766
 21
147.34151
 31
0.0
  0
LINE
  5
190
330
18B
100
AcDbEntity
  8
LC-002-100-D00-0
 62
     7
370
    25
100
AcDbLine
 10
153.421766
 20
148.931638
 30
0.0
 11
156.321766
 21
151.831638
 31
0.0
  0
LINE
  5
191
330
18B
100
AcDbEntity
  8
LC-002-100-D00-0
 62
     7
370
    25
100
AcDbLine
 10
153.421766
 20
153.421766
 30
0.0
 11
155.535015
 21
155.535015
 31
0.0
  0
LINE
  5
192
330
18B
100
AcDbEntity
  8
LC-002-100-D00-0
 62
     7
370
    25
100
AcDbLine
 10
153.421766
 20
157.911894
 30
0.0
 11
155.511006
 21
160.001134
 31
0.0
  0
ENDBLK
  5
18D
330
18B
100
AcDbEntity
  8
0
100
AcDbBlockEnd
  0
BLOCK
  5
195
330
194
100
AcDbEntity
  8
0
100
AcDbBlockBegin
  2
KLON14
 70
     0
 71
     0
 10
0.0
 20
0.0
 30
0.0
  3
KLON14
  1

  4
KLON14
  0
LINE
  5
197
330
194
100
AcDbEntity
  8
LC-002-100-D00-0
 62
     7
370
    -2
100
AcDbLine
 10
160.521766
 20
142.561254
 30
0.0
 11
163.421766
 21
145.461254
 31
0.0
  0
LINE
  5
198
330
194
100
AcDbEntity
  8
LC-002-100-D00-0
 62
     7
370
    -2
100
AcDbLine
 10
160.521766
 20
147.051382
 30
0.0
 11
163.421766
 21
149.951382
 31
0.0
  0
LINE
  5
199
330
194
100
AcDbEntity
  8
LC-002-100-D00-0
 62
     7
370
    -2
100
AcDbLine
 10
160.521766
 20
151.54151
 30
0.0
 11
163.421766
 21
154.44151
 31
0.0
  0
LINE
  5
19A
330
194
100
AcDbEntity
  8
LC-002-100-D00-0
 62
     7
370
    -2
100
AcDbLine
 10
161.308517
 20
156.818389
 30
0.0
 11
163.421766
 21
158.931638
 31
0.0
  0
ENDBLK
  5
196
330
194
100
AcDbEntity
  8
0
100
AcDbBlockEnd
  0
BLOCK
  5
19D
330
19C
100
AcDbEntity
  8
0
100
AcDbBlockBegin
  2
KLON15
 70
     0
 71
     0
 10
0.0
 20
0.0
 30
0.0
  3
KLON15
  1

  4
KLON15
  0
LINE
  5
19F
330
19C
100
AcDbEntity
  8
LC-002-100-D00-0
 62
     7
370
    25
100
AcDbLine
 10
114.419847
 20
141.360615
 30
0.0
 11
116.921766
 21
143.862534
 31
0.0
  0
LINE
  5
1A0
330
19C
100
AcDbEntity
  8
LC-002-100-D00-0
 62
     7
370
    25
100
AcDbLine
 10
112.929719
 20
144.360615
 30
0.0
 11
116.921766
 21
148.352662
 31
0.0
  0
LINE
  5
1A1
330
19C
100
AcDbEntity
  8
LC-002-100-D00-0
 62
     7
370
    25
100
AcDbLine
 10
113.671766
 20
149.59279
 30
0.0
 11
116.921766
 21
152.84279
 31
0.0
  0
LINE
  5
1A2
330
19C
100
AcDbEntity
  8
LC-002-100-D00-0
 62
     7
370
    25
100
AcDbLine
 10
111.921766
 20
152.332919
 30
0.0
 11
116.921766
 21
157.332919
 31
0.0
  0
LINE
  5
1A3
330
19C
100
AcDbEntity
  8
LC-002-100-D00-0
 62
     7
370
    25
100
AcDbLine
 10
111.921766
 20
156.823047
 30
0.0
 11
116.921766
 21
161.823047
 31
0.0
  0
LINE
  5
1A4
330
19C
100
AcDbEntity
  8
LC-002-100-D00-0
 62
     7
370
    25
100
AcDbLine
 10
122.114451
 20
167.015731
 30
0.0
 11
125.171766
 21
170.073047
 31
0.0
  0
LINE
  5
1A5
330
19C
100
AcDbEntity
  8
LC-002-100-D00-0
 62
     7
370
    25
100
AcDbLine
 10
111.921766
 20
161.313175
 30
0.0
 11
116.921766
 21
166.313175
 31
0.0
  0
LINE
  5
1A6
330
19C
100
AcDbEntity
  8
LC-002-100-D00-0
 62
     7
370
    25
100
AcDbLine
 10
120.969206
 20
170.360615
 30
0.0
 11
123.850511
 21
173.241919
 31
0.0
  0
LINE
  5
1A7
330
19C
100
AcDbEntity
  8
LC-002-100-D00-0
 62
     7
370
    25
100
AcDbLine
 10
111.921766
 20
165.803303
 30
0.0
 11
119.479078
 21
173.360615
 31
0.0
  0
LINE
  5
1A8
330
19C
100
AcDbEntity
  8
LC-002-100-D00-0
 62
     7
370
    25
100
AcDbLine
 10
111.921766
 20
170.293431
 30
0.0
 11
114.98895
 21
173.360615
 31
0.0
  0
ENDBLK
  5
19E
330
19C
100
AcDbEntity
  8
0
100
AcDbBlockEnd
  0
BLOCK
  5
1AB
330
1AA
100
AcDbEntity
  8
0
100
AcDbBlockBegin
  2
KLON16
 70
     0
 71
     0
 10
0.0
 20
0.0
 30
0.0
  3
KLON16
  1

  4
KLON16
  0
LINE
  5
1AD
330
1AA
100
AcDbEntity
  8
LC-002-100-D00-0
 62
     7
370
    25
100
AcDbLine
 10
97.022314
 20
141.923595
 30
0.0
 11
100.921766
 21
145.823047
 31
0.0
  0
LINE
  5
1AE
330
1AA
100
AcDbEntity
  8
LC-002-100-D00-0
 62
     7
370
    25
100
AcDbLine
 10
96.921766
 20
146.313175
 30
0.0
 11
100.171766
 21
149.563175
 31
0.0
  0
LINE
  5
1AF
330
1AA
100
AcDbEntity
  8
LC-002-100-D00-0
 62
     7
370
    25
100
AcDbLine
 10
101.820486
 20
151.211895
 30
0.0
 11
101.921766
 21
151.313175
 31
0.0
  0
LINE
  5
1B0
330
1AA
100
AcDbEntity
  8
LC-002-100-D00-0
 62
     7
370
    25
100
AcDbLine
 10
96.921766
 20
150.803303
 30
0.0
 11
101.921766
 21
155.803303
 31
0.0
  0
LINE
  5
1B1
330
1AA
100
AcDbEntity
  8
LC-002-100-D00-0
 62
     7
370
    25
100
AcDbLine
 10
96.921766
 20
155.293431
 30
0.0
 11
101.921766
 21
160.293431
 31
0.0
  0
LINE
  5
1B2
330
1AA
100
AcDbEntity
  8
LC-002-100-D00-0
 62
     7
370
    25
100
AcDbLine
 10
96.921766
 20
159.783559
 30
0.0
 11
101.921766
 21
164.783559
 31
0.0
  0
LINE
  5
1B3
330
1AA
100
AcDbEntity
  8
LC-002-100-D00-0
 62
     7
370
    25
100
AcDbLine
 10
96.921766
 20
164.273687
 30
0.0
 11
101.921766
 21
169.273687
 31
0.0
  0
LINE
  5
1B4
330
1AA
100
AcDbEntity
  8
LC-002-100-D00-0
 62
     7
370
    25
100
AcDbLine
 10
96.921766
 20
168.763815
 30
0.0
 11
101.518566
 21
173.360615
 31
0.0
  0
LINE
  5
1B5
330
1AA
100
AcDbEntity
  8
LC-002-100-D00-0
 62
     7
370
    25
100
AcDbLine
 10
90.028438
 20
166.360615
 30
0.0
 11
91.829323
 21
168.1615
 31
0.0
  0
LINE
  5
1B6
330
1AA
100
AcDbEntity
  8
LC-002-100-D00-0
 62
     7
370
    25
100
AcDbLine
 10
94.028438
 20
170.360615
 30
0.0
 11
97.028438
 21
173.360615
 31
0.0
  0
LINE
  5
1B7
330
1AA
100
AcDbEntity
  8
LC-002-100-D00-0
 62
     7
370
    25
100
AcDbLine
 10
88.671766
 20
169.494071
 30
0.0
 11
92.53831
 21
173.360615
 31
0.0
  0
ENDBLK
  5
1AC
330
1AA
100
AcDbEntity
  8
0
100
AcDbBlockEnd
  0
BLOCK
  5
1BA
330
1B9
100
AcDbEntity
  8
0
100
AcDbBlockBegin
  2
KLON17
 70
     0
 71
     0
 10
0.0
 20
0.0
 30
0.0
  3
KLON17
  1

  4
KLON17
  0
LINE
  5
1BC
330
1B9
100
AcDbEntity
  8
LC-002-100-D00-0
 62
     7
370
    25
100
AcDbLine
 10
100.921766
 20
145.823047
 30
0.0
 11
102.671766
 21
147.573047
 31
0.0
  0
LINE
  5
1BD
330
1B9
100
AcDbEntity
  8
LC-002-100-D00-0
  6
DASHED
 62
     7
370
    25
100
AcDbLine
 10
100.949464
 20
141.360615
 30
0.0
 11
102.671766
 21
143.082917
 31
0.0
  0
LINE
  5
1BE
330
1B9
100
AcDbEntity
  8
LC-002-100-D00-0
  6
DASHED
 62
     7
370
    25
100
AcDbLine
 10
100.171766
 20
149.563173
 30
0.0
 11
101.820487
 21
151.211894
 31
0.0
  0
ENDBLK
  5
1BB
330
1B9
100
AcDbEntity
  8
0
100
AcDbBlockEnd
  0
BLOCK
  5
1C1
330
1C0
100
AcDbEntity
  8
0
100
AcDbBlockBegin
  2
KLON18
 70
     0
 71
     0
 10
0.0
 20
0.0
 30
0.0
  3
KLON18
  1

  4
KLON18
  0
LINE
  5
1C3
330
1C0
100
AcDbEntity
  8
LC-002-100-D00-0
 62
     7
370
    25
100
AcDbLine
 10
111.171766
 20
147.09279
 30
0.0
 11
113.671766
 21
149.59279
 31
0.0
  0
LINE
  5
1C4
330
1C0
100
AcDbEntity
  8
LC-002-100-D00-0
  6
DASHED
 62
     7
370
    25
100
AcDbLine
 10
111.171766
 20
142.60266
 30
0.0
 11
112.929721
 21
144.360615
 31
0.0
  0
ENDBLK
  5
1C2
330
1C0
100
AcDbEntity
  8
0
100
AcDbBlockEnd
  0
BLOCK
  5
1C7
330
1C6
100
AcDbEntity
  8
0
100
AcDbBlockBegin
  2
KLON19
 70
     0
 71
     0
 10
0.0
 20
0.0
 30
0.0
  3
KLON19
  1

  4
KLON19
  0
LINE
  5
1C9
330
1C6
100
AcDbEntity
  8
LC-002-100-D00-0
 62
     7
370
    25
100
AcDbLine
 10
101.921766
 20
142.332919
 30
0.0
 11
104.821766
 21
145.232919
 31
0.0
  0
LINE
  5
1CA
330
1C6
100
AcDbEntity
  8
LC-002-100-D00-0
 62
     7
370
    25
100
AcDbLine
 10
101.921766
 20
146.823047
 30
0.0
 11
104.821766
 21
149.723047
 31
0.0
  0
LINE
  5
1CB
330
1C6
100
AcDbEntity
  8
LC-002-100-D00-0
 62
     7
370
    25
100
AcDbLine
 10
101.921766
 20
151.313175
 30
0.0
 11
104.821766
 21
154.213175
 31
0.0
  0
LINE
  5
1CC
330
1C6
100
AcDbEntity
  8
LC-002-100-D00-0
 62
     7
370
    25
100
AcDbLine
 10
101.921766
 20
155.803303
 30
0.0
 11
104.035015
 21
157.916551
 31
0.0
  0
ENDBLK
  5
1C8
330
1C6
100
AcDbEntity
  8
0
100
AcDbBlockEnd
  0
BLOCK
  5
1CF
330
1CE
100
AcDbEntity
  8
0
100
AcDbBlockBegin
  2
KLON20
 70
     0
 71
     0
 10
0.0
 20
0.0
 30
0.0
  3
KLON20
  1

  4
KLON20
  0
LINE
  5
1D1
330
1CE
100
AcDbEntity
  8
LC-002-100-D00-0
 62
     7
370
    25
100
AcDbLine
 10
109.929719
 20
141.360615
 30
0.0
 11
111.921766
 21
143.352662
 31
0.0
  0
LINE
  5
1D2
330
1CE
100
AcDbEntity
  8
LC-002-100-D00-0
 62
     7
370
    25
100
AcDbLine
 10
109.021766
 20
144.94279
 30
0.0
 11
111.921766
 21
147.84279
 31
0.0
  0
LINE
  5
1D3
330
1CE
100
AcDbEntity
  8
LC-002-100-D00-0
 62
     7
370
    25
100
AcDbLine
 10
109.021766
 20
149.432919
 30
0.0
 11
111.921766
 21
152.332919
 31
0.0
  0
LINE
  5
1D4
330
1CE
100
AcDbEntity
  8
LC-002-100-D00-0
 62
     7
370
    25
100
AcDbLine
 10
109.021766
 20
153.923047
 30
0.0
 11
111.921766
 21
156.823047
 31
0.0
  0
LINE
  5
1D5
330
1CE
100
AcDbEntity
  8
LC-002-100-D00-0
 62
     7
370
    25
100
AcDbLine
 10
109.808517
 20
159.199926
 30
0.0
 11
110.969206
 21
160.360615
 31
0.0
  0
ENDBLK
  5
1D0
330
1CE
100
AcDbEntity
  8
0
100
AcDbBlockEnd
  0
BLOCK
  5
1E6
330
1DB
100
AcDbEntity
  8
0
100
AcDbBlockBegin
  2
*D21
 70
     1
 71
     0
 10
0.0
 20
0.0
 30
0.0
  3
*D21
  1

  0
LINE
  5
1DC
330
1DB
100
AcDbEntity
  8
LC-002-100-D00-0
 62
     2
370
    -2
100
AcDbLine
 10
96.921766
 20
142.360615
 30
0.0
 11
96.921766
 21
91.217006
 31
0.0
  0
LINE
  5
1DD
330
1DB
100
AcDbEntity
  8
LC-002-100-D00-0
 62
     2
370
    -2
100
AcDbLine
 10
116.921766
 20
142.360615
 30
0.0
 11
116.921766
 21
91.217006
 31
0.0
  0
LINE
  5
1DE
330
1DB
100
AcDbEntity
  8
LC-002-100-D00-0
 62
     2
370
    -2
100
AcDbLine
 10
68.921766
 20
94.817006
 30
0.0
 11
40.921766
 21
94.817006
 31
0.0
  0
LINE
  5
1DF
330
1DB
100
AcDbEntity
  8
LC-002-100-D00-0
 62
     2
370
    -2
100
AcDbLine
 10
144.921766
 20
94.817006
 30
0.0
 11
195.601274
 21
94.817006
 31
0.0
  0
SOLID
  5
1E0
330
1DB
100
AcDbEntity
  8
LC-002-100-D00-0
 62
     2
100
AcDbTrace
 10
68.921766
 20
90.150339
 30
0.0
 11
68.921766
 21
99.483672
 31
0.0
 12
96.921766
 22
94.817006
 32
0.0
 13
96.921766
 23
94.817006
 33
0.0
  0
SOLID
  5
1E1
330
1DB
100
AcDbEntity
  8
LC-002-100-D00-0
 62
     2
100
AcDbTrace
 10
144.921766
 20
99.483672
 30
0.0
 11
144.921766
 21
90.150339
 31
0.0
 12
116.921766
 22
94.817006
 32
0.0
 13
116.921766
 23
94.817006
 33
0.0
  0
MTEXT
  5
1E2
330
1DB
100
AcDbEntity
  8
LC-002-100-D00-0
 62
     2
100
AcDbMText
 10
171.964516
 20
125.617006
 30
0.0
 40
28.0
 41
0.0
 71
     5
 72
     1
  1
%%c\A1;20
  7
LCTX15-400-0-0pDIN-Schrift
 73
     1
 44
1.0
  0
POINT
  5
1E3
330
1DB
100
AcDbEntity
  8
Defpoints
 62
     0
100
AcDbPoint
 10
96.921766
 20
142.360615
 30
0.0
  0
POINT
  5
1E4
330
1DB
100
AcDbEntity
  8
Defpoints
 62
     0
100
AcDbPoint
 10
116.921766
 20
142.360615
 30
0.0
  0
POINT
  5
1E5
330
1DB
100
AcDbEntity
  8
Defpoints
 62
     0
100
AcDbPoint
 10
116.921766
 20
94.817006
 30
0.0
  0
ENDBLK
  5
1E7
330
1DB
100
AcDbEntity
  8
0
100
AcDbBlockEnd
  0
BLOCK
  5
1F5
330
1E9
100
AcDbEntity
  8
0
100
AcDbBlockBegin
  2
*D22
 70
     1
 71
     0
 10
0.0
 20
0.0
 30
0.0
  3
*D22
  1

  0
LINE
  5
1EA
330
1E9
100
AcDbEntity
  8
LC-002-100-D00-0
 62
     2
370
    -2
100
AcDbLine
 10
90.671766
 20
173.360615
 30
0.0
 11
36.279843
 21
173.360615
 31
0.0
  0
LINE
  5
1EB
330
1E9
100
AcDbEntity
  8
LC-002-100-D00-0
 62
     2
370
    -2
100
AcDbLine
 10
102.421766
 20
141.360615
 30
0.0
 11
36.279843
 21
141.360615
 31
0.0
  0
LINE
  5
1EC
330
1E9
100
AcDbEntity
  8
LC-002-100-D00-0
 62
     2
370
    -2
100
AcDbLine
 10
39.879843
 20
201.360615
 30
0.0
 11
39.879843
 21
229.360615
 31
0.0
  0
LINE
  5
1ED
330
1E9
100
AcDbEntity
  8
LC-002-100-D00-0
 62
     2
370
    -2
100
AcDbLine
 10
39.879843
 20
113.360615
 30
0.0
 11
39.879843
 21
85.360615
 31
0.0
  0
LINE
  5
1EE
330
1E9
100
AcDbEntity
  8
LC-002-100-D00-0
 62
     2
370
    -2
100
AcDbLine
 10
39.879843
 20
173.360615
 30
0.0
 11
39.879843
 21
141.360615
 31
0.0
  0
SOLID
  5
1EF
330
1E9
100
AcDbEntity
  8
LC-002-100-D00-0
 62
     2
100
AcDbTrace
 10
35.213177
 20
201.360615
 30
0.0
 11
44.54651
 21
201.360615
 31
0.0
 12
39.879843
 22
173.360615
 32
0.0
 13
39.879843
 23
173.360615
 33
0.0
  0
SOLID
  5
1F0
330
1E9
100
AcDbEntity
  8
LC-002-100-D00-0
 62
     2
100
AcDbTrace
 10
44.54651
 20
113.360615
 30
0.0
 11
35.213177
 21
113.360615
 31
0.0
 12
39.879843
 22
141.360615
 32
0.0
 13
39.879843
 23
141.360615
 33
0.0
  0
MTEXT
  5
1F1
330
1E9
100
AcDbEntity
  8
LC-002-100-D00-0
 62
     2
100
AcDbMText
 10
9.079843
 20
150.059006
 30
0.0
 40
28.0
 41
0.0
 71
     5
 72
     1
  1
\A1;32
  7
LCTX15-400-0-0pDIN-Schrift
 11
6.123031769111886E-17
 21
1.0
 31
0.0
 73
     1
 44
1.0
  0
POINT
  5
1F2
330
1E9
100
AcDbEntity
  8
Defpoints
 62
     0
100
AcDbPoint
 10
90.671766
 20
173.360615
 30
0.0
  0
POINT
  5
1F3
330
1E9
100
AcDbEntity
  8
Defpoints
 62
     0
100
AcDbPoint
 10
102.421766
 20
141.360615
 30
0.0
  0
POINT
  5
1F4
330
1E9
100
AcDbEntity
  8
Defpoints
 62
     0
100
AcDbPoint
 10
39.879843
 20
141.360615
 30
0.0
  0
ENDBLK
  5
1F6
330
1E9
100
AcDbEntity
  8
0
100
AcDbBlockEnd
  0
BLOCK
  5
204
330
1F9
100
AcDbEntity
  8
0
100
AcDbBlockBegin
  2
*D23
 70
     1
 71
     0
 10
0.0
 20
0.0
 30
0.0
  3
*D23
  1

  0
LINE
  5
1FA
330
1F9
100
AcDbEntity
  8
LC-002-100-D00-0
 62
     2
370
    -2
100
AcDbLine
 10
88.671766
 20
171.360615
 30
0.0
 11
88.671766
 21
204.743006
 31
0.0
  0
LINE
  5
1FB
330
1F9
100
AcDbEntity
  8
LC-002-100-D00-0
 62
     2
370
    -2
100
AcDbLine
 10
125.171766
 20
171.360615
 30
0.0
 11
125.171766
 21
204.743006
 31
0.0
  0
LINE
  5
1FC
330
1F9
100
AcDbEntity
  8
LC-002-100-D00-0
 62
     2
370
    -2
100
AcDbLine
 10
60.671766
 20
201.143006
 30
0.0
 11
32.671766
 21
201.143006
 31
0.0
  0
LINE
  5
1FD
330
1F9
100
AcDbEntity
  8
LC-002-100-D00-0
 62
     2
370
    -2
100
AcDbLine
 10
153.171766
 20
201.143006
 30
0.0
 11
203.089672
 21
201.143006
 31
0.0
  0
SOLID
  5
1FE
330
1F9
100
AcDbEntity
  8
LC-002-100-D00-0
 62
     2
100
AcDbTrace
 10
60.671766
 20
196.476339
 30
0.0
 11
60.671766
 21
205.809672
 31
0.0
 12
88.671766
 22
201.143006
 32
0.0
 13
88.671766
 23
201.143006
 33
0.0
  0
SOLID
  5
1FF
330
1F9
100
AcDbEntity
  8
LC-002-100-D00-0
 62
     2
100
AcDbTrace
 10
153.171766
 20
205.809672
 30
0.0
 11
153.171766
 21
196.476339
 31
0.0
 12
125.171766
 22
201.143006
 32
0.0
 13
125.171766
 23
201.143006
 33
0.0
  0
MTEXT
  5
200
330
1F9
100
AcDbEntity
  8
LC-002-100-D00-0
 62
     2
100
AcDbMText
 10
163.986248
 20
231.943006
 30
0.0
 40
28.0
 41
0.0
 71
     5
 72
     1
  1
\A1;36,5
  7
LCTX15-400-0-0pDIN-Schrift
 73
     1
 44
1.0
  0
POINT
  5
201
330
1F9
100
AcDbEntity
  8
Defpoints
 62
     0
100
AcDbPoint
 10
88.671766
 20
171.360615
 30
0.0
  0
POINT
  5
202
330
1F9
100
AcDbEntity
  8
Defpoints
 62
     0
100
AcDbPoint
 10
125.171766
 20
171.360615
 30
0.0
  0
POINT
  5
203
330
1F9
100
AcDbEntity
  8
Defpoints
 62
     0
100
AcDbPoint
 10
125.171766
 20
201.143006
 30
0.0
  0
ENDBLK
  5
205
330
1F9
100
AcDbEntity
  8
0
100
AcDbBlockEnd
  0
ENDSEC
  0
SECTION
  2
ENTITIES
  0
LINE
  5
32
330
1F
100
AcDbEntity
  8
LC-001-002-----0
 62
     7
370
    25
100
AcDbLine
 10
106.921767
 20
173.360615
 30
0.0
 11
106.921767
 21
141.360616
 31
0.0
  0
LINE
  5
33
330
1F
100
AcDbEntity
  8
LC-001-002-----0
 62
     7
370
    25
100
AcDbLine
 10
158.421766
 20
173.360615
 30
0.0
 11
158.421766
 21
141.360616
 31
0.0
  0
LINE
  5
35
330
1F
100
AcDbEntity
  8
LC-002-100-D00-0
 62
     7
370
    50
100
AcDbLine
 10
140.171765
 20
47.513765
 30
0.0
 11
140.171765
 21
72.013764
 31
0.0
  0
ARC
  5
36
330
1F
100
AcDbEntity
  8
LC-002-100-D00-0
 62
     7
370
    50
100
AcDbCircle
 10
170.671766
 20
47.513764
 30
0.0
 40
6.000000000000028
100
AcDbArc
 50
270.0
 51
0.0
  0
ARC
  5
37
330
1F
100
AcDbEntity
  8
LC-002-100-D00-0
 62
     7
370
    50
100
AcDbCircle
 10
146.171766
 20
72.013764
 30
0.0
 40
6.000000000000028
100
AcDbArc
 50
90.0
 51
180.0
  0
LINE
  5
38
330
1F
100
AcDbEntity
  8
LC-002-100-D00-0
 62
     7
370
    50
100
AcDbLine
 10
176.671767
 20
72.013764
 30
0.0
 11
176.671767
 21
47.513765
 31
0.0
  0
CIRCLE
  5
39
330
1F
100
AcDbEntity
  8
LC-002-100-D00-0
 62
     7
370
    50
100
AcDbCircle
 10
158.421766
 20
59.763764
 30
0.0
 40
5.0
  0
ARC
  5
3A
330
1F
100
AcDbEntity
  8
LC-002-100-D00-0
 62
     7
370
    50
100
AcDbCircle
 10
146.171766
 20
47.513764
 30
0.0
 40
6.0
100
AcDbArc
 50
180.0
 51
270.0
  0
LINE
  5
3B
330
1F
100
AcDbEntity
  8
LC-002-100-D00-0
 62
     7
370
    50
100
AcDbLine
 10
170.671766
 20
41.513765
 30
0.0
 11
146.171766
 21
41.513765
 31
0.0
  0
ARC
  5
3C
330
1F
100
AcDbEntity
  8
LC-002-100-D00-0
 62
     7
370
    50
100
AcDbCircle
 10
170.671766
 20
72.013764
 30
0.0
 40
6.0
100
AcDbArc
 50
0.0
 51
90.0
  0
LINE
  5
3D
330
1F
100
AcDbEntity
  8
LC-002-100-D00-0
 62
     7
370
    50
100
AcDbLine
 10
146.171766
 20
78.013764
 30
0.0
 11
170.671766
 21
78.013764
 31
0.0
  0
ARC
  5
3E
330
1F
100
AcDbEntity
  8
LC-002-100-D00-0
 62
     7
370
    50
100
AcDbCircle
 10
119.171766
 20
47.513764
 30
0.0
 40
6.000000000000014
100
AcDbArc
 50
270.0
 51
0.0
  0
ARC
  5
3F
330
1F
100
AcDbEntity
  8
LC-002-100-D00-0
 62
     7
370
    50
100
AcDbCircle
 10
94.671766
 20
72.013764
 30
0.0
 40
6.000000000000014
100
AcDbArc
 50
90.0
 51
180.0
  0
LINE
  5
40
330
1F
100
AcDbEntity
  8
LC-002-100-D00-0
 62
     7
370
    50
100
AcDbLine
 10
125.171765
 20
72.013764
 30
0.0
 11
125.171765
 21
47.513765
 31
0.0
  0
LINE
  5
41
330
1F
100
AcDbEntity
  8
LC-002-100-D00-0
 62
     7
370
    50
100
AcDbLine
 10
94.671766
 20
78.013764
 30
0.0
 11
119.171767
 21
78.013764
 31
0.0
  0
CIRCLE
  5
42
330
1F
100
AcDbEntity
  8
LC-002-100-D00-0
 62
     7
370
    50
100
AcDbCircle
 10
106.921766
 20
59.763764
 30
0.0
 40
4.999999999999986
  0
LINE
  5
43
330
1F
100
AcDbEntity
  8
LC-002-100-D00-0
 62
     7
370
    50
100
AcDbLine
 10
88.671765
 20
47.513765
 30
0.0
 11
88.671765
 21
72.013764
 31
0.0
  0
LINE
  5
44
330
1F
100
AcDbEntity
  8
LC-002-100-D00-0
 62
     7
370
    50
100
AcDbLine
 10
119.171767
 20
41.513765
 30
0.0
 11
94.671766
 21
41.513765
 31
0.0
  0
ARC
  5
45
330
1F
100
AcDbEntity
  8
LC-002-100-D00-0
 62
     7
370
    50
100
AcDbCircle
 10
94.671766
 20
47.513764
 30
0.0
 40
6.000000000000014
100
AcDbArc
 50
180.0
 51
270.0
  0
ARC
  5
46
330
1F
100
AcDbEntity
  8
LC-002-100-D00-0
 62
     7
370
    50
100
AcDbCircle
 10
119.171766
 20
72.013764
 30
0.0
 40
6.000000000000014
100
AcDbArc
 50
0.0
 51
90.0
  0
LINE
  5
47
330
1F
100
AcDbEntity
  8
LC-002-100-D00-0
 62
     7
370
    50
100
AcDbLine
 10
109.808518
 20
59.763764
 30
0.0
 11
108.36514
 21
62.263764
 31
0.0
  0
INSERT
  5
54
330
1F
100
AcDbEntity
  8
LC-002-100-D00-0
 62
     7
370
    50
100
AcDbBlockReference
  2
KLON1
 10
0.0
 20
0.0
 30
0.0
  0
LINE
  5
55
330
1F
100
AcDbEntity
  8
LC-002-100-D00-0
 62
     7
370
    50
100
AcDbLine
 10
109.808518
 20
59.763764
 30
0.0
 11
110.385868
 21
59.763764
 31
0.0
  0
CIRCLE
  5
56
330
1F
100
AcDbEntity
  8
LC-002-100-D00-0
 62
     7
370
    50
100
AcDbCircle
 10
106.921766
 20
59.763764
 30
0.0
 40
4.5
  0
LINE
  5
57
330
1F
100
AcDbEntity
  8
LC-002-100-D00-0
 62
     7
370
    50
100
AcDbLine
 10
105.47839
 20
57.263764
 30
0.0
 11
108.36514
 21
57.263764
 31
0.0
  0
INSERT
  5
63
330
1F
100
AcDbEntity
  8
LC-002-100-D00-0
 62
     7
370
    50
100
AcDbBlockReference
  2
KLON2
 10
0.0
 20
0.0
 30
0.0
  0
INSERT
  5
6F
330
1F
100
AcDbEntity
  8
LC-002-100-D00-0
 62
     7
370
    50
100
AcDbBlockReference
  2
KLON3
 10
0.0
 20
0.0
 30
0.0
  0
INSERT
  5
7B
330
1F
100
AcDbEntity
  8
LC-002-100-D00-0
 62
     7
370
    50
100
AcDbBlockReference
  2
KLON4
 10
0.0
 20
0.0
 30
0.0
  0
LINE
  5
7C
330
1F
100
AcDbEntity
  8
LC-002-100-D00-0
 62
     7
370
    50
100
AcDbLine
 10
105.47839
 20
62.263764
 30
0.0
 11
104.035015
 21
59.763764
 31
0.0
  0
LINE
  5
7D
330
1F
100
AcDbEntity
  8
LC-002-100-D00-0
 62
     7
370
    50
100
AcDbLine
 10
103.457666
 20
59.763764
 30
0.0
 11
104.035015
 21
59.763764
 31
0.0
  0
LINE
  5
7E
330
1F
100
AcDbEntity
  8
LC-002-100-D00-0
 62
     7
370
    50
100
AcDbLine
 10
108.36514
 20
57.263764
 30
0.0
 11
109.808518
 21
59.763764
 31
0.0
  0
LINE
  5
7F
330
1F
100
AcDbEntity
  8
LC-002-100-D00-0
 62
     7
370
    50
100
AcDbLine
 10
104.035015
 20
59.763764
 30
0.0
 11
105.47839
 21
57.263764
 31
0.0
  0
LINE
  5
80
330
1F
100
AcDbEntity
  8
LC-002-100-D00-0
 62
     7
370
    50
100
AcDbLine
 10
108.36514
 20
62.263764
 30
0.0
 11
105.47839
 21
62.263764
 31
0.0
  0
CIRCLE
  5
81
330
1F
100
AcDbEntity
  8
LC-002-100-D00-0
 62
     7
370
    50
100
AcDbCircle
 10
106.921766
 20
59.763764
 30
0.0
 40
2.099999999999994
  0
CIRCLE
  5
82
330
1F
100
AcDbEntity
  8
LC-002-100-D00-0
 62
     7
370
    50
100
AcDbCircle
 10
158.421766
 20
59.763764
 30
0.0
 40
4.5
  0
LINE
  5
83
330
1F
100
AcDbEntity
  8
LC-002-100-D00-0
 62
     7
370
    50
100
AcDbLine
 10
155.535015
 20
59.763764
 30
0.0
 11
156.97839
 21
57.263764
 31
0.0
  0
INSERT
  5
8F
330
1F
100
AcDbEntity
  8
LC-002-100-D00-0
 62
     7
370
    50
100
AcDbBlockReference
  2
KLON5
 10
0.0
 20
0.0
 30
0.0
  0
LINE
  5
90
330
1F
100
AcDbEntity
  8
LC-002-100-D00-0
 62
     7
370
    50
100
AcDbLine
 10
154.957664
 20
59.763764
 30
0.0
 11
155.535015
 21
59.763764
 31
0.0
  0
LINE
  5
91
330
1F
100
AcDbEntity
  8
LC-002-100-D00-0
 62
     7
370
    50
100
AcDbLine
 10
156.97839
 20
57.263764
 30
0.0
 11
159.865142
 21
57.263764
 31
0.0
  0
INSERT
  5
9D
330
1F
100
AcDbEntity
  8
LC-002-100-D00-0
 62
     7
370
    50
100
AcDbBlockReference
  2
KLON6
 10
0.0
 20
0.0
 30
0.0
  0
LINE
  5
9E
330
1F
100
AcDbEntity
  8
LC-002-100-D00-0
 62
     7
370
    50
100
AcDbLine
 10
159.865142
 20
57.263764
 30
0.0
 11
161.308517
 21
59.763764
 31
0.0
  0
LINE
  5
9F
330
1F
100
AcDbEntity
  8
LC-002-100-D00-0
 62
     7
370
    50
100
AcDbLine
 10
161.308517
 20
59.763764
 30
0.0
 11
161.885868
 21
59.763764
 31
0.0
  0
INSERT
  5
AC
330
1F
100
AcDbEntity
  8
LC-002-100-D00-0
 62
     7
370
    50
100
AcDbBlockReference
  2
KLON7
 10
0.0
 20
0.0
 30
0.0
  0
LINE
  5
AD
330
1F
100
AcDbEntity
  8
LC-002-100-D00-0
 62
     7
370
    50
100
AcDbLine
 10
159.865142
 20
62.263764
 30
0.0
 11
156.97839
 21
62.263764
 31
0.0
  0
INSERT
  5
B9
330
1F
100
AcDbEntity
  8
LC-002-100-D00-0
 62
     7
370
    50
100
AcDbBlockReference
  2
KLON8
 10
0.0
 20
0.0
 30
0.0
  0
LINE
  5
BA
330
1F
100
AcDbEntity
  8
LC-002-100-D00-0
 62
     7
370
    50
100
AcDbLine
 10
161.308517
 20
59.763764
 30
0.0
 11
159.865142
 21
62.263764
 31
0.0
  0
LINE
  5
BB
330
1F
100
AcDbEntity
  8
LC-002-100-D00-0
 62
     7
370
    50
100
AcDbLine
 10
156.97839
 20
62.263764
 30
0.0
 11
155.535015
 21
59.763764
 31
0.0
  0
CIRCLE
  5
BC
330
1F
100
AcDbEntity
  8
LC-002-100-D00-0
 62
     7
370
    50
100
AcDbCircle
 10
158.421766
 20
59.763764
 30
0.0
 40
2.099999999999994
  0
LINE
  5
BD
330
1F
100
AcDbEntity
  8
LC-002-100-D00-0
 62
     7
370
    50
100
AcDbLine
 10
101.921766
 20
141.860615
 30
0.0
 11
102.421767
 21
141.360616
 31
0.0
  0
LINE
  5
BE
330
1F
100
AcDbEntity
  8
LC-002-100-D00-0
 62
     7
370
    50
100
AcDbLine
 10
111.421767
 20
141.360616
 30
0.0
 11
111.921768
 21
141.860615
 31
0.0
  0
LINE
  5
BF
330
1F
100
AcDbEntity
  8
LC-002-100-D00-0
 62
     7
370
    50
100
AcDbLine
 10
101.921766
 20
159.860615
 30
0.0
 11
101.921766
 21
141.860615
 31
0.0
  0
LINE
  5
C0
330
1F
100
AcDbEntity
  8
LC-002-100-D00-0
 62
     7
370
    15
100
AcDbLine
 10
111.921768
 20
141.860615
 30
0.0
 11
111.921768
 21
159.860615
 31
0.0
  0
LINE
  5
C1
330
1F
100
AcDbEntity
  8
LC-002-100-D00-0
 62
     7
370
    50
100
AcDbLine
 10
111.921768
 20
159.860615
 30
0.0
 11
111.421767
 21
160.360615
 31
0.0
  0
LINE
  5
C2
330
1F
100
AcDbEntity
  8
LC-002-100-D00-0
 62
     7
370
    50
100
AcDbLine
 10
102.421767
 20
160.360615
 30
0.0
 11
101.921766
 21
159.860615
 31
0.0
  0
LINE
  5
C3
330
1F
100
AcDbEntity
  8
LC-002-100-D00-0
 62
     7
370
    50
100
AcDbLine
 10
104.821767
 20
141.360616
 30
0.0
 11
104.821767
 21
155.360615
 31
0.0
  0
LINE
  5
C4
330
1F
100
AcDbEntity
  8
LC-002-100-D00-0
 62
     7
370
    50
100
AcDbLine
 10
109.021767
 20
155.360615
 30
0.0
 11
109.021767
 21
141.360616
 31
0.0
  0
LINE
  5
C5
330
1F
100
AcDbEntity
  8
LC-002-100-D00-0
 62
     7
370
    50
100
AcDbLine
 10
104.821767
 20
155.360615
 30
0.0
 11
109.021767
 21
155.360615
 31
0.0
  0
LINE
  5
C6
330
1F
100
AcDbEntity
  8
LC-002-100-D00-0
 62
     7
370
    50
100
AcDbLine
 10
109.021767
 20
141.360616
 30
0.0
 11
104.821767
 21
141.360616
 31
0.0
  0
ELLIPSE
  5
C7
330
1F
100
AcDbEntity
  8
LC-002-100-D00-0
 62
     7
370
    50
100
AcDbEllipse
 10
103.457664
 20
159.860615
 30
0.0
 11
0.5773502691896226
 21
0.0
 31
0.0
210
0.0
220
0.0
230
1.0
 40
0.866025
 41
0.0
 42
1.570796326794897
  0
LINE
  5
C8
330
1F
100
AcDbEntity
  8
LC-002-100-D00-0
 62
     7
370
    50
100
AcDbLine
 10
104.035015
 20
155.360615
 30
0.0
 11
104.035015
 21
159.860615
 31
0.0
  0
LINE
  5
C9
330
1F
100
AcDbEntity
  8
LC-002-100-D00-0
 62
     7
370
    50
100
AcDbLine
 10
104.035015
 20
155.360615
 30
0.0
 11
104.821767
 21
155.360615
 31
0.0
  0
LINE
  5
CA
330
1F
100
AcDbEntity
  8
LC-002-100-D00-0
 62
     7
370
    50
100
AcDbLine
 10
103.457666
 20
160.360615
 30
0.0
 11
102.421767
 21
160.360615
 31
0.0
  0
LINE
  5
CB
330
1F
100
AcDbEntity
  8
LC-002-100-D00-0
 62
     7
370
    50
100
AcDbLine
 10
102.421767
 20
141.360616
 30
0.0
 11
104.821767
 21
141.360616
 31
0.0
  0
LINE
  5
CC
330
1F
100
AcDbEntity
  8
LC-002-100-D00-0
 62
     7
370
    50
100
AcDbLine
 10
109.808518
 20
159.860615
 30
0.0
 11
109.808518
 21
155.360615
 31
0.0
  0
ELLIPSE
  5
CD
330
1F
100
AcDbEntity
  8
LC-002-100-D00-0
 62
     7
370
    50
100
AcDbEllipse
 10
110.385868
 20
159.860615
 30
0.0
 11
0.5773502691896226
 21
0.0
 31
0.0
210
0.0
220
0.0
230
1.0
 40
0.866025
 41
1.570796326794897
 42
3.141592653589793
  0
LINE
  5
CE
330
1F
100
AcDbEntity
  8
LC-002-100-D00-0
 62
     7
370
    50
100
AcDbLine
 10
109.021767
 20
155.360615
 30
0.0
 11
109.808518
 21
155.360615
 31
0.0
  0
LINE
  5
CF
330
1F
100
AcDbEntity
  8
LC-002-100-D00-0
 62
     7
370
    50
100
AcDbLine
 10
111.421767
 20
160.360615
 30
0.0
 11
110.385868
 21
160.360615
 31
0.0
  0
LINE
  5
D0
330
1F
100
AcDbEntity
  8
LC-002-100-D00-0
 62
     7
370
    50
100
AcDbLine
 10
109.021767
 20
141.360616
 30
0.0
 11
111.421767
 21
141.360616
 31
0.0
  0
ELLIPSE
  5
D1
330
1F
100
AcDbEntity
  8
LC-002-100-D00-0
 62
     7
370
    50
100
AcDbEllipse
 10
108.653817
 20
159.860615
 30
0.0
 11
0.0
 21
-0.5
 31
0.0
210
0.0
220
0.0
230
1.0
 40
0.57735
 41
0.0
 42
1.57079632679501
  0
LINE
  5
D2
330
1F
100
AcDbEntity
  8
LC-002-100-D00-0
 62
     7
370
    50
100
AcDbLine
 10
108.653816
 20
160.360615
 30
0.0
 11
110.385868
 21
160.360615
 31
0.0
  0
ELLIPSE
  5
D3
330
1F
100
AcDbEntity
  8
LC-002-100-D00-0
 62
     7
370
    50
100
AcDbEllipse
 10
105.189715
 20
159.860615
 30
0.0
 11
0.0
 21
-0.5000000000119209
 31
0.0
210
0.0
220
0.0
230
1.0
 40
0.57735
 41
4.712388980384633
 42
6.283185307179734
  0
LINE
  5
D4
330
1F
100
AcDbEntity
  8
LC-002-100-D00-0
 62
     7
370
    50
100
AcDbLine
 10
103.457666
 20
160.360615
 30
0.0
 11
105.189714
 21
160.360615
 31
0.0
  0
LINE
  5
D5
330
1F
100
AcDbEntity
  8
LC-002-100-D00-0
 62
     7
370
    50
100
AcDbLine
 10
105.47839
 20
155.360615
 30
0.0
 11
105.47839
 21
159.860615
 31
0.0
  0
LINE
  5
D6
330
1F
100
AcDbEntity
  8
LC-002-100-D00-0
 62
     7
370
    50
100
AcDbLine
 10
108.36514
 20
155.360615
 30
0.0
 11
108.36514
 21
159.860615
 31
0.0
  0
LINE
  5
D7
330
1F
100
AcDbEntity
  8
LC-002-100-D00-0
 62
     7
370
    50
100
AcDbLine
 10
105.189714
 20
160.360615
 30
0.0
 11
108.653816
 21
160.360615
 31
0.0
  0
LINE
  5
D8
330
1F
100
AcDbEntity
  8
LC-002-100-D00-0
 62
     7
370
    50
100
AcDbLine
 10
100.221767
 20
151.360615
 30
0.0
 11
101.671765
 21
151.360615
 31
0.0
  0
LINE
  5
D9
330
1F
100
AcDbEntity
  8
LC-002-100-D00-0
 62
     7
370
    50
100
AcDbLine
 10
102.671767
 20
150.360615
 30
0.0
 11
101.671765
 21
151.360615
 31
0.0
  0
LINE
  5
DA
330
1F
100
AcDbEntity
  8
LC-002-100-D00-0
 62
     7
370
    50
100
AcDbLine
 10
102.671767
 20
142.360616
 30
0.0
 11
102.671767
 21
150.360615
 31
0.0
  0
LINE
  5
DB
330
1F
100
AcDbEntity
  8
LC-002-100-D00-0
 62
     7
370
    50
100
AcDbLine
 10
101.671765
 20
141.360616
 30
0.0
 11
102.671767
 21
142.360616
 31
0.0
  0
LINE
  5
DC
330
1F
100
AcDbEntity
  8
LC-002-100-D00-0
 62
     7
370
    50
100
AcDbLine
 10
101.671765
 20
141.360616
 30
0.0
 11
100.221767
 21
141.360616
 31
0.0
  0
LINE
  5
DD
330
1F
100
AcDbEntity
  8
LC-002-100-D00-0
 62
     7
370
    50
100
AcDbLine
 10
100.221767
 20
141.360616
 30
0.0
 11
100.171766
 21
141.410615
 31
0.0
  0
LINE
  5
DE
330
1F
100
AcDbEntity
  8
LC-002-100-D00-0
 62
     7
370
    50
100
AcDbLine
 10
100.171766
 20
141.410615
 30
0.0
 11
100.171766
 21
144.360614
 31
0.0
  0
LINE
  5
DF
330
1F
100
AcDbEntity
  8
LC-002-100-D00-0
 62
     7
370
    50
100
AcDbLine
 10
100.171766
 20
144.360614
 30
0.0
 11
100.921768
 21
144.360614
 31
0.0
  0
LINE
  5
E0
330
1F
100
AcDbEntity
  8
LC-002-100-D00-0
 62
     7
370
    50
100
AcDbLine
 10
100.921768
 20
144.360614
 30
0.0
 11
100.921768
 21
148.360615
 31
0.0
  0
LINE
  5
E1
330
1F
100
AcDbEntity
  8
LC-002-100-D00-0
 62
     7
370
    50
100
AcDbLine
 10
100.921768
 20
148.360615
 30
0.0
 11
100.171766
 21
148.360615
 31
0.0
  0
LINE
  5
E2
330
1F
100
AcDbEntity
  8
LC-002-100-D00-0
 62
     7
370
    50
100
AcDbLine
 10
100.171766
 20
151.310615
 30
0.0
 11
100.171766
 21
148.360615
 31
0.0
  0
LINE
  5
E3
330
1F
100
AcDbEntity
  8
LC-002-100-D00-0
 62
     7
370
    50
100
AcDbLine
 10
100.171766
 20
151.310615
 30
0.0
 11
100.221767
 21
151.360615
 31
0.0
  0
LINE
  5
E4
330
1F
100
AcDbEntity
  8
LC-002-100-D00-0
 62
     7
370
    50
100
AcDbLine
 10
113.671767
 20
141.410615
 30
0.0
 11
113.621767
 21
141.360616
 31
0.0
  0
LINE
  5
E5
330
1F
100
AcDbEntity
  8
LC-002-100-D00-0
 62
     7
370
    50
100
AcDbLine
 10
113.671767
 20
148.360615
 30
0.0
 11
113.671767
 21
151.310615
 31
0.0
  0
LINE
  5
E6
330
1F
100
AcDbEntity
  8
LC-002-100-D00-0
 62
     7
370
    50
100
AcDbLine
 10
113.671767
 20
148.360615
 30
0.0
 11
112.921766
 21
148.360615
 31
0.0
  0
LINE
  5
E7
330
1F
100
AcDbEntity
  8
LC-002-100-D00-0
 62
     7
370
    50
100
AcDbLine
 10
112.921766
 20
148.360615
 30
0.0
 11
112.921766
 21
144.360614
 31
0.0
  0
LINE
  5
E8
330
1F
100
AcDbEntity
  8
LC-002-100-D00-0
 62
     7
370
    50
100
AcDbLine
 10
112.921766
 20
144.360614
 30
0.0
 11
113.671767
 21
144.360614
 31
0.0
  0
LINE
  5
E9
330
1F
100
AcDbEntity
  8
LC-002-100-D00-0
 62
     7
370
    50
100
AcDbLine
 10
113.671767
 20
141.410615
 30
0.0
 11
113.671767
 21
144.360614
 31
0.0
  0
LINE
  5
EA
330
1F
100
AcDbEntity
  8
LC-002-100-D00-0
 62
     7
370
    50
100
AcDbLine
 10
113.621767
 20
141.360616
 30
0.0
 11
112.171764
 21
141.360616
 31
0.0
  0
LINE
  5
EB
330
1F
100
AcDbEntity
  8
LC-002-100-D00-0
 62
     7
370
    50
100
AcDbLine
 10
111.171766
 20
142.360616
 30
0.0
 11
112.171764
 21
141.360616
 31
0.0
  0
LINE
  5
EC
330
1F
100
AcDbEntity
  8
LC-002-100-D00-0
 62
     7
370
    50
100
AcDbLine
 10
111.171766
 20
150.360615
 30
0.0
 11
111.171766
 21
142.360616
 31
0.0
  0
LINE
  5
ED
330
1F
100
AcDbEntity
  8
LC-002-100-D00-0
 62
     7
370
    50
100
AcDbLine
 10
112.171764
 20
151.360615
 30
0.0
 11
111.171766
 21
150.360615
 31
0.0
  0
LINE
  5
EE
330
1F
100
AcDbEntity
  8
LC-002-100-D00-0
 62
     7
370
    50
100
AcDbLine
 10
112.171764
 20
151.360615
 30
0.0
 11
113.621767
 21
151.360615
 31
0.0
  0
LINE
  5
EF
330
1F
100
AcDbEntity
  8
LC-002-100-D00-0
 62
     7
370
    50
100
AcDbLine
 10
113.621767
 20
151.360615
 30
0.0
 11
113.671767
 21
151.310615
 31
0.0
  0
LINE
  5
F0
330
1F
100
AcDbEntity
  8
LC-002-100-D00-0
 62
     7
370
    50
100
AcDbLine
 10
112.171764
 20
141.360616
 30
0.0
 11
111.421767
 21
141.360616
 31
0.0
  0
LINE
  5
F1
330
1F
100
AcDbEntity
  8
LC-002-100-D00-0
 62
     7
370
    50
100
AcDbLine
 10
102.421767
 20
141.360616
 30
0.0
 11
101.671765
 21
141.360616
 31
0.0
  0
ARC
  5
F2
330
1F
100
AcDbEntity
  8
LC-002-100-D00-0
 62
     7
370
    50
100
AcDbCircle
 10
97.921766
 20
142.360615
 30
0.0
 40
1.0
100
AcDbArc
 50
180.0
 51
270.0
  0
ARC
  5
F3
330
1F
100
AcDbEntity
  8
LC-002-100-D00-0
 62
     7
370
    50
100
AcDbCircle
 10
115.921766
 20
142.360615
 30
0.0
 40
1.0
100
AcDbArc
 50
270.0
 51
0.0
  0
LINE
  5
F4
330
1F
100
AcDbEntity
  8
LC-002-100-D00-0
 62
     7
370
    50
100
AcDbLine
 10
112.171764
 20
151.360615
 30
0.0
 11
111.921768
 21
151.110615
 31
0.0
  0
LINE
  5
F5
330
1F
100
AcDbEntity
  8
LC-002-100-D00-0
 62
     7
370
    50
100
AcDbLine
 10
111.921768
 20
173.360615
 30
0.0
 11
111.921768
 21
151.110615
 31
0.0
  0
LINE
  5
F6
330
1F
100
AcDbEntity
  8
LC-002-100-D00-0
 62
     7
370
    50
100
AcDbLine
 10
123.171764
 20
173.360615
 30
0.0
 11
111.921768
 21
173.360615
 31
0.0
  0
ARC
  5
F7
330
1F
100
AcDbEntity
  8
LC-002-100-D00-0
 62
     7
370
    50
100
AcDbCircle
 10
123.171766
 20
171.360615
 30
0.0
 40
2.0
100
AcDbArc
 50
0.0
 51
90.0
  0
LINE
  5
F8
330
1F
100
AcDbEntity
  8
LC-002-100-D00-0
 62
     7
370
    50
100
AcDbLine
 10
125.171765
 20
166.360615
 30
0.0
 11
125.171765
 21
171.360615
 31
0.0
  0
LINE
  5
F9
330
1F
100
AcDbEntity
  8
LC-002-100-D00-0
 62
     7
370
    50
100
AcDbLine
 10
125.171765
 20
166.360615
 30
0.0
 11
122.171766
 21
166.360615
 31
0.0
  0
LINE
  5
FA
330
1F
100
AcDbEntity
  8
LC-002-100-D00-0
 62
     7
370
    50
100
AcDbLine
 10
121.821812
 20
170.360615
 30
0.0
 11
122.171766
 21
166.360615
 31
0.0
  0
LINE
  5
FB
330
1F
100
AcDbEntity
  8
LC-002-100-D00-0
 62
     7
370
    50
100
AcDbLine
 10
121.821812
 20
170.360615
 30
0.0
 11
117.921765
 21
170.360615
 31
0.0
  0
ARC
  5
FC
330
1F
100
AcDbEntity
  8
LC-002-100-D00-0
 62
     7
370
    50
100
AcDbCircle
 10
117.921766
 20
169.360615
 30
0.0
 40
1.0
100
AcDbArc
 50
90.0
 51
180.0
  0
LINE
  5
FD
330
1F
100
AcDbEntity
  8
LC-002-100-D00-0
 62
     7
370
    50
100
AcDbLine
 10
116.921767
 20
169.360615
 30
0.0
 11
116.921767
 21
142.360616
 31
0.0
  0
LINE
  5
FE
330
1F
100
AcDbEntity
  8
LC-002-100-D00-0
 62
     7
370
    50
100
AcDbLine
 10
113.621767
 20
141.360616
 30
0.0
 11
115.921765
 21
141.360616
 31
0.0
  0
LINE
  5
FF
330
1F
100
AcDbEntity
  8
LC-002-100-D00-0
 62
     7
370
    50
100
AcDbLine
 10
96.921767
 20
142.360616
 30
0.0
 11
96.921767
 21
169.360615
 31
0.0
  0
ARC
  5
100
330
1F
100
AcDbEntity
  8
LC-002-100-D00-0
 62
     7
370
    50
100
AcDbCircle
 10
95.921766
 20
169.360615
 30
0.0
 40
1.0
100
AcDbArc
 50
0.0
 51
90.0
  0
LINE
  5
101
330
1F
100
AcDbEntity
  8
LC-002-100-D00-0
 62
     7
370
    50
100
AcDbLine
 10
95.921765
 20
170.360615
 30
0.0
 11
92.021718
 21
170.360615
 31
0.0
  0
LINE
  5
102
330
1F
100
AcDbEntity
  8
LC-002-100-D00-0
 62
     7
370
    50
100
AcDbLine
 10
91.671764
 20
166.360615
 30
0.0
 11
92.021718
 21
170.360615
 31
0.0
  0
LINE
  5
103
330
1F
100
AcDbEntity
  8
LC-002-100-D00-0
 62
     7
370
    50
100
AcDbLine
 10
91.671764
 20
166.360615
 30
0.0
 11
88.671765
 21
166.360615
 31
0.0
  0
LINE
  5
104
330
1F
100
AcDbEntity
  8
LC-002-100-D00-0
 62
     7
370
    50
100
AcDbLine
 10
88.671765
 20
171.360615
 30
0.0
 11
88.671765
 21
166.360615
 31
0.0
  0
ARC
  5
105
330
1F
100
AcDbEntity
  8
LC-002-100-D00-0
 62
     7
370
    50
100
AcDbCircle
 10
90.671766
 20
171.360615
 30
0.0
 40
2.000000000000028
100
AcDbArc
 50
90.0
 51
180.0
  0
LINE
  5
106
330
1F
100
AcDbEntity
  8
LC-002-100-D00-0
 62
     7
370
    50
100
AcDbLine
 10
101.921766
 20
173.360615
 30
0.0
 11
90.671769
 21
173.360615
 31
0.0
  0
LINE
  5
107
330
1F
100
AcDbEntity
  8
LC-002-100-D00-0
 62
     7
370
    50
100
AcDbLine
 10
101.921766
 20
151.110615
 30
0.0
 11
101.921766
 21
173.360615
 31
0.0
  0
LINE
  5
108
330
1F
100
AcDbEntity
  8
LC-002-100-D00-0
 62
     7
370
    50
100
AcDbLine
 10
101.921766
 20
151.110615
 30
0.0
 11
101.671765
 21
151.360615
 31
0.0
  0
LINE
  5
109
330
1F
100
AcDbEntity
  8
LC-002-100-D00-0
 62
     7
370
    50
100
AcDbLine
 10
97.921765
 20
141.360616
 30
0.0
 11
100.221767
 21
141.360616
 31
0.0
  0
LINE
  5
10A
330
1F
100
AcDbEntity
  8
LC-002-100-D00-0
 62
     7
370
    50
100
AcDbLine
 10
101.921766
 20
173.360615
 30
0.0
 11
111.921768
 21
173.360615
 31
0.0
  0
LINE
  5
10B
330
1F
100
AcDbEntity
  8
LC-002-100-D00-0
 62
     7
370
    50
100
AcDbLine
 10
91.671764
 20
166.360615
 30
0.0
 11
94.671766
 21
166.360615
 31
0.0
  0
LINE
  5
10C
330
1F
100
AcDbEntity
  8
LC-002-100-D00-0
 62
     7
370
    50
100
AcDbLine
 10
119.171767
 20
166.360615
 30
0.0
 11
122.171766
 21
166.360615
 31
0.0
  0
LINE
  5
10D
330
1F
100
AcDbEntity
  8
LC-002-100-D00-0
 62
     7
370
    50
100
AcDbLine
 10
94.671766
 20
166.360615
 30
0.0
 11
96.921767
 21
166.360615
 31
0.0
  0
LINE
  5
10E
330
1F
100
AcDbEntity
  8
LC-002-100-D00-0
 62
     7
370
    50
100
AcDbLine
 10
116.921767
 20
166.360615
 30
0.0
 11
119.171767
 21
166.360615
 31
0.0
  0
LINE
  5
10F
330
1F
100
AcDbEntity
  8
LC-002-100-D00-0
 62
     7
370
    50
100
AcDbLine
 10
153.421766
 20
141.860615
 30
0.0
 11
153.921766
 21
141.360616
 31
0.0
  0
LINE
  5
110
330
1F
100
AcDbEntity
  8
LC-002-100-D00-0
 62
     7
370
    50
100
AcDbLine
 10
162.921766
 20
141.360616
 30
0.0
 11
163.421766
 21
141.860615
 31
0.0
  0
LINE
  5
111
330
1F
100
AcDbEntity
  8
LC-002-100-D00-0
 62
     7
370
    15
100
AcDbLine
 10
153.421766
 20
159.860615
 30
0.0
 11
153.421766
 21
141.860615
 31
0.0
  0
LINE
  5
112
330
1F
100
AcDbEntity
  8
LC-002-100-D00-0
 62
     7
370
    50
100
AcDbLine
 10
163.421766
 20
141.860615
 30
0.0
 11
163.421766
 21
159.860615
 31
0.0
  0
LINE
  5
113
330
1F
100
AcDbEntity
  8
LC-002-100-D00-0
 62
     7
370
    50
100
AcDbLine
 10
163.421766
 20
159.860615
 30
0.0
 11
162.921766
 21
160.360615
 31
0.0
  0
LINE
  5
114
330
1F
100
AcDbEntity
  8
LC-002-100-D00-0
 62
     7
370
    50
100
AcDbLine
 10
153.921766
 20
160.360615
 30
0.0
 11
153.421766
 21
159.860615
 31
0.0
  0
LINE
  5
115
330
1F
100
AcDbEntity
  8
LC-002-100-D00-0
 62
     7
370
    50
100
AcDbLine
 10
156.321766
 20
141.360616
 30
0.0
 11
156.321766
 21
155.360615
 31
0.0
  0
LINE
  5
116
330
1F
100
AcDbEntity
  8
LC-002-100-D00-0
 62
     7
370
    50
100
AcDbLine
 10
160.521766
 20
155.360615
 30
0.0
 11
160.521766
 21
141.360616
 31
0.0
  0
LINE
  5
117
330
1F
100
AcDbEntity
  8
LC-002-100-D00-0
 62
     7
370
    50
100
AcDbLine
 10
156.321766
 20
155.360615
 30
0.0
 11
160.521766
 21
155.360615
 31
0.0
  0
LINE
  5
118
330
1F
100
AcDbEntity
  8
LC-002-100-D00-0
 62
     7
370
    50
100
AcDbLine
 10
160.521766
 20
141.360616
 30
0.0
 11
156.321766
 21
141.360616
 31
0.0
  0
ELLIPSE
  5
119
330
1F
100
AcDbEntity
  8
LC-002-100-D00-0
 62
     7
370
    50
100
AcDbEllipse
 10
154.957664
 20
159.860615
 30
0.0
 11
0.5773502691896226
 21
0.0
 31
0.0
210
0.0
220
0.0
230
1.0
 40
0.866025
 41
0.0
 42
1.570796326794897
  0
LINE
  5
11A
330
1F
100
AcDbEntity
  8
LC-002-100-D00-0
 62
     7
370
    50
100
AcDbLine
 10
155.535015
 20
155.360615
 30
0.0
 11
155.535015
 21
159.860615
 31
0.0
  0
LINE
  5
11B
330
1F
100
AcDbEntity
  8
LC-002-100-D00-0
 62
     7
370
    50
100
AcDbLine
 10
155.535015
 20
155.360615
 30
0.0
 11
156.321766
 21
155.360615
 31
0.0
  0
LINE
  5
11C
330
1F
100
AcDbEntity
  8
LC-002-100-D00-0
 62
     7
370
    50
100
AcDbLine
 10
154.957664
 20
160.360615
 30
0.0
 11
153.921766
 21
160.360615
 31
0.0
  0
LINE
  5
11D
330
1F
100
AcDbEntity
  8
LC-002-100-D00-0
 62
     7
370
    50
100
AcDbLine
 10
153.921766
 20
141.360616
 30
0.0
 11
156.321766
 21
141.360616
 31
0.0
  0
LINE
  5
11E
330
1F
100
AcDbEntity
  8
LC-002-100-D00-0
 62
     7
370
    50
100
AcDbLine
 10
161.308517
 20
159.860615
 30
0.0
 11
161.308517
 21
155.360615
 31
0.0
  0
ELLIPSE
  5
11F
330
1F
100
AcDbEntity
  8
LC-002-100-D00-0
 62
     7
370
    50
100
AcDbEllipse
 10
161.885868
 20
159.860615
 30
0.0
 11
0.577350269189651
 21
0.0
 31
0.0
210
0.0
220
0.0
230
1.0
 40
0.866025
 41
1.570796326794897
 42
3.141592653589793
  0
LINE
  5
120
330
1F
100
AcDbEntity
  8
LC-002-100-D00-0
 62
     7
370
    50
100
AcDbLine
 10
160.521766
 20
155.360615
 30
0.0
 11
161.308517
 21
155.360615
 31
0.0
  0
LINE
  5
121
330
1F
100
AcDbEntity
  8
LC-002-100-D00-0
 62
     7
370
    50
100
AcDbLine
 10
162.921766
 20
160.360615
 30
0.0
 11
161.885868
 21
160.360615
 31
0.0
  0
LINE
  5
122
330
1F
100
AcDbEntity
  8
LC-002-100-D00-0
 62
     7
370
    50
100
AcDbLine
 10
160.521766
 20
141.360616
 30
0.0
 11
162.921766
 21
141.360616
 31
0.0
  0
ELLIPSE
  5
123
330
1F
100
AcDbEntity
  8
LC-002-100-D00-0
 62
     7
370
    50
100
AcDbEllipse
 10
160.153817
 20
159.860615
 30
0.0
 11
0.0
 21
-0.5000000000834465
 31
0.0
210
0.0
220
0.0
230
1.0
 40
0.57735
 41
0.000000000000197
 42
1.570796326794897
  0
LINE
  5
124
330
1F
100
AcDbEntity
  8
LC-002-100-D00-0
 62
     7
370
    50
100
AcDbLine
 10
160.153817
 20
160.360615
 30
0.0
 11
161.885868
 21
160.360615
 31
0.0
  0
ELLIPSE
  5
125
330
1F
100
AcDbEntity
  8
LC-002-100-D00-0
 62
     7
370
    50
100
AcDbEllipse
 10
156.689715
 20
159.860615
 30
0.0
 11
0.0
 21
-0.5000000000715256
 31
0.0
210
0.0
220
0.0
230
1.0
 40
0.57735
 41
4.712388980384633
 42
6.283185307179685
  0
LINE
  5
126
330
1F
100
AcDbEntity
  8
LC-002-100-D00-0
 62
     7
370
    50
100
AcDbLine
 10
154.957664
 20
160.360615
 30
0.0
 11
156.689715
 21
160.360615
 31
0.0
  0
LINE
  5
127
330
1F
100
AcDbEntity
  8
LC-002-100-D00-0
 62
     7
370
    50
100
AcDbLine
 10
156.97839
 20
155.360615
 30
0.0
 11
156.97839
 21
159.860615
 31
0.0
  0
LINE
  5
128
330
1F
100
AcDbEntity
  8
LC-002-100-D00-0
 62
     7
370
    50
100
AcDbLine
 10
159.865142
 20
155.360615
 30
0.0
 11
159.865142
 21
159.860615
 31
0.0
  0
LINE
  5
129
330
1F
100
AcDbEntity
  8
LC-002-100-D00-0
 62
     7
370
    50
100
AcDbLine
 10
156.689715
 20
160.360615
 30
0.0
 11
160.153817
 21
160.360615
 31
0.0
  0
LINE
  5
12A
330
1F
100
AcDbEntity
  8
LC-002-100-D00-0
 62
     7
370
    50
100
AcDbLine
 10
151.721766
 20
151.360615
 30
0.0
 11
153.171766
 21
151.360615
 31
0.0
  0
LINE
  5
12B
330
1F
100
AcDbEntity
  8
LC-002-100-D00-0
 62
     7
370
    50
100
AcDbLine
 10
154.171766
 20
150.360615
 30
0.0
 11
153.171766
 21
151.360615
 31
0.0
  0
LINE
  5
12C
330
1F
100
AcDbEntity
  8
LC-002-100-D00-0
 62
     7
370
    50
100
AcDbLine
 10
154.171766
 20
142.360616
 30
0.0
 11
154.171766
 21
150.360615
 31
0.0
  0
LINE
  5
12D
330
1F
100
AcDbEntity
  8
LC-002-100-D00-0
 62
     7
370
    50
100
AcDbLine
 10
153.171766
 20
141.360616
 30
0.0
 11
154.171766
 21
142.360616
 31
0.0
  0
LINE
  5
12E
330
1F
100
AcDbEntity
  8
LC-002-100-D00-0
 62
     7
370
    50
100
AcDbLine
 10
153.171766
 20
141.360616
 30
0.0
 11
151.721766
 21
141.360616
 31
0.0
  0
LINE
  5
12F
330
1F
100
AcDbEntity
  8
LC-002-100-D00-0
 62
     7
370
    50
100
AcDbLine
 10
151.721766
 20
141.360616
 30
0.0
 11
151.671766
 21
141.410615
 31
0.0
  0
LINE
  5
130
330
1F
100
AcDbEntity
  8
LC-002-100-D00-0
 62
     7
370
    50
100
AcDbLine
 10
151.671766
 20
141.410615
 30
0.0
 11
151.671766
 21
144.360614
 31
0.0
  0
LINE
  5
131
330
1F
100
AcDbEntity
  8
LC-002-100-D00-0
 62
     7
370
    50
100
AcDbLine
 10
151.671766
 20
144.360614
 30
0.0
 11
152.421766
 21
144.360614
 31
0.0
  0
LINE
  5
132
330
1F
100
AcDbEntity
  8
LC-002-100-D00-0
 62
     7
370
    50
100
AcDbLine
 10
152.421766
 20
144.360614
 30
0.0
 11
152.421766
 21
148.360615
 31
0.0
  0
LINE
  5
133
330
1F
100
AcDbEntity
  8
LC-002-100-D00-0
 62
     7
370
    50
100
AcDbLine
 10
152.421766
 20
148.360615
 30
0.0
 11
151.671766
 21
148.360615
 31
0.0
  0
LINE
  5
134
330
1F
100
AcDbEntity
  8
LC-002-100-D00-0
 62
     7
370
    50
100
AcDbLine
 10
151.671766
 20
151.310615
 30
0.0
 11
151.671766
 21
148.360615
 31
0.0
  0
LINE
  5
135
330
1F
100
AcDbEntity
  8
LC-002-100-D00-0
 62
     7
370
    50
100
AcDbLine
 10
151.671766
 20
151.310615
 30
0.0
 11
151.721766
 21
151.360615
 31
0.0
  0
LINE
  5
136
330
1F
100
AcDbEntity
  8
LC-002-100-D00-0
 62
     7
370
    50
100
AcDbLine
 10
165.171766
 20
141.410615
 30
0.0
 11
165.121766
 21
141.360616
 31
0.0
  0
LINE
  5
137
330
1F
100
AcDbEntity
  8
LC-002-100-D00-0
 62
     7
370
    50
100
AcDbLine
 10
165.171766
 20
148.360615
 30
0.0
 11
165.171766
 21
151.310615
 31
0.0
  0
LINE
  5
138
330
1F
100
AcDbEntity
  8
LC-002-100-D00-0
 62
     7
370
    50
100
AcDbLine
 10
165.171766
 20
148.360615
 30
0.0
 11
164.421766
 21
148.360615
 31
0.0
  0
LINE
  5
139
330
1F
100
AcDbEntity
  8
LC-002-100-D00-0
 62
     7
370
    50
100
AcDbLine
 10
164.421766
 20
148.360615
 30
0.0
 11
164.421766
 21
144.360614
 31
0.0
  0
LINE
  5
13A
330
1F
100
AcDbEntity
  8
LC-002-100-D00-0
 62
     7
370
    50
100
AcDbLine
 10
164.421766
 20
144.360614
 30
0.0
 11
165.171766
 21
144.360614
 31
0.0
  0
LINE
  5
13B
330
1F
100
AcDbEntity
  8
LC-002-100-D00-0
 62
     7
370
    50
100
AcDbLine
 10
165.171766
 20
141.410615
 30
0.0
 11
165.171766
 21
144.360614
 31
0.0
  0
LINE
  5
13C
330
1F
100
AcDbEntity
  8
LC-002-100-D00-0
 62
     7
370
    50
100
AcDbLine
 10
165.121766
 20
141.360616
 30
0.0
 11
163.671766
 21
141.360616
 31
0.0
  0
LINE
  5
13D
330
1F
100
AcDbEntity
  8
LC-002-100-D00-0
 62
     7
370
    50
100
AcDbLine
 10
162.671766
 20
142.360616
 30
0.0
 11
163.671766
 21
141.360616
 31
0.0
  0
LINE
  5
13E
330
1F
100
AcDbEntity
  8
LC-002-100-D00-0
 62
     7
370
    50
100
AcDbLine
 10
162.671766
 20
150.360615
 30
0.0
 11
162.671766
 21
142.360616
 31
0.0
  0
LINE
  5
13F
330
1F
100
AcDbEntity
  8
LC-002-100-D00-0
 62
     7
370
    50
100
AcDbLine
 10
163.671766
 20
151.360615
 30
0.0
 11
162.671766
 21
150.360615
 31
0.0
  0
LINE
  5
140
330
1F
100
AcDbEntity
  8
LC-002-100-D00-0
 62
     7
370
    50
100
AcDbLine
 10
163.671766
 20
151.360615
 30
0.0
 11
165.121766
 21
151.360615
 31
0.0
  0
LINE
  5
141
330
1F
100
AcDbEntity
  8
LC-002-100-D00-0
 62
     7
370
    50
100
AcDbLine
 10
165.121766
 20
151.360615
 30
0.0
 11
165.171766
 21
151.310615
 31
0.0
  0
LINE
  5
142
330
1F
100
AcDbEntity
  8
LC-002-100-D00-0
 62
     7
370
    50
100
AcDbLine
 10
163.671766
 20
141.360616
 30
0.0
 11
162.921766
 21
141.360616
 31
0.0
  0
LINE
  5
143
330
1F
100
AcDbEntity
  8
LC-002-100-D00-0
 62
     7
370
    50
100
AcDbLine
 10
153.921766
 20
141.360616
 30
0.0
 11
153.171766
 21
141.360616
 31
0.0
  0
ARC
  5
144
330
1F
100
AcDbEntity
  8
LC-002-100-D00-0
 62
     7
370
    50
100
AcDbCircle
 10
149.421766
 20
142.360615
 30
0.0
 40
1.0
100
AcDbArc
 50
180.0
 51
270.0
  0
LINE
  5
145
330
1F
100
AcDbEntity
  8
LC-002-100-D00-0
 62
     7
370
    50
100
AcDbLine
 10
148.421766
 20
142.360616
 30
0.0
 11
148.421766
 21
169.360615
 31
0.0
  0
ARC
  5
146
330
1F
100
AcDbEntity
  8
LC-002-100-D00-0
 62
     7
370
    50
100
AcDbCircle
 10
147.421766
 20
169.360615
 30
0.0
 40
1.0
100
AcDbArc
 50
0.0
 51
90.0
  0
LINE
  5
147
330
1F
100
AcDbEntity
  8
LC-002-100-D00-0
 62
     7
370
    50
100
AcDbLine
 10
147.421766
 20
170.360615
 30
0.0
 11
143.52172
 21
170.360615
 31
0.0
  0
LINE
  5
148
330
1F
100
AcDbEntity
  8
LC-002-100-D00-0
 62
     7
370
    50
100
AcDbLine
 10
143.171766
 20
166.360615
 30
0.0
 11
143.52172
 21
170.360615
 31
0.0
  0
LINE
  5
149
330
1F
100
AcDbEntity
  8
LC-002-100-D00-0
 62
     7
370
    50
100
AcDbLine
 10
143.171766
 20
166.360615
 30
0.0
 11
140.171765
 21
166.360615
 31
0.0
  0
LINE
  5
14A
330
1F
100
AcDbEntity
  8
LC-002-100-D00-0
 62
     7
370
    50
100
AcDbLine
 10
140.171765
 20
171.360615
 30
0.0
 11
140.171765
 21
166.360615
 31
0.0
  0
ARC
  5
14B
330
1F
100
AcDbEntity
  8
LC-002-100-D00-0
 62
     7
370
    50
100
AcDbCircle
 10
142.171766
 20
171.360615
 30
0.0
 40
2.0
100
AcDbArc
 50
90.0
 51
180.0
  0
LINE
  5
14C
330
1F
100
AcDbEntity
  8
LC-002-100-D00-0
 62
     7
370
    50
100
AcDbLine
 10
153.421766
 20
173.360615
 30
0.0
 11
142.171766
 21
173.360615
 31
0.0
  0
LINE
  5
14D
330
1F
100
AcDbEntity
  8
LC-002-100-D00-0
 62
     7
370
    50
100
AcDbLine
 10
153.421766
 20
151.110615
 30
0.0
 11
153.421766
 21
173.360615
 31
0.0
  0
LINE
  5
14E
330
1F
100
AcDbEntity
  8
LC-002-100-D00-0
 62
     7
370
    50
100
AcDbLine
 10
153.421766
 20
151.110615
 30
0.0
 11
153.171766
 21
151.360615
 31
0.0
  0
LINE
  5
14F
330
1F
100
AcDbEntity
  8
LC-002-100-D00-0
 62
     7
370
    50
100
AcDbLine
 10
149.421766
 20
141.360616
 30
0.0
 11
151.721766
 21
141.360616
 31
0.0
  0
ARC
  5
150
330
1F
100
AcDbEntity
  8
LC-002-100-D00-0
 62
     7
370
    50
100
AcDbCircle
 10
167.421766
 20
142.360615
 30
0.0
 40
1.0
100
AcDbArc
 50
270.0
 51
0.0
  0
LINE
  5
151
330
1F
100
AcDbEntity
  8
LC-002-100-D00-0
 62
     7
370
    50
100
AcDbLine
 10
163.671766
 20
151.360615
 30
0.0
 11
163.421766
 21
151.110615
 31
0.0
  0
LINE
  5
152
330
1F
100
AcDbEntity
  8
LC-002-100-D00-0
 62
     7
370
    50
100
AcDbLine
 10
163.421766
 20
173.360615
 30
0.0
 11
163.421766
 21
151.110615
 31
0.0
  0
LINE
  5
153
330
1F
100
AcDbEntity
  8
LC-002-100-D00-0
 62
     7
370
    50
100
AcDbLine
 10
174.671766
 20
173.360615
 30
0.0
 11
163.421766
 21
173.360615
 31
0.0
  0
ARC
  5
154
330
1F
100
AcDbEntity
  8
LC-002-100-D00-0
 62
     7
370
    50
100
AcDbCircle
 10
174.671766
 20
171.360615
 30
0.0
 40
2.0
100
AcDbArc
 50
0.0
 51
90.0
  0
LINE
  5
155
330
1F
100
AcDbEntity
  8
LC-002-100-D00-0
 62
     7
370
    50
100
AcDbLine
 10
176.671767
 20
166.360615
 30
0.0
 11
176.671767
 21
171.360615
 31
0.0
  0
LINE
  5
156
330
1F
100
AcDbEntity
  8
LC-002-100-D00-0
 62
     7
370
    50
100
AcDbLine
 10
176.671767
 20
166.360615
 30
0.0
 11
173.671766
 21
166.360615
 31
0.0
  0
LINE
  5
157
330
1F
100
AcDbEntity
  8
LC-002-100-D00-0
 62
     7
370
    50
100
AcDbLine
 10
173.32181
 20
170.360615
 30
0.0
 11
173.671766
 21
166.360615
 31
0.0
  0
LINE
  5
158
330
1F
100
AcDbEntity
  8
LC-002-100-D00-0
 62
     7
370
    50
100
AcDbLine
 10
173.32181
 20
170.360615
 30
0.0
 11
169.421766
 21
170.360615
 31
0.0
  0
ARC
  5
159
330
1F
100
AcDbEntity
  8
LC-002-100-D00-0
 62
     7
370
    50
100
AcDbCircle
 10
169.421766
 20
169.360615
 30
0.0
 40
1.0
100
AcDbArc
 50
90.0
 51
180.0
  0
LINE
  5
15A
330
1F
100
AcDbEntity
  8
LC-002-100-D00-0
 62
     7
370
    50
100
AcDbLine
 10
168.421766
 20
169.360615
 30
0.0
 11
168.421766
 21
142.360616
 31
0.0
  0
LINE
  5
15B
330
1F
100
AcDbEntity
  8
LC-002-100-D00-0
 62
     7
370
    50
100
AcDbLine
 10
165.121766
 20
141.360616
 30
0.0
 11
167.421766
 21
141.360616
 31
0.0
  0
LINE
  5
15C
330
1F
100
AcDbEntity
  8
LC-002-100-D00-0
 62
     7
370
    50
100
AcDbLine
 10
153.421766
 20
173.360615
 30
0.0
 11
163.421766
 21
173.360615
 31
0.0
  0
LINE
  5
15D
330
1F
100
AcDbEntity
  8
LC-002-100-D00-0
 62
     7
370
    50
100
AcDbLine
 10
143.171766
 20
166.360615
 30
0.0
 11
146.171766
 21
166.360615
 31
0.0
  0
LINE
  5
15E
330
1F
100
AcDbEntity
  8
LC-002-100-D00-0
 62
     7
370
    50
100
AcDbLine
 10
170.671766
 20
166.360615
 30
0.0
 11
173.671766
 21
166.360615
 31
0.0
  0
LINE
  5
15F
330
1F
100
AcDbEntity
  8
LC-002-100-D00-0
 62
     7
370
    50
100
AcDbLine
 10
146.171766
 20
166.360615
 30
0.0
 11
148.421766
 21
166.360615
 31
0.0
  0
LINE
  5
160
330
1F
100
AcDbEntity
  8
LC-002-100-D00-0
 62
     7
370
    50
100
AcDbLine
 10
168.421766
 20
166.360615
 30
0.0
 11
170.671766
 21
166.360615
 31
0.0
  0
INSERT
  5
16F
330
1F
100
AcDbEntity
  8
LC-002-100-D00-0
 62
     7
370
    25
100
AcDbBlockReference
  2
KLON9
 10
0.0
 20
0.0
 30
0.0
  0
INSERT
  5
17D
330
1F
100
AcDbEntity
  8
LC-002-100-D00-0
 62
     7
370
    25
100
AcDbBlockReference
  2
KLON10
 10
0.0
 20
0.0
 30
0.0
  0
INSERT
  5
183
330
1F
100
AcDbEntity
  8
LC-002-100-D00-0
 62
     7
370
    25
100
AcDbBlockReference
  2
KLON11
 10
0.0
 20
0.0
 30
0.0
  0
INSERT
  5
18A
330
1F
100
AcDbEntity
  8
LC-002-100-D00-0
 62
     7
370
    25
100
AcDbBlockReference
  2
KLON12
 10
0.0
 20
0.0
 30
0.0
  0
INSERT
  5
193
330
1F
100
AcDbEntity
  8
LC-002-100-D00-0
 62
     7
370
    25
100
AcDbBlockReference
  2
KLON13
 10
0.0
 20
0.0
 30
0.0
  0
INSERT
  5
19B
330
1F
100
AcDbEntity
  8
LC-002-100-D00-0
 62
     7
370
    -2
100
AcDbBlockReference
  2
KLON14
 10
0.0
 20
0.0
 30
0.0
  0
INSERT
  5
1A9
330
1F
100
AcDbEntity
  8
LC-002-100-D00-0
 62
     7
370
    25
100
AcDbBlockReference
  2
KLON15
 10
0.0
 20
0.0
 30
0.0
  0
INSERT
  5
1B8
330
1F
100
AcDbEntity
  8
LC-002-100-D00-0
 62
     7
370
    25
100
AcDbBlockReference
  2
KLON16
 10
0.0
 20
0.0
 30
0.0
  0
INSERT
  5
1BF
330
1F
100
AcDbEntity
  8
LC-002-100-D00-0
 62
     7
370
    25
100
AcDbBlockReference
  2
KLON17
 10
0.0
 20
0.0
 30
0.0
  0
INSERT
  5
1C5
330
1F
100
AcDbEntity
  8
LC-002-100-D00-0
 62
     7
370
    25
100
AcDbBlockReference
  2
KLON18
 10
0.0
 20
0.0
 30
0.0
  0
INSERT
  5
1CD
330
1F
100
AcDbEntity
  8
LC-002-100-D00-0
 62
     7
370
    25
100
AcDbBlockReference
  2
KLON19
 10
0.0
 20
0.0
 30
0.0
  0
INSERT
  5
1D6
330
1F
100
AcDbEntity
  8
LC-002-100-D00-0
 62
     7
370
    25
100
AcDbBlockReference
  2
KLON20
 10
0.0
 20
0.0
 30
0.0
  0
DIMENSION
  5
1D9
330
1F
100
AcDbEntity
  8
LC-002-100-D00-0
 62
     7
370
    25
100
AcDbDimension
  2
*D21
 10
116.921766
 20
94.817006
 30
0.0
 11
171.964516
 21
125.617006
 31
0.0
 70
   160
  1
%%c<>
 71
     5
 42
20.0
  3
LC-DIM-L-0140-02-02
100
AcDbAlignedDimension
 13
96.921766
 23
142.360615
 33
0.0
 14
116.921766
 24
142.360615
 34
0.0
100
AcDbRotatedDimension
  0
DIMENSION
  5
1E8
330
1F
100
AcDbEntity
  8
LC-002-100-D00-0
 62
     7
370
    25
100
AcDbDimension
  2
*D22
 10
39.879843
 20
141.360615
 30
0.0
 11
9.079843
 21
150.059006
 31
0.0
 70
   160
 71
     5
 42
32.0
 53
90.0
  3
LC-DIM-L-0140-02-02
100
AcDbAlignedDimension
 13
90.671766
 23
173.360615
 33
0.0
 14
102.421766
 24
141.360615
 34
0.0
 50
90.0
100
AcDbRotatedDimension
  0
DIMENSION
  5
1F8
330
1F
100
AcDbEntity
  8
LC-002-100-D00-0
 62
     7
370
    25
100
AcDbDimension
  2
*D23
 10
125.171766
 20
201.143006
 30
0.0
 11
163.986248
 21
231.943006
 31
0.0
 70
   160
  1
36,5
 71
     5
 42
36.5
  3
LC-DIM-L-0140-01-02
100
AcDbAlignedDimension
 13
88.671766
 23
171.360615
 33
0.0
 14
125.171766
 24
171.360615
 34
0.0
100
AcDbRotatedDimension
  0
ENDSEC
  0
SECTION
  2
OBJECTS
  0
DICTIONARY
  5
C
330
0
100
AcDbDictionary
281
     1
  3
ACAD_GROUP
350
D
  3
ACAD_LAYOUT
350
1A
  3
ACAD_MLINESTYLE
350
17
  3
ACAD_PLOTSETTINGS
350
19
  3
ACAD_PLOTSTYLENAME
350
E
  0
DICTIONARY
  5
D
102
{ACAD_REACTORS
330
C
102
}
330
C
100
AcDbDictionary
281
     1
  0
DICTIONARY
  5
1A
102
{ACAD_REACTORS
330
C
102
}
330
C
100
AcDbDictionary
281
     1
  3
Layout1
350
1E
  3
Layout2
350
26
  3
Model
350
22
  0
DICTIONARY
  5
17
102
{ACAD_REACTORS
330
C
102
}
330
C
100
AcDbDictionary
281
     1
  3
Standard
350
18
  0
DICTIONARY
  5
19
102
{ACAD_REACTORS
330
C
102
}
330
C
100
AcDbDictionary
281
     1
  0
ACDBDICTIONARYWDFLT
  5
E
102
{ACAD_REACTORS
330
C
102
}
330
C
100
AcDbDictionary
281
     1
  3
Normal
350
F
100
AcDbDictionaryWithDefault
340
F
  0
LAYOUT
  5
1E
102
{ACAD_REACTORS
330
1A
102
}
330
1A
100
AcDbPlotSettings
  1

  2

  4

  6

 40
0.0
 41
0.0
 42
0.0
 43
0.0
 44
0.0
 45
0.0
 46
0.0
 47
0.0
 48
0.0
 49
0.0
140
0.0
141
0.0
142
1.0
143
1.0
 70
   688
 72
     0
 73
     0
 74
     5
  7

 75
    16
147
1.0
148
0.0
149
0.0
100
AcDbLayout
  1
Layout1
 70
     1
 71
     1
 10
-284.380931
 20
-170.700994
 11
555.619069
 21
423.299006
 12
0.0
 22
0.0
 32
0.0
 14
-284.380931
 24
-170.700994
 34
0.0
 15
555.619069
 25
423.299006
 35
0.0
146
0.0
 13
0.0
 23
0.0
 33
0.0
 16
1.0
 26
0.0
 36
0.0
 17
0.0
 27
1.0
 37
0.0
 76
     0
330
1B
  0
LAYOUT
  5
26
102
{ACAD_REACTORS
330
1A
102
}
330
1A
100
AcDbPlotSettings
  1

  2

  4

  6

 40
0.0
 41
0.0
 42
0.0
 43
0.0
 44
0.0
 45
0.0
 46
0.0
 47
0.0
 48
0.0
 49
0.0
140
0.0
141
0.0
142
1.0
143
1.0
 70
   688
 72
     0
 73
     0
 74
     5
  7

 75
    16
147
1.0
148
0.0
149
0.0
100
AcDbLayout
  1
Layout2
 70
     1
 71
     2
 10
0.0
 20
0.0
 11
0.0
 21
0.0
 12
0.0
 22
0.0
 32
0.0
 14
0.0
 24
0.0
 34
0.0
 15
0.0
 25
0.0
 35
0.0
146
0.0
 13
0.0
 23
0.0
 33
0.0
 16
1.0
 26
0.0
 36
0.0
 17
0.0
 27
1.0
 37
0.0
 76
     0
330
23
  0
LAYOUT
  5
22
102
{ACAD_REACTORS
330
1A
102
}
330
1A
100
AcDbPlotSettings
  1

  2

  4

  6

 40
0.0
 41
0.0
 42
0.0
 43
0.0
 44
0.0
 45
0.0
 46
0.0
 47
0.0
 48
0.0
 49
0.0
140
0.0
141
0.0
142
1.0
143
1.0
 70
  1776
 72
     0
 73
     0
 74
     0
  7

 75
     0
147
1.0
148
0.0
149
0.0
100
AcDbLayout
  1
Model
 70
     1
 71
     0
 10
-284.380931
 20
-170.700994
 11
555.619069
 21
423.299006
 12
0.0
 22
0.0
 32
0.0
 14
-284.380931
 24
-170.700994
 34
0.0
 15
555.619069
 25
423.299006
 35
0.0
146
0.0
 13
0.0
 23
0.0
 33
0.0
 16
1.0
 26
0.0
 36
0.0
 17
0.0
 27
1.0
 37
0.0
 76
     0
330
1F
  0
MLINESTYLE
  5
18
102
{ACAD_REACTORS
330
17
102
}
330
17
100
AcDbMlineStyle
  2
Standard
 70
     0
  3

 62
   256
 51
90.0
 52
90.0
 71
     2
 49
0.5
 62
   256
  6
BYLAYER
 49
-0.5
 62
   256
  6
BYLAYER
  0
ACDBPLACEHOLDER
  5
F
102
{ACAD_REACTORS
330
E
102
}
330
E
  0
ENDSEC
  0
EOF
