  0
SECTION
  2
HEADER
  9
$ACADVER
  1
AC1015
  9
$ACADMAINTVER
 70
     6
  9
$DWGCODEPAGE
  3
ANSI_1252
  9
$INSBASE
 10
-0.418277
 20
273.450138
 30
0.0
  9
$EXTMIN
 10
-0.418277
 20
273.450138
 30
0.0
  9
$EXTMAX
 10
839.581723
 20
867.450138
 30
0.0
  9
$LIMMIN
 10
-0.418277
 20
273.450138
  9
$LIMMAX
 10
839.581723
 20
867.450138
  9
$ORTHOMODE
 70
     0
  9
$REGENMODE
 70
     1
  9
$FILLMODE
 70
     1
  9
$QTEXTMODE
 70
     0
  9
$MIRRTEXT
 70
     1
  9
$LTSCALE
 40
2.0
  9
$ATTMODE
 70
     1
  9
$TEXTSIZE
 40
2.5
  9
$TRACEWID
 40
1.0
  9
$TEXTSTYLE
  7
Standard
  9
$CLAYER
  8
0
  9
$CELTYPE
  6
ByLayer
  9
$CECOLOR
 62
     7
  9
$CELTSCALE
 40
1.0
  9
$DISPSILH
 70
     0
  9
$DIMSCALE
 40
2.0
  9
$DIMASZ
 40
3.5
  9
$DIMEXO
 40
0.625
  9
$DIMDLI
 40
3.75
  9
$DIMRND
 40
0.0
  9
$DIMDLE
 40
0.0
  9
$DIMEXE
 40
1.25
  9
$DIMTP
 40
0.0
  9
$DIMTM
 40
0.0
  9
$DIMTXT
 40
3.5
  9
$DIMCEN
 40
2.5
  9
$DIMTSZ
 40
0.0
  9
$DIMTOL
 70
     0
  9
$DIMLIM
 70
     0
  9
$DIMTIH
 70
     0
  9
$DIMTOH
 70
     0
  9
$DIMSE1
 70
     0
  9
$DIMSE2
 70
     0
  9
$DIMTAD
 70
     1
  9
$DIMZIN
 70
     8
  9
$DIMBLK
  1

  9
$DIMASO
 70
     1
  9
$DIMSHO
 70
     1
  9
$DIMPOST
  1

  9
$DIMAPOST
  1

  9
$DIMALT
 70
     0
  9
$DIMALTD
 70
     3
  9
$DIMALTF
 40
0.03937
  9
$DIMLFAC
 40
1.0
  9
$DIMTOFL
 70
     1
  9
$DIMTVP
 40
0.0
  9
$DIMTIX
 70
     0
  9
$DIMSOXD
 70
     0
  9
$DIMSAH
 70
     0
  9
$DIMBLK1
  1

  9
$DIMBLK2
  1

  9
$DIMSTYLE
  2
ISO-25
  9
$DIMCLRD
 70
     0
  9
$DIMCLRE
 70
     0
  9
$DIMCLRT
 70
     0
  9
$DIMTFAC
 40
1.0
  9
$DIMGAP
 40
0.625
  9
$DIMJUST
 70
     0
  9
$DIMSD1
 70
     0
  9
$DIMSD2
 70
     0
  9
$DIMTOLJ
 70
     0
  9
$DIMTZIN
 70
     8
  9
$DIMALTZ
 70
     0
  9
$DIMALTTZ
 70
     0
  9
$DIMUPT
 70
     0
  9
$DIMDEC
 70
     2
  9
$DIMTDEC
 70
     2
  9
$DIMALTU
 70
     2
  9
$DIMALTTD
 70
     3
  9
$DIMTXSTY
  7
Standard
  9
$DIMAUNIT
 70
     0
  9
$DIMADEC
 70
     0
  9
$DIMALTRND
 40
0.0
  9
$DIMAZIN
 70
     0
  9
$DIMDSEP
 70
    44
  9
$DIMATFIT
 70
     3
  9
$DIMFRAC
 70
     0
  9
$DIMLDRBLK
  1

  9
$DIMLUNIT
 70
     2
  9
$DIMLWD
 70
    -2
  9
$DIMLWE
 70
    -2
  9
$DIMTMOVE
 70
     0
  9
$LUNITS
 70
     2
  9
$LUPREC
 70
     4
  9
$SKETCHINC
 40
1.0
  9
$FILLETRAD
 40
10.0
  9
$AUNITS
 70
     0
  9
$AUPREC
 70
     0
  9
$MENU
  1
.
  9
$ELEVATION
 40
0.0
  9
$PELEVATION
 40
0.0
  9
$THICKNESS
 40
0.0
  9
$LIMCHECK
 70
     0
  9
$CHAMFERA
 40
10.0
  9
$CHAMFERB
 40
10.0
  9
$CHAMFERC
 40
20.0
  9
$CHAMFERD
 40
0.0
  9
$SKPOLY
 70
     0
  9
$TDCREATE
 40
2455457.417068183
  9
$TDUCREATE
 40
2455457.33373485
  9
$TDUPDATE
 40
2455457.417068195
  9
$TDUUPDATE
 40
2455457.333734861
  9
$TDINDWG
 40
0.0000000116
  9
$TDUSRTIMER
 40
0.0000000116
  9
$USRTIMER
 70
     1
  9
$ANGBASE
 50
0.0
  9
$ANGDIR
 70
     0
  9
$PDMODE
 70
     0
  9
$PDSIZE
 40
0.0
  9
$PLINEWID
 40
0.0
  9
$SPLFRAME
 70
     0
  9
$SPLINETYPE
 70
     6
  9
$SPLINESEGS
 70
     8
  9
$HANDSEED
  5
4B1
  9
$SURFTAB1
 70
     6
  9
$SURFTAB2
 70
     6
  9
$SURFTYPE
 70
     6
  9
$SURFU
 70
     6
  9
$SURFV
 70
     6
  9
$UCSBASE
  2

  9
$UCSNAME
  2

  9
$UCSORG
 10
0.0
 20
0.0
 30
0.0
  9
$UCSXDIR
 10
1.0
 20
0.0
 30
0.0
  9
$UCSYDIR
 10
0.0
 20
1.0
 30
0.0
  9
$UCSORTHOREF
  2

  9
$UCSORTHOVIEW
 70
     0
  9
$UCSORGTOP
 10
0.0
 20
0.0
 30
0.0
  9
$UCSORGBOTTOM
 10
0.0
 20
0.0
 30
0.0
  9
$UCSORGLEFT
 10
0.0
 20
0.0
 30
0.0
  9
$UCSORGRIGHT
 10
0.0
 20
0.0
 30
0.0
  9
$UCSORGFRONT
 10
0.0
 20
0.0
 30
0.0
  9
$UCSORGBACK
 10
0.0
 20
0.0
 30
0.0
  9
$PUCSBASE
  2

  9
$PUCSNAME
  2

  9
$PUCSORG
 10
0.0
 20
0.0
 30
0.0
  9
$PUCSXDIR
 10
1.0
 20
0.0
 30
0.0
  9
$PUCSYDIR
 10
0.0
 20
1.0
 30
0.0
  9
$PUCSORTHOREF
  2

  9
$PUCSORTHOVIEW
 70
     0
  9
$PUCSORGTOP
 10
0.0
 20
0.0
 30
0.0
  9
$PUCSORGBOTTOM
 10
0.0
 20
0.0
 30
0.0
  9
$PUCSORGLEFT
 10
0.0
 20
0.0
 30
0.0
  9
$PUCSORGRIGHT
 10
0.0
 20
0.0
 30
0.0
  9
$PUCSORGFRONT
 10
0.0
 20
0.0
 30
0.0
  9
$PUCSORGBACK
 10
0.0
 20
0.0
 30
0.0
  9
$USERI1
 70
     0
  9
$USERI2
 70
     0
  9
$USERI3
 70
     0
  9
$USERI4
 70
     0
  9
$USERI5
 70
     0
  9
$USERR1
 40
0.0
  9
$USERR2
 40
0.0
  9
$USERR3
 40
0.0
  9
$USERR4
 40
0.0
  9
$USERR5
 40
0.0
  9
$WORLDVIEW
 70
     1
  9
$SHADEDGE
 70
     3
  9
$SHADEDIF
 70
    70
  9
$TILEMODE
 70
     1
  9
$MAXACTVP
 70
    64
  9
$PINSBASE
 10
0.0
 20
0.0
 30
0.0
  9
$PLIMCHECK
 70
     0
  9
$PEXTMIN
 10
-0.418277
 20
273.450138
 30
0.0
  9
$PEXTMAX
 10
839.581723
 20
867.450138
 30
0.0
  9
$PLIMMIN
 10
-0.418277
 20
273.450138
  9
$PLIMMAX
 10
839.581723
 20
867.450138
  9
$UNITMODE
 70
     0
  9
$VISRETAIN
 70
     1
  9
$PLINEGEN
 70
     0
  9
$PSLTSCALE
 70
     1
  9
$TREEDEPTH
 70
  3020
  9
$CMLSTYLE
  2
Standard
  9
$CMLJUST
 70
     0
  9
$CMLSCALE
 40
20.0
  9
$PROXYGRAPHICS
 70
     1
  9
$MEASUREMENT
 70
     1
  9
$CELWEIGHT
370
    -1
  9
$ENDCAPS
280
     0
  9
$JOINSTYLE
280
     0
  9
$LWDISPLAY
290
     0
  9
$INSUNITS
 70
     4
  9
$HYPERLINKBASE
  1

  9
$STYLESHEET
  1

  9
$XEDIT
290
     1
  9
$CEPSNTYPE
380
     0
  9
$PSTYLEMODE
290
     1
  9
$FINGERPRINTGUID
  2
{FAEB1C30-E019-11D5-929B-00C0DF256EC4}
  9
$VERSIONGUID
  2
{FAEB1C32-E019-11D5-929B-00C0DF256EC4}
  9
$EXTNAMES
290
     1
  9
$PSVPSCALE
 40
0.0
  9
$OLESTARTUP
290
     0
  0
ENDSEC
  0
SECTION
  2
CLASSES
  0
CLASS
  1
ACDBDICTIONARYWDFLT
  2
AcDbDictionaryWithDefault
  3
ObjectDBX Classes
 90
        0
280
     0
281
     0
  0
CLASS
  1
ACDBPLACEHOLDER
  2
AcDbPlaceHolder
  3
ObjectDBX Classes
 90
        0
280
     0
281
     0
  0
CLASS
  1
LAYOUT
  2
AcDbLayout
  3
ObjectDBX Classes
 90
        0
280
     0
281
     0
  0
ENDSEC
  0
SECTION
  2
TABLES
  0
TABLE
  2
VPORT
  5
8
330
0
100
AcDbSymbolTable
 70
     2
  0
VPORT
  5
29
330
8
100
AcDbSymbolTableRecord
100
AcDbViewportTableRecord
  2
*ACTIVE
 70
     0
 10
0.0
 20
0.0
 11
1.0
 21
1.0
 12
419.581723
 22
570.450138
 13
0.0
 23
0.0
 14
1.0
 24
1.0
 15
0.0
 25
0.0
 16
0.0
 26
0.0
 36
1.0
 17
0.0
 27
0.0
 37
0.0
 40
594.0
 41
1.414141
 42
50.0
 43
0.0
 44
0.0
 50
0.0
 51
0.0
 71
    16
 72
   100
 73
     1
 74
     0
 75
     0
 76
     0
 77
     0
 78
     0
281
     0
 65
     0
110
0.0
120
0.0
130
0.0
111
1.0
121
0.0
131
0.0
112
0.0
122
1.0
132
0.0
 79
     0
146
0.0
  0
ENDTAB
  0
TABLE
  2
LTYPE
  5
5
330
0
100
AcDbSymbolTable
 70
     3
  0
LTYPE
  5
14
330
5
100
AcDbSymbolTableRecord
100
AcDbLinetypeTableRecord
  2
ByBlock
 70
     0
  3

 72
    65
 73
     0
 40
0.0
  0
LTYPE
  5
15
330
5
100
AcDbSymbolTableRecord
100
AcDbLinetypeTableRecord
  2
ByLayer
 70
     0
  3

 72
    65
 73
     0
 40
0.0
  0
LTYPE
  5
16
330
5
100
AcDbSymbolTableRecord
100
AcDbLinetypeTableRecord
  2
Continuous
 70
     0
  3
Solid line
 72
    65
 73
     0
 40
0.0
  0
LTYPE
  5
2A
330
5
100
AcDbSymbolTableRecord
100
AcDbLinetypeTableRecord
  2
DASHED
 70
     0
  3
__ __ __ __ __
 72
    65
 73
     2
 40
6.25
 49
5.0
 74
     4
 75
     0
340
0
 46
1.0
 50
0.0
 44
0.0
 45
0.0
 49
-1.25
 74
     4
 75
     0
340
0
 46
1.0
 50
0.0
 44
0.0
 45
0.0
  0
LTYPE
  5
46A
330
5
100
AcDbSymbolTableRecord
100
AcDbLinetypeTableRecord
  2
DASHDOT
 70
     0
  3
__ . __ . __ . __ . __
 72
    65
 73
     4
 40
7.5
 49
5.0
 74
     4
 75
     0
340
0
 46
1.0
 50
0.0
 44
0.0
 45
0.0
 49
-1.25
 74
     4
 75
     0
340
0
 46
1.0
 50
0.0
 44
0.0
 45
0.0
 49
0.0
 74
     4
 75
     0
340
0
 46
1.0
 50
0.0
 44
0.0
 45
0.0
 49
-1.25
 74
     4
 75
     0
340
0
 46
1.0
 50
0.0
 44
0.0
 45
0.0
  0
ENDTAB
  0
TABLE
  2
LAYER
  5
2
330
0
100
AcDbSymbolTable
 70
     8
  0
LAYER
  5
10
330
2
100
AcDbSymbolTableRecord
100
AcDbLayerTableRecord
  2
0
 70
     0
 62
     7
  6
Continuous
370
    -3
390
F
  0
LAYER
  5
2B
330
2
100
AcDbSymbolTableRecord
100
AcDbLayerTableRecord
  2
LC-INFO-1-2-mm-A3-0
 70
     1
 62
     7
  6
ByBlock
370
    -3
390
F
  0
LAYER
  5
2C
330
2
100
AcDbSymbolTableRecord
100
AcDbLayerTableRecord
  2
LC-CUT-HIDDEN
 70
     0
 62
     7
  6
DASHED
370
    -3
390
F
  0
LAYER
  5
2D
330
2
100
AcDbSymbolTableRecord
100
AcDbLayerTableRecord
  2
LC-VIEWPORT
 70
     0
 62
     7
  6
ByBlock
370
    -3
390
F
  0
LAYER
  5
2E
330
2
100
AcDbSymbolTableRecord
100
AcDbLayerTableRecord
  2
LC-3D-HIDDEN
 70
     0
 62
     9
  6
DASHED
370
    -3
390
F
  0
LAYER
  5
31
330
2
100
AcDbSymbolTableRecord
100
AcDbLayerTableRecord
  2
LC-001-100-D00-0
 70
     0
 62
    44
  6
ByBlock
370
    -3
390
F
  0
LAYER
  5
46E
330
2
100
AcDbSymbolTableRecord
100
AcDbLayerTableRecord
  2
LC-002-003-----0
 70
     0
 62
     2
  6
ByBlock
370
    -3
390
F
  0
LAYER
  5
470
330
2
100
AcDbSymbolTableRecord
100
AcDbLayerTableRecord
  2
Defpoints
 70
     0
 62
     7
  6
Continuous
290
     0
370
    -3
390
F
  0
ENDTAB
  0
TABLE
  2
STYLE
  5
3
330
0
100
AcDbSymbolTable
 70
     4
  0
STYLE
  5
11
330
3
100
AcDbSymbolTableRecord
100
AcDbTextStyleTableRecord
  2
Standard
 70
     0
 40
0.0
 41
1.0
 50
0.0
 71
     0
 42
2.5
  3
txt
  4

  0
STYLE
  5
2F
330
3
100
AcDbSymbolTableRecord
100
AcDbTextStyleTableRecord
  2
LCTX0-400-0-0pDIN-Schrift
 70
     0
 40
0.0
 41
0.75
 50
0.0
 71
     0
 42
3.5
  3
TXT
  4

  0
STYLE
  5
30
330
3
100
AcDbSymbolTableRecord
100
AcDbTextStyleTableRecord
  2
LCTX15-400-0-0-Arial
 70
     0
 40
0.0
 41
0.8
 50
0.0
 71
     0
 42
3.5
  3

  4

1001
ACAD
1000
Arial
1071
 16777218
  0
STYLE
  5
46C
330
3
100
AcDbSymbolTableRecord
100
AcDbTextStyleTableRecord
  2
LCTX15-400-0-0pDIN-Schrift
 70
     0
 40
2.5
 41
0.8
 50
15.0
 71
     0
 42
3.5
  3
STANDARD
  4

  0
ENDTAB
  0
TABLE
  2
VIEW
  5
6
330
0
100
AcDbSymbolTable
 70
     0
  0
ENDTAB
  0
TABLE
  2
UCS
  5
7
330
0
100
AcDbSymbolTable
 70
     0
  0
ENDTAB
  0
TABLE
  2
APPID
  5
9
330
0
100
AcDbSymbolTable
 70
     1
  0
APPID
  5
12
330
9
100
AcDbSymbolTableRecord
100
AcDbRegAppTableRecord
  2
ACAD
 70
     0
  0
ENDTAB
  0
TABLE
  2
DIMSTYLE
  5
A
330
0
100
AcDbSymbolTable
 70
     2
100
AcDbDimStyleTable
  0
DIMSTYLE
105
27
330
A
100
AcDbSymbolTableRecord
100
AcDbDimStyleTableRecord
  2
ISO-25
 70
     0
 41
2.5
 42
0.625
 43
3.75
 44
1.25
 73
     0
 74
     0
 77
     1
 78
     8
140
2.5
141
2.5
143
0.03937
147
0.625
171
     3
172
     1
271
     2
272
     2
274
     3
278
    44
283
     0
284
     8
340
11
  0
DIMSTYLE
105
46D
102
{ACAD_REACTORS
330
46F
330
47D
330
48A
330
497
330
4A4
102
}
330
A
100
AcDbSymbolTableRecord
100
AcDbDimStyleTableRecord
  2
LC-DIM-L-0140-02-02
 70
     0
 40
2.0
 41
14.0
 42
0.0
 43
7.5
 44
1.8
 73
     0
 74
     0
 77
     1
 78
     8
 79
     2
140
14.0
141
0.0
146
0.71
147
1.5
176
     2
177
     2
178
     2
179
     2
271
     2
278
    44
289
     1
340
46C
  0
ENDTAB
  0
TABLE
  2
BLOCK_RECORD
  5
1
330
0
100
AcDbSymbolTable
 70
    28
  0
BLOCK_RECORD
  5
1F
330
1
100
AcDbSymbolTableRecord
100
AcDbBlockTableRecord
  2
*Model_Space
340
22
  0
BLOCK_RECORD
  5
1B
330
1
100
AcDbSymbolTableRecord
100
AcDbBlockTableRecord
  2
*Paper_Space
340
1E
  0
BLOCK_RECORD
  5
23
330
1
100
AcDbSymbolTableRecord
100
AcDbBlockTableRecord
  2
*Paper_Space0
340
26
  0
BLOCK_RECORD
  5
80
330
1
100
AcDbSymbolTableRecord
100
AcDbBlockTableRecord
  2
POLY1
340
0
102
{BLKREFS
331
91
102
}
  0
BLOCK_RECORD
  5
95
330
1
100
AcDbSymbolTableRecord
100
AcDbBlockTableRecord
  2
POLY2
340
0
102
{BLKREFS
331
A6
102
}
  0
BLOCK_RECORD
  5
F6
330
1
100
AcDbSymbolTableRecord
100
AcDbBlockTableRecord
  2
POLY3
340
0
102
{BLKREFS
331
107
102
}
  0
BLOCK_RECORD
  5
108
330
1
100
AcDbSymbolTableRecord
100
AcDbBlockTableRecord
  2
POLY4
340
0
102
{BLKREFS
331
119
102
}
  0
BLOCK_RECORD
  5
11D
330
1
100
AcDbSymbolTableRecord
100
AcDbBlockTableRecord
  2
POLY5
340
0
102
{BLKREFS
331
12E
102
}
  0
BLOCK_RECORD
  5
12F
330
1
100
AcDbSymbolTableRecord
100
AcDbBlockTableRecord
  2
POLY6
340
0
102
{BLKREFS
331
140
102
}
  0
BLOCK_RECORD
  5
17F
330
1
100
AcDbSymbolTableRecord
100
AcDbBlockTableRecord
  2
POLY7
340
0
102
{BLKREFS
331
190
102
}
  0
BLOCK_RECORD
  5
194
330
1
100
AcDbSymbolTableRecord
100
AcDbBlockTableRecord
  2
POLY8
340
0
102
{BLKREFS
331
1A5
102
}
  0
BLOCK_RECORD
  5
261
330
1
100
AcDbSymbolTableRecord
100
AcDbBlockTableRecord
  2
POLY9
340
0
102
{BLKREFS
331
272
102
}
  0
BLOCK_RECORD
  5
275
330
1
100
AcDbSymbolTableRecord
100
AcDbBlockTableRecord
  2
POLY10
340
0
102
{BLKREFS
331
286
102
}
  0
BLOCK_RECORD
  5
28A
330
1
100
AcDbSymbolTableRecord
100
AcDbBlockTableRecord
  2
POLY11
340
0
102
{BLKREFS
331
2A7
102
}
  0
BLOCK_RECORD
  5
2AC
330
1
100
AcDbSymbolTableRecord
100
AcDbBlockTableRecord
  2
POLY12
340
0
102
{BLKREFS
331
2C9
102
}
  0
BLOCK_RECORD
  5
2D8
330
1
100
AcDbSymbolTableRecord
100
AcDbBlockTableRecord
  2
KLON1
340
0
102
{BLKREFS
331
2DF
102
}
  0
BLOCK_RECORD
  5
2E0
330
1
100
AcDbSymbolTableRecord
100
AcDbBlockTableRecord
  2
KLON2
340
0
102
{BLKREFS
331
339
102
}
  0
BLOCK_RECORD
  5
33A
330
1
100
AcDbSymbolTableRecord
100
AcDbBlockTableRecord
  2
KLON3
340
0
102
{BLKREFS
331
393
102
}
  0
BLOCK_RECORD
  5
394
330
1
100
AcDbSymbolTableRecord
100
AcDbBlockTableRecord
  2
KLON4
340
0
102
{BLKREFS
331
39B
102
}
  0
BLOCK_RECORD
  5
39C
330
1
100
AcDbSymbolTableRecord
100
AcDbBlockTableRecord
  2
KLON5
340
0
102
{BLKREFS
331
3A4
102
}
  0
BLOCK_RECORD
  5
3A5
330
1
100
AcDbSymbolTableRecord
100
AcDbBlockTableRecord
  2
KLON6
340
0
102
{BLKREFS
331
3AE
102
}
  0
BLOCK_RECORD
  5
3AF
330
1
100
AcDbSymbolTableRecord
100
AcDbBlockTableRecord
  2
KLON7
340
0
102
{BLKREFS
331
3D8
102
}
  0
BLOCK_RECORD
  5
3D9
330
1
100
AcDbSymbolTableRecord
100
AcDbBlockTableRecord
  2
KLON8
340
0
102
{BLKREFS
331
3E4
102
}
  0
BLOCK_RECORD
  5
3E5
330
1
100
AcDbSymbolTableRecord
100
AcDbBlockTableRecord
  2
KLON9
340
0
102
{BLKREFS
331
420
102
}
  0
BLOCK_RECORD
  5
421
330
1
100
AcDbSymbolTableRecord
100
AcDbBlockTableRecord
  2
KLON10
340
0
102
{BLKREFS
331
469
102
}
  0
BLOCK_RECORD
  5
471
330
1
100
AcDbSymbolTableRecord
100
AcDbBlockTableRecord
  2
*D23
340
0
  0
BLOCK_RECORD
  5
47E
330
1
100
AcDbSymbolTableRecord
100
AcDbBlockTableRecord
  2
*D24
340
0
  0
BLOCK_RECORD
  5
48B
330
1
100
AcDbSymbolTableRecord
100
AcDbBlockTableRecord
  2
*D25
340
0
  0
BLOCK_RECORD
  5
498
330
1
100
AcDbSymbolTableRecord
100
AcDbBlockTableRecord
  2
*D26
340
0
  0
BLOCK_RECORD
  5
4A5
330
1
100
AcDbSymbolTableRecord
100
AcDbBlockTableRecord
  2
*D27
340
0
  0
ENDTAB
  0
ENDSEC
  0
SECTION
  2
BLOCKS
  0
BLOCK
  5
20
330
1F
100
AcDbEntity
  8
0
100
AcDbBlockBegin
  2
*Model_Space
 70
     0
 71
     0
 10
0.0
 20
0.0
 30
0.0
  3
*Model_Space
  1

  0
ENDBLK
  5
21
330
1F
100
AcDbEntity
  8
0
100
AcDbBlockEnd
  0
BLOCK
  5
1C
330
1B
100
AcDbEntity
 67
     1
  8
0
100
AcDbBlockBegin
  2
*Paper_Space
 70
     0
 71
     0
 10
0.0
 20
0.0
 30
0.0
  3
*Paper_Space
  1

  0
ENDBLK
  5
1D
330
1B
100
AcDbEntity
 67
     1
  8
0
100
AcDbBlockEnd
  0
BLOCK
  5
24
330
23
100
AcDbEntity
  8
0
100
AcDbBlockBegin
  2
*Paper_Space0
 70
     0
 71
     0
 10
0.0
 20
0.0
 30
0.0
  3
*Paper_Space0
  1

  0
ENDBLK
  5
25
330
23
100
AcDbEntity
  8
0
100
AcDbBlockEnd
  0
BLOCK
  5
81
330
80
100
AcDbEntity
  8
0
100
AcDbBlockBegin
  2
POLY1
 70
     0
 71
     0
 10
0.0
 20
0.0
 30
0.0
  3
POLY1
  1

  4
POLY1
  0
LINE
  5
83
330
80
100
AcDbEntity
  8
LC-001-100-D00-0
 62
     7
370
    15
100
AcDbLine
 10
211.85658
 20
702.880771
 30
0.0
 11
211.85658
 21
702.880771
 31
0.0
  0
LINE
  5
84
330
80
100
AcDbEntity
  8
LC-001-100-D00-0
 62
     7
370
    15
100
AcDbLine
 10
211.85658
 20
702.880771
 30
0.0
 11
211.858405
 21
702.992005
 31
0.0
  0
LINE
  5
85
330
80
100
AcDbEntity
  8
LC-001-100-D00-0
 62
     7
370
    15
100
AcDbLine
 10
211.858405
 20
702.992005
 30
0.0
 11
211.858405
 21
702.992005
 31
0.0
  0
LINE
  5
86
330
80
100
AcDbEntity
  8
LC-001-100-D00-0
 62
     7
370
    15
100
AcDbLine
 10
211.858405
 20
702.992005
 30
0.0
 11
211.862054
 21
703.214452
 31
0.0
  0
LINE
  5
87
330
80
100
AcDbEntity
  8
LC-001-100-D00-0
 62
     7
370
    15
100
AcDbLine
 10
211.862054
 20
703.214452
 30
0.0
 11
211.862054
 21
703.214452
 31
0.0
  0
LINE
  5
88
330
80
100
AcDbEntity
  8
LC-001-100-D00-0
 62
     7
370
    15
100
AcDbLine
 10
211.862054
 20
703.214452
 30
0.0
 11
211.890658
 21
703.511339
 31
0.0
  0
LINE
  5
89
330
80
100
AcDbEntity
  8
LC-001-100-D00-0
 62
     7
370
    15
100
AcDbLine
 10
211.890658
 20
703.511339
 30
0.0
 11
211.890658
 21
703.511339
 31
0.0
  0
LINE
  5
8A
330
80
100
AcDbEntity
  8
LC-001-100-D00-0
 62
     7
370
    15
100
AcDbLine
 10
211.890658
 20
703.511339
 30
0.0
 11
211.933716
 21
703.737439
 31
0.0
  0
LINE
  5
8B
330
80
100
AcDbEntity
  8
LC-001-100-D00-0
 62
     7
370
    15
100
AcDbLine
 10
211.933716
 20
703.737439
 30
0.0
 11
211.933716
 21
703.737439
 31
0.0
  0
LINE
  5
8C
330
80
100
AcDbEntity
  8
LC-001-100-D00-0
 62
     7
370
    15
100
AcDbLine
 10
211.933716
 20
703.737439
 30
0.0
 11
211.983589
 21
703.862049
 31
0.0
  0
LINE
  5
8D
330
80
100
AcDbEntity
  8
LC-001-100-D00-0
 62
     7
370
    15
100
AcDbLine
 10
211.983589
 20
703.862049
 30
0.0
 11
211.983589
 21
703.862049
 31
0.0
  0
LINE
  5
8E
330
80
100
AcDbEntity
  8
LC-001-100-D00-0
 62
     7
370
    15
100
AcDbLine
 10
211.983589
 20
703.862049
 30
0.0
 11
212.018172
 21
703.875286
 31
0.0
  0
LINE
  5
8F
330
80
100
AcDbEntity
  8
LC-001-100-D00-0
 62
     7
370
    15
100
AcDbLine
 10
212.018172
 20
703.875286
 30
0.0
 11
212.018172
 21
703.875286
 31
0.0
  0
LINE
  5
90
330
80
100
AcDbEntity
  8
LC-001-100-D00-0
 62
     7
370
    15
100
AcDbLine
 10
212.018172
 20
703.875286
 30
0.0
 11
212.032488
 21
703.880765
 31
0.0
  0
ENDBLK
  5
82
330
80
100
AcDbEntity
  8
0
100
AcDbBlockEnd
  0
BLOCK
  5
96
330
95
100
AcDbEntity
  8
0
100
AcDbBlockBegin
  2
POLY2
 70
     0
 71
     0
 10
0.0
 20
0.0
 30
0.0
  3
POLY2
  1

  4
POLY2
  0
LINE
  5
98
330
95
100
AcDbEntity
  8
LC-001-100-D00-0
 62
     7
370
    15
100
AcDbLine
 10
351.705807
 20
703.880765
 30
0.0
 11
351.705807
 21
703.880765
 31
0.0
  0
LINE
  5
99
330
95
100
AcDbEntity
  8
LC-001-100-D00-0
 62
     7
370
    15
100
AcDbLine
 10
351.705807
 20
703.880765
 30
0.0
 11
351.726469
 21
703.869486
 31
0.0
  0
LINE
  5
9A
330
95
100
AcDbEntity
  8
LC-001-100-D00-0
 62
     7
370
    15
100
AcDbLine
 10
351.726469
 20
703.869486
 30
0.0
 11
351.726469
 21
703.869486
 31
0.0
  0
LINE
  5
9B
330
95
100
AcDbEntity
  8
LC-001-100-D00-0
 62
     7
370
    15
100
AcDbLine
 10
351.726469
 20
703.869486
 30
0.0
 11
351.7678
 21
703.846923
 31
0.0
  0
LINE
  5
9C
330
95
100
AcDbEntity
  8
LC-001-100-D00-0
 62
     7
370
    15
100
AcDbLine
 10
351.7678
 20
703.846923
 30
0.0
 11
351.7678
 21
703.846923
 31
0.0
  0
LINE
  5
9D
330
95
100
AcDbEntity
  8
LC-001-100-D00-0
 62
     7
370
    15
100
AcDbLine
 10
351.7678
 20
703.846923
 30
0.0
 11
351.820895
 21
703.670381
 31
0.0
  0
LINE
  5
9E
330
95
100
AcDbEntity
  8
LC-001-100-D00-0
 62
     7
370
    15
100
AcDbLine
 10
351.820895
 20
703.670381
 30
0.0
 11
351.820895
 21
703.670381
 31
0.0
  0
LINE
  5
9F
330
95
100
AcDbEntity
  8
LC-001-100-D00-0
 62
     7
370
    15
100
AcDbLine
 10
351.820895
 20
703.670381
 30
0.0
 11
351.859714
 21
703.411328
 31
0.0
  0
LINE
  5
A0
330
95
100
AcDbEntity
  8
LC-001-100-D00-0
 62
     7
370
    15
100
AcDbLine
 10
351.859714
 20
703.411328
 30
0.0
 11
351.859714
 21
703.411328
 31
0.0
  0
LINE
  5
A1
330
95
100
AcDbEntity
  8
LC-001-100-D00-0
 62
     7
370
    15
100
AcDbLine
 10
351.859714
 20
703.411328
 30
0.0
 11
351.879103
 21
703.13106
 31
0.0
  0
LINE
  5
A2
330
95
100
AcDbEntity
  8
LC-001-100-D00-0
 62
     7
370
    15
100
AcDbLine
 10
351.879103
 20
703.13106
 30
0.0
 11
351.879103
 21
703.13106
 31
0.0
  0
LINE
  5
A3
330
95
100
AcDbEntity
  8
LC-001-100-D00-0
 62
     7
370
    15
100
AcDbLine
 10
351.879103
 20
703.13106
 30
0.0
 11
351.880991
 21
702.949664
 31
0.0
  0
LINE
  5
A4
330
95
100
AcDbEntity
  8
LC-001-100-D00-0
 62
     7
370
    15
100
AcDbLine
 10
351.880991
 20
702.949664
 30
0.0
 11
351.880991
 21
702.949664
 31
0.0
  0
LINE
  5
A5
330
95
100
AcDbEntity
  8
LC-001-100-D00-0
 62
     7
370
    15
100
AcDbLine
 10
351.880991
 20
702.949664
 30
0.0
 11
351.881708
 21
702.880771
 31
0.0
  0
ENDBLK
  5
97
330
95
100
AcDbEntity
  8
0
100
AcDbBlockEnd
  0
BLOCK
  5
F7
330
F6
100
AcDbEntity
  8
0
100
AcDbBlockBegin
  2
POLY3
 70
     0
 71
     0
 10
0.0
 20
0.0
 30
0.0
  3
POLY3
  1

  4
POLY3
  0
LINE
  5
F9
330
F6
100
AcDbEntity
  8
LC-001-100-D00-0
 62
     7
370
    15
100
AcDbLine
 10
212.032488
 20
703.880765
 30
0.0
 11
212.032488
 21
703.880765
 31
0.0
  0
LINE
  5
FA
330
F6
100
AcDbEntity
  8
LC-001-100-D00-0
 62
     7
370
    15
100
AcDbLine
 10
212.032488
 20
703.880765
 30
0.0
 11
212.053553
 21
703.869409
 31
0.0
  0
LINE
  5
FB
330
F6
100
AcDbEntity
  8
LC-001-100-D00-0
 62
     7
370
    15
100
AcDbLine
 10
212.053553
 20
703.869409
 30
0.0
 11
212.053553
 21
703.869409
 31
0.0
  0
LINE
  5
FC
330
F6
100
AcDbEntity
  8
LC-001-100-D00-0
 62
     7
370
    15
100
AcDbLine
 10
212.053553
 20
703.869409
 30
0.0
 11
212.095686
 21
703.846693
 31
0.0
  0
LINE
  5
FD
330
F6
100
AcDbEntity
  8
LC-001-100-D00-0
 62
     7
370
    15
100
AcDbLine
 10
212.095686
 20
703.846693
 30
0.0
 11
212.095686
 21
703.846693
 31
0.0
  0
LINE
  5
FE
330
F6
100
AcDbEntity
  8
LC-001-100-D00-0
 62
     7
370
    15
100
AcDbLine
 10
212.095686
 20
703.846693
 30
0.0
 11
212.153631
 21
703.669477
 31
0.0
  0
LINE
  5
FF
330
F6
100
AcDbEntity
  8
LC-001-100-D00-0
 62
     7
370
    15
100
AcDbLine
 10
212.153631
 20
703.669477
 30
0.0
 11
212.153631
 21
703.669477
 31
0.0
  0
LINE
  5
100
330
F6
100
AcDbEntity
  8
LC-001-100-D00-0
 62
     7
370
    15
100
AcDbLine
 10
212.153631
 20
703.669477
 30
0.0
 11
212.197669
 21
703.40952
 31
0.0
  0
LINE
  5
101
330
F6
100
AcDbEntity
  8
LC-001-100-D00-0
 62
     7
370
    15
100
AcDbLine
 10
212.197669
 20
703.40952
 30
0.0
 11
212.197669
 21
703.40952
 31
0.0
  0
LINE
  5
102
330
F6
100
AcDbEntity
  8
LC-001-100-D00-0
 62
     7
370
    15
100
AcDbLine
 10
212.197669
 20
703.40952
 30
0.0
 11
212.220193
 21
703.129228
 31
0.0
  0
LINE
  5
103
330
F6
100
AcDbEntity
  8
LC-001-100-D00-0
 62
     7
370
    15
100
AcDbLine
 10
212.220193
 20
703.129228
 30
0.0
 11
212.220193
 21
703.129228
 31
0.0
  0
LINE
  5
104
330
F6
100
AcDbEntity
  8
LC-001-100-D00-0
 62
     7
370
    15
100
AcDbLine
 10
212.220193
 20
703.129228
 30
0.0
 11
212.222375
 21
702.948588
 31
0.0
  0
LINE
  5
105
330
F6
100
AcDbEntity
  8
LC-001-100-D00-0
 62
     7
370
    15
100
AcDbLine
 10
212.222375
 20
702.948588
 30
0.0
 11
212.222375
 21
702.948588
 31
0.0
  0
LINE
  5
106
330
F6
100
AcDbEntity
  8
LC-001-100-D00-0
 62
     7
370
    15
100
AcDbLine
 10
212.222375
 20
702.948588
 30
0.0
 11
212.223193
 21
702.880771
 31
0.0
  0
ENDBLK
  5
F8
330
F6
100
AcDbEntity
  8
0
100
AcDbBlockEnd
  0
BLOCK
  5
109
330
108
100
AcDbEntity
  8
0
100
AcDbBlockBegin
  2
POLY4
 70
     0
 71
     0
 10
0.0
 20
0.0
 30
0.0
  3
POLY4
  1

  4
POLY4
  0
LINE
  5
10B
330
108
100
AcDbEntity
  8
LC-001-100-D00-0
 62
     7
370
    15
100
AcDbLine
 10
268.069152
 20
702.880771
 30
0.0
 11
268.069152
 21
702.880771
 31
0.0
  0
LINE
  5
10C
330
108
100
AcDbEntity
  8
LC-001-100-D00-0
 62
     7
370
    15
100
AcDbLine
 10
268.069152
 20
702.880771
 30
0.0
 11
268.079919
 21
702.991635
 31
0.0
  0
LINE
  5
10D
330
108
100
AcDbEntity
  8
LC-001-100-D00-0
 62
     7
370
    15
100
AcDbLine
 10
268.079919
 20
702.991635
 30
0.0
 11
268.079919
 21
702.991635
 31
0.0
  0
LINE
  5
10E
330
108
100
AcDbEntity
  8
LC-001-100-D00-0
 62
     7
370
    15
100
AcDbLine
 10
268.079919
 20
702.991635
 30
0.0
 11
268.101447
 21
703.21333
 31
0.0
  0
LINE
  5
10F
330
108
100
AcDbEntity
  8
LC-001-100-D00-0
 62
     7
370
    15
100
AcDbLine
 10
268.101447
 20
703.21333
 30
0.0
 11
268.101447
 21
703.21333
 31
0.0
  0
LINE
  5
110
330
108
100
AcDbEntity
  8
LC-001-100-D00-0
 62
     7
370
    15
100
AcDbLine
 10
268.101447
 20
703.21333
 30
0.0
 11
268.268952
 21
703.509414
 31
0.0
  0
LINE
  5
111
330
108
100
AcDbEntity
  8
LC-001-100-D00-0
 62
     7
370
    15
100
AcDbLine
 10
268.268952
 20
703.509414
 30
0.0
 11
268.268952
 21
703.509414
 31
0.0
  0
LINE
  5
112
330
108
100
AcDbEntity
  8
LC-001-100-D00-0
 62
     7
370
    15
100
AcDbLine
 10
268.268952
 20
703.509414
 30
0.0
 11
268.516463
 21
703.735758
 31
0.0
  0
LINE
  5
113
330
108
100
AcDbEntity
  8
LC-001-100-D00-0
 62
     7
370
    15
100
AcDbLine
 10
268.516463
 20
703.735758
 30
0.0
 11
268.516463
 21
703.735758
 31
0.0
  0
LINE
  5
114
330
108
100
AcDbEntity
  8
LC-001-100-D00-0
 62
     7
370
    15
100
AcDbLine
 10
268.516463
 20
703.735758
 30
0.0
 11
268.798591
 21
703.861663
 31
0.0
  0
LINE
  5
115
330
108
100
AcDbEntity
  8
LC-001-100-D00-0
 62
     7
370
    15
100
AcDbLine
 10
268.798591
 20
703.861663
 30
0.0
 11
268.798591
 21
703.861663
 31
0.0
  0
LINE
  5
116
330
108
100
AcDbEntity
  8
LC-001-100-D00-0
 62
     7
370
    15
100
AcDbLine
 10
268.798591
 20
703.861663
 30
0.0
 11
268.989672
 21
703.875154
 31
0.0
  0
LINE
  5
117
330
108
100
AcDbEntity
  8
LC-001-100-D00-0
 62
     7
370
    15
100
AcDbLine
 10
268.989672
 20
703.875154
 30
0.0
 11
268.989672
 21
703.875154
 31
0.0
  0
LINE
  5
118
330
108
100
AcDbEntity
  8
LC-001-100-D00-0
 62
     7
370
    15
100
AcDbLine
 10
268.989672
 20
703.875154
 30
0.0
 11
269.069153
 21
703.880765
 31
0.0
  0
ENDBLK
  5
10A
330
108
100
AcDbEntity
  8
0
100
AcDbBlockEnd
  0
BLOCK
  5
11E
330
11D
100
AcDbEntity
  8
0
100
AcDbBlockBegin
  2
POLY5
 70
     0
 71
     0
 10
0.0
 20
0.0
 30
0.0
  3
POLY5
  1

  4
POLY5
  0
LINE
  5
120
330
11D
100
AcDbEntity
  8
LC-001-100-D00-0
 62
     7
370
    15
100
AcDbLine
 10
351.515102
 20
702.880771
 30
0.0
 11
351.515102
 21
702.880771
 31
0.0
  0
LINE
  5
121
330
11D
100
AcDbEntity
  8
LC-001-100-D00-0
 62
     7
370
    15
100
AcDbLine
 10
351.515102
 20
702.880771
 30
0.0
 11
351.517239
 21
702.991635
 31
0.0
  0
LINE
  5
122
330
11D
100
AcDbEntity
  8
LC-001-100-D00-0
 62
     7
370
    15
100
AcDbLine
 10
351.517239
 20
702.991635
 30
0.0
 11
351.517239
 21
702.991635
 31
0.0
  0
LINE
  5
123
330
11D
100
AcDbEntity
  8
LC-001-100-D00-0
 62
     7
370
    15
100
AcDbLine
 10
351.517239
 20
702.991635
 30
0.0
 11
351.521511
 21
703.21333
 31
0.0
  0
LINE
  5
124
330
11D
100
AcDbEntity
  8
LC-001-100-D00-0
 62
     7
370
    15
100
AcDbLine
 10
351.521511
 20
703.21333
 30
0.0
 11
351.521511
 21
703.21333
 31
0.0
  0
LINE
  5
125
330
11D
100
AcDbEntity
  8
LC-001-100-D00-0
 62
     7
370
    15
100
AcDbLine
 10
351.521511
 20
703.21333
 30
0.0
 11
351.554502
 21
703.509414
 31
0.0
  0
LINE
  5
126
330
11D
100
AcDbEntity
  8
LC-001-100-D00-0
 62
     7
370
    15
100
AcDbLine
 10
351.554502
 20
703.509414
 30
0.0
 11
351.554502
 21
703.509414
 31
0.0
  0
LINE
  5
127
330
11D
100
AcDbEntity
  8
LC-001-100-D00-0
 62
     7
370
    15
100
AcDbLine
 10
351.554502
 20
703.509414
 30
0.0
 11
351.602427
 21
703.735757
 31
0.0
  0
LINE
  5
128
330
11D
100
AcDbEntity
  8
LC-001-100-D00-0
 62
     7
370
    15
100
AcDbLine
 10
351.602427
 20
703.735757
 30
0.0
 11
351.602427
 21
703.735757
 31
0.0
  0
LINE
  5
129
330
11D
100
AcDbEntity
  8
LC-001-100-D00-0
 62
     7
370
    15
100
AcDbLine
 10
351.602427
 20
703.735757
 30
0.0
 11
351.655931
 21
703.861663
 31
0.0
  0
LINE
  5
12A
330
11D
100
AcDbEntity
  8
LC-001-100-D00-0
 62
     7
370
    15
100
AcDbLine
 10
351.655931
 20
703.861663
 30
0.0
 11
351.655931
 21
703.861663
 31
0.0
  0
LINE
  5
12B
330
11D
100
AcDbEntity
  8
LC-001-100-D00-0
 62
     7
370
    15
100
AcDbLine
 10
351.655931
 20
703.861663
 30
0.0
 11
351.691155
 21
703.875154
 31
0.0
  0
LINE
  5
12C
330
11D
100
AcDbEntity
  8
LC-001-100-D00-0
 62
     7
370
    15
100
AcDbLine
 10
351.691155
 20
703.875154
 30
0.0
 11
351.691155
 21
703.875154
 31
0.0
  0
LINE
  5
12D
330
11D
100
AcDbEntity
  8
LC-001-100-D00-0
 62
     7
370
    15
100
AcDbLine
 10
351.691155
 20
703.875154
 30
0.0
 11
351.705807
 21
703.880765
 31
0.0
  0
ENDBLK
  5
11F
330
11D
100
AcDbEntity
  8
0
100
AcDbBlockEnd
  0
BLOCK
  5
130
330
12F
100
AcDbEntity
  8
0
100
AcDbBlockBegin
  2
POLY6
 70
     0
 71
     0
 10
0.0
 20
0.0
 30
0.0
  3
POLY6
  1

  4
POLY6
  0
LINE
  5
132
330
12F
100
AcDbEntity
  8
LC-001-100-D00-0
 62
     7
370
    15
100
AcDbLine
 10
294.669233
 20
703.880765
 30
0.0
 11
294.669233
 21
703.880765
 31
0.0
  0
LINE
  5
133
330
12F
100
AcDbEntity
  8
LC-001-100-D00-0
 62
     7
370
    15
100
AcDbLine
 10
294.669233
 20
703.880765
 30
0.0
 11
294.783218
 21
703.869409
 31
0.0
  0
LINE
  5
134
330
12F
100
AcDbEntity
  8
LC-001-100-D00-0
 62
     7
370
    15
100
AcDbLine
 10
294.783218
 20
703.869409
 30
0.0
 11
294.783218
 21
703.869409
 31
0.0
  0
LINE
  5
135
330
12F
100
AcDbEntity
  8
LC-001-100-D00-0
 62
     7
370
    15
100
AcDbLine
 10
294.783218
 20
703.869409
 30
0.0
 11
295.011212
 21
703.846693
 31
0.0
  0
LINE
  5
136
330
12F
100
AcDbEntity
  8
LC-001-100-D00-0
 62
     7
370
    15
100
AcDbLine
 10
295.011212
 20
703.846693
 30
0.0
 11
295.011212
 21
703.846693
 31
0.0
  0
LINE
  5
137
330
12F
100
AcDbEntity
  8
LC-001-100-D00-0
 62
     7
370
    15
100
AcDbLine
 10
295.011212
 20
703.846693
 30
0.0
 11
295.314232
 21
703.669477
 31
0.0
  0
LINE
  5
138
330
12F
100
AcDbEntity
  8
LC-001-100-D00-0
 62
     7
370
    15
100
AcDbLine
 10
295.314232
 20
703.669477
 30
0.0
 11
295.314232
 21
703.669477
 31
0.0
  0
LINE
  5
139
330
12F
100
AcDbEntity
  8
LC-001-100-D00-0
 62
     7
370
    15
100
AcDbLine
 10
295.314232
 20
703.669477
 30
0.0
 11
295.540208
 21
703.40952
 31
0.0
  0
LINE
  5
13A
330
12F
100
AcDbEntity
  8
LC-001-100-D00-0
 62
     7
370
    15
100
AcDbLine
 10
295.540208
 20
703.40952
 30
0.0
 11
295.540208
 21
703.40952
 31
0.0
  0
LINE
  5
13B
330
12F
100
AcDbEntity
  8
LC-001-100-D00-0
 62
     7
370
    15
100
AcDbLine
 10
295.540208
 20
703.40952
 30
0.0
 11
295.654117
 21
703.129228
 31
0.0
  0
LINE
  5
13C
330
12F
100
AcDbEntity
  8
LC-001-100-D00-0
 62
     7
370
    15
100
AcDbLine
 10
295.654117
 20
703.129228
 30
0.0
 11
295.654117
 21
703.129228
 31
0.0
  0
LINE
  5
13D
330
12F
100
AcDbEntity
  8
LC-001-100-D00-0
 62
     7
370
    15
100
AcDbLine
 10
295.654117
 20
703.129228
 30
0.0
 11
295.665106
 21
702.948588
 31
0.0
  0
LINE
  5
13E
330
12F
100
AcDbEntity
  8
LC-001-100-D00-0
 62
     7
370
    15
100
AcDbLine
 10
295.665106
 20
702.948588
 30
0.0
 11
295.665106
 21
702.948588
 31
0.0
  0
LINE
  5
13F
330
12F
100
AcDbEntity
  8
LC-001-100-D00-0
 62
     7
370
    15
100
AcDbLine
 10
295.665106
 20
702.948588
 30
0.0
 11
295.669232
 21
702.880771
 31
0.0
  0
ENDBLK
  5
131
330
12F
100
AcDbEntity
  8
0
100
AcDbBlockEnd
  0
BLOCK
  5
180
330
17F
100
AcDbEntity
  8
0
100
AcDbBlockBegin
  2
POLY7
 70
     0
 71
     0
 10
0.0
 20
0.0
 30
0.0
  3
POLY7
  1

  4
POLY7
  0
LINE
  5
182
330
17F
100
AcDbEntity
  8
LC-001-100-D00-0
 62
     7
370
    15
100
AcDbLine
 10
293.669232
 20
702.880771
 30
0.0
 11
293.669232
 21
702.880771
 31
0.0
  0
LINE
  5
183
330
17F
100
AcDbEntity
  8
LC-001-100-D00-0
 62
     7
370
    15
100
AcDbLine
 10
293.669232
 20
702.880771
 30
0.0
 11
293.680066
 21
702.992005
 31
0.0
  0
LINE
  5
184
330
17F
100
AcDbEntity
  8
LC-001-100-D00-0
 62
     7
370
    15
100
AcDbLine
 10
293.680066
 20
702.992005
 30
0.0
 11
293.680066
 21
702.992005
 31
0.0
  0
LINE
  5
185
330
17F
100
AcDbEntity
  8
LC-001-100-D00-0
 62
     7
370
    15
100
AcDbLine
 10
293.680066
 20
702.992005
 30
0.0
 11
293.701731
 21
703.214452
 31
0.0
  0
LINE
  5
186
330
17F
100
AcDbEntity
  8
LC-001-100-D00-0
 62
     7
370
    15
100
AcDbLine
 10
293.701731
 20
703.214452
 30
0.0
 11
293.701731
 21
703.214452
 31
0.0
  0
LINE
  5
187
330
17F
100
AcDbEntity
  8
LC-001-100-D00-0
 62
     7
370
    15
100
AcDbLine
 10
293.701731
 20
703.214452
 30
0.0
 11
293.870375
 21
703.511338
 31
0.0
  0
LINE
  5
188
330
17F
100
AcDbEntity
  8
LC-001-100-D00-0
 62
     7
370
    15
100
AcDbLine
 10
293.870375
 20
703.511338
 30
0.0
 11
293.870375
 21
703.511338
 31
0.0
  0
LINE
  5
189
330
17F
100
AcDbEntity
  8
LC-001-100-D00-0
 62
     7
370
    15
100
AcDbLine
 10
293.870375
 20
703.511338
 30
0.0
 11
294.119102
 21
703.737439
 31
0.0
  0
LINE
  5
18A
330
17F
100
AcDbEntity
  8
LC-001-100-D00-0
 62
     7
370
    15
100
AcDbLine
 10
294.119102
 20
703.737439
 30
0.0
 11
294.119102
 21
703.737439
 31
0.0
  0
LINE
  5
18B
330
17F
100
AcDbEntity
  8
LC-001-100-D00-0
 62
     7
370
    15
100
AcDbLine
 10
294.119102
 20
703.737439
 30
0.0
 11
294.400918
 21
703.862049
 31
0.0
  0
LINE
  5
18C
330
17F
100
AcDbEntity
  8
LC-001-100-D00-0
 62
     7
370
    15
100
AcDbLine
 10
294.400918
 20
703.862049
 30
0.0
 11
294.400918
 21
703.862049
 31
0.0
  0
LINE
  5
18D
330
17F
100
AcDbEntity
  8
LC-001-100-D00-0
 62
     7
370
    15
100
AcDbLine
 10
294.400918
 20
703.862049
 30
0.0
 11
294.590676
 21
703.875286
 31
0.0
  0
LINE
  5
18E
330
17F
100
AcDbEntity
  8
LC-001-100-D00-0
 62
     7
370
    15
100
AcDbLine
 10
294.590676
 20
703.875286
 30
0.0
 11
294.590676
 21
703.875286
 31
0.0
  0
LINE
  5
18F
330
17F
100
AcDbEntity
  8
LC-001-100-D00-0
 62
     7
370
    15
100
AcDbLine
 10
294.590676
 20
703.875286
 30
0.0
 11
294.669233
 21
703.880765
 31
0.0
  0
ENDBLK
  5
181
330
17F
100
AcDbEntity
  8
0
100
AcDbBlockEnd
  0
BLOCK
  5
195
330
194
100
AcDbEntity
  8
0
100
AcDbBlockBegin
  2
POLY8
 70
     0
 71
     0
 10
0.0
 20
0.0
 30
0.0
  3
POLY8
  1

  4
POLY8
  0
LINE
  5
197
330
194
100
AcDbEntity
  8
LC-001-100-D00-0
 62
     7
370
    15
100
AcDbLine
 10
269.069153
 20
703.880765
 30
0.0
 11
269.069153
 21
703.880765
 31
0.0
  0
LINE
  5
198
330
194
100
AcDbEntity
  8
LC-001-100-D00-0
 62
     7
370
    15
100
AcDbLine
 10
269.069153
 20
703.880765
 30
0.0
 11
269.182825
 21
703.869486
 31
0.0
  0
LINE
  5
199
330
194
100
AcDbEntity
  8
LC-001-100-D00-0
 62
     7
370
    15
100
AcDbLine
 10
269.182825
 20
703.869486
 30
0.0
 11
269.182825
 21
703.869486
 31
0.0
  0
LINE
  5
19A
330
194
100
AcDbEntity
  8
LC-001-100-D00-0
 62
     7
370
    15
100
AcDbLine
 10
269.182825
 20
703.869486
 30
0.0
 11
269.410207
 21
703.846923
 31
0.0
  0
LINE
  5
19B
330
194
100
AcDbEntity
  8
LC-001-100-D00-0
 62
     7
370
    15
100
AcDbLine
 10
269.410207
 20
703.846923
 30
0.0
 11
269.410207
 21
703.846923
 31
0.0
  0
LINE
  5
19C
330
194
100
AcDbEntity
  8
LC-001-100-D00-0
 62
     7
370
    15
100
AcDbLine
 10
269.410207
 20
703.846923
 30
0.0
 11
269.712939
 21
703.670382
 31
0.0
  0
LINE
  5
19D
330
194
100
AcDbEntity
  8
LC-001-100-D00-0
 62
     7
370
    15
100
AcDbLine
 10
269.712939
 20
703.670382
 30
0.0
 11
269.712939
 21
703.670382
 31
0.0
  0
LINE
  5
19E
330
194
100
AcDbEntity
  8
LC-001-100-D00-0
 62
     7
370
    15
100
AcDbLine
 10
269.712939
 20
703.670382
 30
0.0
 11
269.938892
 21
703.411327
 31
0.0
  0
LINE
  5
19F
330
194
100
AcDbEntity
  8
LC-001-100-D00-0
 62
     7
370
    15
100
AcDbLine
 10
269.938892
 20
703.411327
 30
0.0
 11
269.938892
 21
703.411327
 31
0.0
  0
LINE
  5
1A0
330
194
100
AcDbEntity
  8
LC-001-100-D00-0
 62
     7
370
    15
100
AcDbLine
 10
269.938892
 20
703.411327
 30
0.0
 11
270.053704
 21
703.13106
 31
0.0
  0
LINE
  5
1A1
330
194
100
AcDbEntity
  8
LC-001-100-D00-0
 62
     7
370
    15
100
AcDbLine
 10
270.053704
 20
703.13106
 30
0.0
 11
270.053704
 21
703.13106
 31
0.0
  0
LINE
  5
1A2
330
194
100
AcDbEntity
  8
LC-001-100-D00-0
 62
     7
370
    15
100
AcDbLine
 10
270.053704
 20
703.13106
 30
0.0
 11
270.064901
 21
702.949664
 31
0.0
  0
LINE
  5
1A3
330
194
100
AcDbEntity
  8
LC-001-100-D00-0
 62
     7
370
    15
100
AcDbLine
 10
270.064901
 20
702.949664
 30
0.0
 11
270.064901
 21
702.949664
 31
0.0
  0
LINE
  5
1A4
330
194
100
AcDbEntity
  8
LC-001-100-D00-0
 62
     7
370
    15
100
AcDbLine
 10
270.064901
 20
702.949664
 30
0.0
 11
270.069153
 21
702.880771
 31
0.0
  0
ENDBLK
  5
196
330
194
100
AcDbEntity
  8
0
100
AcDbBlockEnd
  0
BLOCK
  5
262
330
261
100
AcDbEntity
  8
0
100
AcDbBlockBegin
  2
POLY9
 70
     0
 71
     0
 10
0.0
 20
0.0
 30
0.0
  3
POLY9
  1

  4
POLY9
  0
LINE
  5
264
330
261
100
AcDbEntity
  8
LC-001-100-D00-0
 62
     7
370
    15
100
AcDbLine
 10
269.151765
 20
692.081221
 30
0.0
 11
269.151765
 21
692.081221
 31
0.0
  0
LINE
  5
265
330
261
100
AcDbEntity
  8
LC-001-100-D00-0
 62
     7
370
    15
100
AcDbLine
 10
269.151765
 20
692.081221
 30
0.0
 11
269.144805
 21
692.077025
 31
0.0
  0
LINE
  5
266
330
261
100
AcDbEntity
  8
LC-001-100-D00-0
 62
     7
370
    15
100
AcDbLine
 10
269.144805
 20
692.077025
 30
0.0
 11
269.144805
 21
692.077025
 31
0.0
  0
LINE
  5
267
330
261
100
AcDbEntity
  8
LC-001-100-D00-0
 62
     7
370
    15
100
AcDbLine
 10
269.144805
 20
692.077025
 30
0.0
 11
269.129441
 21
692.067761
 31
0.0
  0
LINE
  5
268
330
261
100
AcDbEntity
  8
LC-001-100-D00-0
 62
     7
370
    15
100
AcDbLine
 10
269.129441
 20
692.067761
 30
0.0
 11
269.129441
 21
692.067761
 31
0.0
  0
LINE
  5
269
330
261
100
AcDbEntity
  8
LC-001-100-D00-0
 62
     7
370
    15
100
AcDbLine
 10
269.129441
 20
692.067761
 30
0.0
 11
269.112916
 21
692.045215
 31
0.0
  0
LINE
  5
26A
330
261
100
AcDbEntity
  8
LC-001-100-D00-0
 62
     7
370
    15
100
AcDbLine
 10
269.112916
 20
692.045215
 30
0.0
 11
269.112916
 21
692.045215
 31
0.0
  0
LINE
  5
26B
330
261
100
AcDbEntity
  8
LC-001-100-D00-0
 62
     7
370
    15
100
AcDbLine
 10
269.112916
 20
692.045215
 30
0.0
 11
269.103855
 21
692.016184
 31
0.0
  0
LINE
  5
26C
330
261
100
AcDbEntity
  8
LC-001-100-D00-0
 62
     7
370
    15
100
AcDbLine
 10
269.103855
 20
692.016184
 30
0.0
 11
269.103855
 21
692.016184
 31
0.0
  0
LINE
  5
26D
330
261
100
AcDbEntity
  8
LC-001-100-D00-0
 62
     7
370
    15
100
AcDbLine
 10
269.103855
 20
692.016184
 30
0.0
 11
269.105593
 21
691.989704
 31
0.0
  0
LINE
  5
26E
330
261
100
AcDbEntity
  8
LC-001-100-D00-0
 62
     7
370
    15
100
AcDbLine
 10
269.105593
 20
691.989704
 30
0.0
 11
269.105593
 21
691.989704
 31
0.0
  0
LINE
  5
26F
330
261
100
AcDbEntity
  8
LC-001-100-D00-0
 62
     7
370
    15
100
AcDbLine
 10
269.105593
 20
691.989704
 30
0.0
 11
269.111879
 21
691.974905
 31
0.0
  0
LINE
  5
270
330
261
100
AcDbEntity
  8
LC-001-100-D00-0
 62
     7
370
    15
100
AcDbLine
 10
269.111879
 20
691.974905
 30
0.0
 11
269.111879
 21
691.974905
 31
0.0
  0
LINE
  5
271
330
261
100
AcDbEntity
  8
LC-001-100-D00-0
 62
     7
370
    15
100
AcDbLine
 10
269.111879
 20
691.974905
 30
0.0
 11
269.11369
 21
691.97064
 31
0.0
  0
ENDBLK
  5
263
330
261
100
AcDbEntity
  8
0
100
AcDbBlockEnd
  0
BLOCK
  5
276
330
275
100
AcDbEntity
  8
0
100
AcDbBlockBegin
  2
POLY10
 70
     0
 71
     0
 10
0.0
 20
0.0
 30
0.0
  3
POLY10
  1

  4
POLY10
  0
LINE
  5
278
330
275
100
AcDbEntity
  8
LC-001-100-D00-0
 62
     7
370
    15
100
AcDbLine
 10
268.933763
 20
692.156286
 30
0.0
 11
268.933763
 21
692.156286
 31
0.0
  0
LINE
  5
279
330
275
100
AcDbEntity
  8
LC-001-100-D00-0
 62
     7
370
    15
100
AcDbLine
 10
268.933763
 20
692.156286
 30
0.0
 11
268.926791
 21
692.152083
 31
0.0
  0
LINE
  5
27A
330
275
100
AcDbEntity
  8
LC-001-100-D00-0
 62
     7
370
    15
100
AcDbLine
 10
268.926791
 20
692.152083
 30
0.0
 11
268.926791
 21
692.152083
 31
0.0
  0
LINE
  5
27B
330
275
100
AcDbEntity
  8
LC-001-100-D00-0
 62
     7
370
    15
100
AcDbLine
 10
268.926791
 20
692.152083
 30
0.0
 11
268.911407
 21
692.142809
 31
0.0
  0
LINE
  5
27C
330
275
100
AcDbEntity
  8
LC-001-100-D00-0
 62
     7
370
    15
100
AcDbLine
 10
268.911407
 20
692.142809
 30
0.0
 11
268.911407
 21
692.142809
 31
0.0
  0
LINE
  5
27D
330
275
100
AcDbEntity
  8
LC-001-100-D00-0
 62
     7
370
    15
100
AcDbLine
 10
268.911407
 20
692.142809
 30
0.0
 11
268.894872
 21
692.120211
 31
0.0
  0
LINE
  5
27E
330
275
100
AcDbEntity
  8
LC-001-100-D00-0
 62
     7
370
    15
100
AcDbLine
 10
268.894872
 20
692.120211
 30
0.0
 11
268.894872
 21
692.120211
 31
0.0
  0
LINE
  5
27F
330
275
100
AcDbEntity
  8
LC-001-100-D00-0
 62
     7
370
    15
100
AcDbLine
 10
268.894872
 20
692.120211
 30
0.0
 11
268.885833
 21
692.091127
 31
0.0
  0
LINE
  5
280
330
275
100
AcDbEntity
  8
LC-001-100-D00-0
 62
     7
370
    15
100
AcDbLine
 10
268.885833
 20
692.091127
 30
0.0
 11
268.885833
 21
692.091127
 31
0.0
  0
LINE
  5
281
330
275
100
AcDbEntity
  8
LC-001-100-D00-0
 62
     7
370
    15
100
AcDbLine
 10
268.885833
 20
692.091127
 30
0.0
 11
268.887613
 21
692.064675
 31
0.0
  0
LINE
  5
282
330
275
100
AcDbEntity
  8
LC-001-100-D00-0
 62
     7
370
    15
100
AcDbLine
 10
268.887613
 20
692.064675
 30
0.0
 11
268.887613
 21
692.064675
 31
0.0
  0
LINE
  5
283
330
275
100
AcDbEntity
  8
LC-001-100-D00-0
 62
     7
370
    15
100
AcDbLine
 10
268.887613
 20
692.064675
 30
0.0
 11
268.893893
 21
692.049916
 31
0.0
  0
LINE
  5
284
330
275
100
AcDbEntity
  8
LC-001-100-D00-0
 62
     7
370
    15
100
AcDbLine
 10
268.893893
 20
692.049916
 30
0.0
 11
268.893893
 21
692.049916
 31
0.0
  0
LINE
  5
285
330
275
100
AcDbEntity
  8
LC-001-100-D00-0
 62
     7
370
    15
100
AcDbLine
 10
268.893893
 20
692.049916
 30
0.0
 11
268.895684
 21
692.045704
 31
0.0
  0
ENDBLK
  5
277
330
275
100
AcDbEntity
  8
0
100
AcDbBlockEnd
  0
BLOCK
  5
28B
330
28A
100
AcDbEntity
  8
0
100
AcDbBlockBegin
  2
POLY11
 70
     0
 71
     0
 10
0.0
 20
0.0
 30
0.0
  3
POLY11
  1

  4
POLY11
  0
LINE
  5
28D
330
28A
100
AcDbEntity
  8
LC-001-100-D00-0
 62
     7
370
    15
100
AcDbLine
 10
269.62065
 20
691.675038
 30
0.0
 11
269.62065
 21
691.675038
 31
0.0
  0
LINE
  5
28E
330
28A
100
AcDbEntity
  8
LC-001-100-D00-0
 62
     7
370
    15
100
AcDbLine
 10
269.62065
 20
691.675038
 30
0.0
 11
269.618559
 21
691.678856
 31
0.0
  0
LINE
  5
28F
330
28A
100
AcDbEntity
  8
LC-001-100-D00-0
 62
     7
370
    15
100
AcDbLine
 10
269.618559
 20
691.678856
 30
0.0
 11
269.618559
 21
691.678856
 31
0.0
  0
LINE
  5
290
330
28A
100
AcDbEntity
  8
LC-001-100-D00-0
 62
     7
370
    15
100
AcDbLine
 10
269.618559
 20
691.678856
 30
0.0
 11
269.612577
 21
691.68978
 31
0.0
  0
LINE
  5
291
330
28A
100
AcDbEntity
  8
LC-001-100-D00-0
 62
     7
370
    15
100
AcDbLine
 10
269.612577
 20
691.68978
 30
0.0
 11
269.612577
 21
691.68978
 31
0.0
  0
LINE
  5
292
330
28A
100
AcDbEntity
  8
LC-001-100-D00-0
 62
     7
370
    15
100
AcDbLine
 10
269.612577
 20
691.68978
 30
0.0
 11
269.597264
 21
691.705481
 31
0.0
  0
LINE
  5
293
330
28A
100
AcDbEntity
  8
LC-001-100-D00-0
 62
     7
370
    15
100
AcDbLine
 10
269.597264
 20
691.705481
 30
0.0
 11
269.597264
 21
691.705481
 31
0.0
  0
LINE
  5
294
330
28A
100
AcDbEntity
  8
LC-001-100-D00-0
 62
     7
370
    15
100
AcDbLine
 10
269.597264
 20
691.705481
 30
0.0
 11
269.574256
 21
691.717707
 31
0.0
  0
LINE
  5
295
330
28A
100
AcDbEntity
  8
LC-001-100-D00-0
 62
     7
370
    15
100
AcDbLine
 10
269.574256
 20
691.717707
 30
0.0
 11
269.574256
 21
691.717707
 31
0.0
  0
LINE
  5
296
330
28A
100
AcDbEntity
  8
LC-001-100-D00-0
 62
     7
370
    15
100
AcDbLine
 10
269.574256
 20
691.717707
 30
0.0
 11
269.549404
 21
691.721948
 31
0.0
  0
LINE
  5
297
330
28A
100
AcDbEntity
  8
LC-001-100-D00-0
 62
     7
370
    15
100
AcDbLine
 10
269.549404
 20
691.721948
 30
0.0
 11
269.549404
 21
691.721948
 31
0.0
  0
LINE
  5
298
330
28A
100
AcDbEntity
  8
LC-001-100-D00-0
 62
     7
370
    15
100
AcDbLine
 10
269.549404
 20
691.721948
 30
0.0
 11
269.525531
 21
691.719014
 31
0.0
  0
LINE
  5
299
330
28A
100
AcDbEntity
  8
LC-001-100-D00-0
 62
     7
370
    15
100
AcDbLine
 10
269.525531
 20
691.719014
 30
0.0
 11
269.525531
 21
691.719014
 31
0.0
  0
LINE
  5
29A
330
28A
100
AcDbEntity
  8
LC-001-100-D00-0
 62
     7
370
    15
100
AcDbLine
 10
269.525531
 20
691.719014
 30
0.0
 11
269.503139
 21
691.709244
 31
0.0
  0
LINE
  5
29B
330
28A
100
AcDbEntity
  8
LC-001-100-D00-0
 62
     7
370
    15
100
AcDbLine
 10
269.503139
 20
691.709244
 30
0.0
 11
269.503139
 21
691.709244
 31
0.0
  0
LINE
  5
29C
330
28A
100
AcDbEntity
  8
LC-001-100-D00-0
 62
     7
370
    15
100
AcDbLine
 10
269.503139
 20
691.709244
 30
0.0
 11
269.483414
 21
691.692193
 31
0.0
  0
LINE
  5
29D
330
28A
100
AcDbEntity
  8
LC-001-100-D00-0
 62
     7
370
    15
100
AcDbLine
 10
269.483414
 20
691.692193
 30
0.0
 11
269.483414
 21
691.692193
 31
0.0
  0
LINE
  5
29E
330
28A
100
AcDbEntity
  8
LC-001-100-D00-0
 62
     7
370
    15
100
AcDbLine
 10
269.483414
 20
691.692193
 30
0.0
 11
269.469039
 21
691.667636
 31
0.0
  0
LINE
  5
29F
330
28A
100
AcDbEntity
  8
LC-001-100-D00-0
 62
     7
370
    15
100
AcDbLine
 10
269.469039
 20
691.667636
 30
0.0
 11
269.469039
 21
691.667636
 31
0.0
  0
LINE
  5
2A0
330
28A
100
AcDbEntity
  8
LC-001-100-D00-0
 62
     7
370
    15
100
AcDbLine
 10
269.469039
 20
691.667636
 30
0.0
 11
269.463809
 21
691.637299
 31
0.0
  0
LINE
  5
2A1
330
28A
100
AcDbEntity
  8
LC-001-100-D00-0
 62
     7
370
    15
100
AcDbLine
 10
269.463809
 20
691.637299
 30
0.0
 11
269.463809
 21
691.637299
 31
0.0
  0
LINE
  5
2A2
330
28A
100
AcDbEntity
  8
LC-001-100-D00-0
 62
     7
370
    15
100
AcDbLine
 10
269.463809
 20
691.637299
 30
0.0
 11
269.46867
 21
691.614961
 31
0.0
  0
LINE
  5
2A3
330
28A
100
AcDbEntity
  8
LC-001-100-D00-0
 62
     7
370
    15
100
AcDbLine
 10
269.46867
 20
691.614961
 30
0.0
 11
269.46867
 21
691.614961
 31
0.0
  0
LINE
  5
2A4
330
28A
100
AcDbEntity
  8
LC-001-100-D00-0
 62
     7
370
    15
100
AcDbLine
 10
269.46867
 20
691.614961
 30
0.0
 11
269.473824
 21
691.604175
 31
0.0
  0
LINE
  5
2A5
330
28A
100
AcDbEntity
  8
LC-001-100-D00-0
 62
     7
370
    15
100
AcDbLine
 10
269.473824
 20
691.604175
 30
0.0
 11
269.473824
 21
691.604175
 31
0.0
  0
LINE
  5
2A6
330
28A
100
AcDbEntity
  8
LC-001-100-D00-0
 62
     7
370
    15
100
AcDbLine
 10
269.473824
 20
691.604175
 30
0.0
 11
269.474116
 21
691.603564
 31
0.0
  0
ENDBLK
  5
28C
330
28A
100
AcDbEntity
  8
0
100
AcDbBlockEnd
  0
BLOCK
  5
2AD
330
2AC
100
AcDbEntity
  8
0
100
AcDbBlockBegin
  2
POLY12
 70
     0
 71
     0
 10
0.0
 20
0.0
 30
0.0
  3
POLY12
  1

  4
POLY12
  0
LINE
  5
2AF
330
2AC
100
AcDbEntity
  8
LC-001-100-D00-0
 62
     7
370
    15
100
AcDbLine
 10
269.661777
 20
692.148574
 30
0.0
 11
269.661777
 21
692.148574
 31
0.0
  0
LINE
  5
2B0
330
2AC
100
AcDbEntity
  8
LC-001-100-D00-0
 62
     7
370
    15
100
AcDbLine
 10
269.661777
 20
692.148574
 30
0.0
 11
269.659897
 21
692.1476
 31
0.0
  0
LINE
  5
2B1
330
2AC
100
AcDbEntity
  8
LC-001-100-D00-0
 62
     7
370
    15
100
AcDbLine
 10
269.659897
 20
692.1476
 30
0.0
 11
269.659897
 21
692.1476
 31
0.0
  0
LINE
  5
2B2
330
2AC
100
AcDbEntity
  8
LC-001-100-D00-0
 62
     7
370
    15
100
AcDbLine
 10
269.659897
 20
692.1476
 30
0.0
 11
269.650281
 21
692.142617
 31
0.0
  0
LINE
  5
2B3
330
2AC
100
AcDbEntity
  8
LC-001-100-D00-0
 62
     7
370
    15
100
AcDbLine
 10
269.650281
 20
692.142617
 30
0.0
 11
269.650281
 21
692.142617
 31
0.0
  0
LINE
  5
2B4
330
2AC
100
AcDbEntity
  8
LC-001-100-D00-0
 62
     7
370
    15
100
AcDbLine
 10
269.650281
 20
692.142617
 30
0.0
 11
269.634643
 21
692.129406
 31
0.0
  0
LINE
  5
2B5
330
2AC
100
AcDbEntity
  8
LC-001-100-D00-0
 62
     7
370
    15
100
AcDbLine
 10
269.634643
 20
692.129406
 30
0.0
 11
269.634643
 21
692.129406
 31
0.0
  0
LINE
  5
2B6
330
2AC
100
AcDbEntity
  8
LC-001-100-D00-0
 62
     7
370
    15
100
AcDbLine
 10
269.634643
 20
692.129406
 30
0.0
 11
269.619831
 21
692.105374
 31
0.0
  0
LINE
  5
2B7
330
2AC
100
AcDbEntity
  8
LC-001-100-D00-0
 62
     7
370
    15
100
AcDbLine
 10
269.619831
 20
692.105374
 30
0.0
 11
269.619831
 21
692.105374
 31
0.0
  0
LINE
  5
2B8
330
2AC
100
AcDbEntity
  8
LC-001-100-D00-0
 62
     7
370
    15
100
AcDbLine
 10
269.619831
 20
692.105374
 30
0.0
 11
269.613927
 21
692.075277
 31
0.0
  0
LINE
  5
2B9
330
2AC
100
AcDbEntity
  8
LC-001-100-D00-0
 62
     7
370
    15
100
AcDbLine
 10
269.613927
 20
692.075277
 30
0.0
 11
269.613927
 21
692.075277
 31
0.0
  0
LINE
  5
2BA
330
2AC
100
AcDbEntity
  8
LC-001-100-D00-0
 62
     7
370
    15
100
AcDbLine
 10
269.613927
 20
692.075277
 30
0.0
 11
269.619757
 21
692.045191
 31
0.0
  0
LINE
  5
2BB
330
2AC
100
AcDbEntity
  8
LC-001-100-D00-0
 62
     7
370
    15
100
AcDbLine
 10
269.619757
 20
692.045191
 30
0.0
 11
269.619757
 21
692.045191
 31
0.0
  0
LINE
  5
2BC
330
2AC
100
AcDbEntity
  8
LC-001-100-D00-0
 62
     7
370
    15
100
AcDbLine
 10
269.619757
 20
692.045191
 30
0.0
 11
269.635631
 21
692.019826
 31
0.0
  0
LINE
  5
2BD
330
2AC
100
AcDbEntity
  8
LC-001-100-D00-0
 62
     7
370
    15
100
AcDbLine
 10
269.635631
 20
692.019826
 30
0.0
 11
269.635631
 21
692.019826
 31
0.0
  0
LINE
  5
2BE
330
2AC
100
AcDbEntity
  8
LC-001-100-D00-0
 62
     7
370
    15
100
AcDbLine
 10
269.635631
 20
692.019826
 30
0.0
 11
269.657429
 21
692.002551
 31
0.0
  0
LINE
  5
2BF
330
2AC
100
AcDbEntity
  8
LC-001-100-D00-0
 62
     7
370
    15
100
AcDbLine
 10
269.657429
 20
692.002551
 30
0.0
 11
269.657429
 21
692.002551
 31
0.0
  0
LINE
  5
2C0
330
2AC
100
AcDbEntity
  8
LC-001-100-D00-0
 62
     7
370
    15
100
AcDbLine
 10
269.657429
 20
692.002551
 30
0.0
 11
269.682625
 21
691.993877
 31
0.0
  0
LINE
  5
2C1
330
2AC
100
AcDbEntity
  8
LC-001-100-D00-0
 62
     7
370
    15
100
AcDbLine
 10
269.682625
 20
691.993877
 30
0.0
 11
269.682625
 21
691.993877
 31
0.0
  0
LINE
  5
2C2
330
2AC
100
AcDbEntity
  8
LC-001-100-D00-0
 62
     7
370
    15
100
AcDbLine
 10
269.682625
 20
691.993877
 30
0.0
 11
269.707176
 21
691.993242
 31
0.0
  0
LINE
  5
2C3
330
2AC
100
AcDbEntity
  8
LC-001-100-D00-0
 62
     7
370
    15
100
AcDbLine
 10
269.707176
 20
691.993242
 30
0.0
 11
269.707176
 21
691.993242
 31
0.0
  0
LINE
  5
2C4
330
2AC
100
AcDbEntity
  8
LC-001-100-D00-0
 62
     7
370
    15
100
AcDbLine
 10
269.707176
 20
691.993242
 30
0.0
 11
269.723705
 21
691.997593
 31
0.0
  0
LINE
  5
2C5
330
2AC
100
AcDbEntity
  8
LC-001-100-D00-0
 62
     7
370
    15
100
AcDbLine
 10
269.723705
 20
691.997593
 30
0.0
 11
269.723705
 21
691.997593
 31
0.0
  0
LINE
  5
2C6
330
2AC
100
AcDbEntity
  8
LC-001-100-D00-0
 62
     7
370
    15
100
AcDbLine
 10
269.723705
 20
691.997593
 30
0.0
 11
269.731872
 21
692.001402
 31
0.0
  0
LINE
  5
2C7
330
2AC
100
AcDbEntity
  8
LC-001-100-D00-0
 62
     7
370
    15
100
AcDbLine
 10
269.731872
 20
692.001402
 30
0.0
 11
269.731872
 21
692.001402
 31
0.0
  0
LINE
  5
2C8
330
2AC
100
AcDbEntity
  8
LC-001-100-D00-0
 62
     7
370
    15
100
AcDbLine
 10
269.731872
 20
692.001402
 30
0.0
 11
269.733247
 21
692.002044
 31
0.0
  0
ENDBLK
  5
2AE
330
2AC
100
AcDbEntity
  8
0
100
AcDbBlockEnd
  0
BLOCK
  5
2D9
330
2D8
100
AcDbEntity
  8
0
100
AcDbBlockBegin
  2
KLON1
 70
     0
 71
     0
 10
0.0
 20
0.0
 30
0.0
  3
KLON1
  1

  4
KLON1
  0
LINE
  5
2DB
330
2D8
100
AcDbEntity
  8
LC-001-100-D00-0
 62
     7
370
    -2
100
AcDbLine
 10
461.623724
 20
708.580767
 30
0.0
 11
461.869135
 21
708.826179
 31
0.0
  0
LINE
  5
2DC
330
2D8
100
AcDbEntity
  8
LC-001-100-D00-0
 62
     7
370
    -2
100
AcDbLine
 10
457.133596
 20
708.580767
 30
0.0
 11
460.117702
 21
711.564874
 31
0.0
  0
LINE
  5
2DD
330
2D8
100
AcDbEntity
  8
LC-001-100-D00-0
 62
     7
370
    -2
100
AcDbLine
 10
452.643468
 20
708.580767
 30
0.0
 11
455.643468
 21
711.580767
 31
0.0
  0
LINE
  5
2DE
330
2D8
100
AcDbEntity
  8
LC-001-100-D00-0
 62
     7
370
    -2
100
AcDbLine
 10
448.15334
 20
708.580767
 30
0.0
 11
451.15334
 21
711.580767
 31
0.0
  0
ENDBLK
  5
2DA
330
2D8
100
AcDbEntity
  8
0
100
AcDbBlockEnd
  0
BLOCK
  5
2E1
330
2E0
100
AcDbEntity
  8
0
100
AcDbBlockBegin
  2
KLON2
 70
     0
 71
     0
 10
0.0
 20
0.0
 30
0.0
  3
KLON2
  1

  4
KLON2
  0
LINE
  5
2E3
330
2E0
100
AcDbEntity
  8
LC-001-100-D00-0
 62
     7
370
    -2
100
AcDbLine
 10
315.869135
 20
495.474258
 30
0.0
 11
318.964125
 21
498.569247
 31
0.0
  0
LINE
  5
2E4
330
2E0
100
AcDbEntity
  8
LC-001-100-D00-0
 62
     7
370
    -2
100
AcDbLine
 10
315.869135
 20
499.964386
 30
0.0
 11
319.369135
 21
503.464386
 31
0.0
  0
LINE
  5
2E5
330
2E0
100
AcDbEntity
  8
LC-001-100-D00-0
 62
     7
370
    -2
100
AcDbLine
 10
315.869135
 20
504.454514
 30
0.0
 11
319.369135
 21
507.954514
 31
0.0
  0
LINE
  5
2E6
330
2E0
100
AcDbEntity
  8
LC-001-100-D00-0
 62
     7
370
    -2
100
AcDbLine
 10
315.869135
 20
508.944642
 30
0.0
 11
319.369135
 21
512.444642
 31
0.0
  0
LINE
  5
2E7
330
2E0
100
AcDbEntity
  8
LC-001-100-D00-0
 62
     7
370
    -2
100
AcDbLine
 10
315.869135
 20
513.43477
 30
0.0
 11
319.369135
 21
516.93477
 31
0.0
  0
LINE
  5
2E8
330
2E0
100
AcDbEntity
  8
LC-001-100-D00-0
 62
     7
370
    -2
100
AcDbLine
 10
315.869135
 20
517.924898
 30
0.0
 11
319.369135
 21
521.424898
 31
0.0
  0
LINE
  5
2E9
330
2E0
100
AcDbEntity
  8
LC-001-100-D00-0
 62
     7
370
    -2
100
AcDbLine
 10
315.869135
 20
522.415026
 30
0.0
 11
319.369135
 21
525.915026
 31
0.0
  0
LINE
  5
2EA
330
2E0
100
AcDbEntity
  8
LC-001-100-D00-0
 62
     7
370
    -2
100
AcDbLine
 10
315.869135
 20
526.905154
 30
0.0
 11
319.369135
 21
530.405154
 31
0.0
  0
LINE
  5
2EB
330
2E0
100
AcDbEntity
  8
LC-001-100-D00-0
 62
     7
370
    -2
100
AcDbLine
 10
315.869135
 20
531.395282
 30
0.0
 11
319.369135
 21
534.895282
 31
0.0
  0
LINE
  5
2EC
330
2E0
100
AcDbEntity
  8
LC-001-100-D00-0
 62
     7
370
    -2
100
AcDbLine
 10
315.869135
 20
535.88541
 30
0.0
 11
319.369135
 21
539.38541
 31
0.0
  0
LINE
  5
2ED
330
2E0
100
AcDbEntity
  8
LC-001-100-D00-0
 62
     7
370
    -2
100
AcDbLine
 10
315.869135
 20
540.375538
 30
0.0
 11
319.369135
 21
543.875538
 31
0.0
  0
LINE
  5
2EE
330
2E0
100
AcDbEntity
  8
LC-001-100-D00-0
 62
     7
370
    -2
100
AcDbLine
 10
315.869135
 20
544.865666
 30
0.0
 11
319.369135
 21
548.365666
 31
0.0
  0
LINE
  5
2EF
330
2E0
100
AcDbEntity
  8
LC-001-100-D00-0
 62
     7
370
    -2
100
AcDbLine
 10
315.869135
 20
549.355795
 30
0.0
 11
319.369135
 21
552.855795
 31
0.0
  0
LINE
  5
2F0
330
2E0
100
AcDbEntity
  8
LC-001-100-D00-0
 62
     7
370
    -2
100
AcDbLine
 10
315.869135
 20
553.845923
 30
0.0
 11
319.369135
 21
557.345923
 31
0.0
  0
LINE
  5
2F1
330
2E0
100
AcDbEntity
  8
LC-001-100-D00-0
 62
     7
370
    -2
100
AcDbLine
 10
315.869135
 20
558.336051
 30
0.0
 11
319.369135
 21
561.836051
 31
0.0
  0
LINE
  5
2F2
330
2E0
100
AcDbEntity
  8
LC-001-100-D00-0
 62
     7
370
    -2
100
AcDbLine
 10
315.869135
 20
562.826179
 30
0.0
 11
319.369135
 21
566.326179
 31
0.0
  0
LINE
  5
2F3
330
2E0
100
AcDbEntity
  8
LC-001-100-D00-0
 62
     7
370
    -2
100
AcDbLine
 10
315.869135
 20
567.316307
 30
0.0
 11
319.369135
 21
570.816307
 31
0.0
  0
LINE
  5
2F4
330
2E0
100
AcDbEntity
  8
LC-001-100-D00-0
 62
     7
370
    -2
100
AcDbLine
 10
315.869135
 20
571.806435
 30
0.0
 11
319.369135
 21
575.306435
 31
0.0
  0
LINE
  5
2F5
330
2E0
100
AcDbEntity
  8
LC-001-100-D00-0
 62
     7
370
    -2
100
AcDbLine
 10
315.869135
 20
576.296563
 30
0.0
 11
319.369135
 21
579.796563
 31
0.0
  0
LINE
  5
2F6
330
2E0
100
AcDbEntity
  8
LC-001-100-D00-0
 62
     7
370
    -2
100
AcDbLine
 10
315.869135
 20
580.786691
 30
0.0
 11
319.369135
 21
584.286691
 31
0.0
  0
LINE
  5
2F7
330
2E0
100
AcDbEntity
  8
LC-001-100-D00-0
 62
     7
370
    -2
100
AcDbLine
 10
359.663212
 20
624.580767
 30
0.0
 11
361.869135
 21
626.786691
 31
0.0
  0
LINE
  5
2F8
330
2E0
100
AcDbEntity
  8
LC-001-100-D00-0
 62
     7
370
    -2
100
AcDbLine
 10
315.869135
 20
585.276819
 30
0.0
 11
319.369135
 21
588.776819
 31
0.0
  0
LINE
  5
2F9
330
2E0
100
AcDbEntity
  8
LC-001-100-D00-0
 62
     7
370
    -2
100
AcDbLine
 10
358.995784
 20
628.403467
 30
0.0
 11
361.869135
 21
631.276819
 31
0.0
  0
LINE
  5
2FA
330
2E0
100
AcDbEntity
  8
LC-001-100-D00-0
 62
     7
370
    -2
100
AcDbLine
 10
439.173084
 20
708.580767
 30
0.0
 11
439.869135
 21
709.276819
 31
0.0
  0
LINE
  5
2FB
330
2E0
100
AcDbEntity
  8
LC-001-100-D00-0
 62
     7
370
    -2
100
AcDbLine
 10
315.869135
 20
589.766947
 30
0.0
 11
319.369135
 21
593.266947
 31
0.0
  0
LINE
  5
2FC
330
2E0
100
AcDbEntity
  8
LC-001-100-D00-0
 62
     7
370
    -2
100
AcDbLine
 10
358.968521
 20
632.866333
 30
0.0
 11
361.869135
 21
635.766947
 31
0.0
  0
LINE
  5
2FD
330
2E0
100
AcDbEntity
  8
LC-001-100-D00-0
 62
     7
370
    -2
100
AcDbLine
 10
434.682956
 20
708.580767
 30
0.0
 11
437.682956
 21
711.580767
 31
0.0
  0
LINE
  5
2FE
330
2E0
100
AcDbEntity
  8
LC-001-100-D00-0
 62
     7
370
    -2
100
AcDbLine
 10
315.869135
 20
594.257075
 30
0.0
 11
319.369135
 21
597.757075
 31
0.0
  0
LINE
  5
2FF
330
2E0
100
AcDbEntity
  8
LC-001-100-D00-0
 62
     7
370
    -2
100
AcDbLine
 10
346.192828
 20
624.580767
 30
0.0
 11
348.369135
 21
626.757075
 31
0.0
  0
LINE
  5
300
330
2E0
100
AcDbEntity
  8
LC-001-100-D00-0
 62
     7
370
    -2
100
AcDbLine
 10
358.941259
 20
637.329198
 30
0.0
 11
361.869135
 21
640.257075
 31
0.0
  0
LINE
  5
301
330
2E0
100
AcDbEntity
  8
LC-001-100-D00-0
 62
     7
370
    -2
100
AcDbLine
 10
430.192828
 20
708.580767
 30
0.0
 11
433.192828
 21
711.580767
 31
0.0
  0
LINE
  5
302
330
2E0
100
AcDbEntity
  8
LC-001-100-D00-0
 62
     7
370
    -2
100
AcDbLine
 10
315.869135
 20
598.747203
 30
0.0
 11
319.369135
 21
602.247203
 31
0.0
  0
LINE
  5
303
330
2E0
100
AcDbEntity
  8
LC-001-100-D00-0
 62
     7
370
    -2
100
AcDbLine
 10
341.7027
 20
624.580767
 30
0.0
 11
344.7027
 21
627.580767
 31
0.0
  0
LINE
  5
304
330
2E0
100
AcDbEntity
  8
LC-001-100-D00-0
 62
     7
370
    -2
100
AcDbLine
 10
345.369135
 20
628.247203
 30
0.0
 11
348.369135
 21
631.247203
 31
0.0
  0
LINE
  5
305
330
2E0
100
AcDbEntity
  8
LC-001-100-D00-0
 62
     7
370
    -2
100
AcDbLine
 10
358.913996
 20
641.792064
 30
0.0
 11
361.869135
 21
644.747203
 31
0.0
  0
LINE
  5
306
330
2E0
100
AcDbEntity
  8
LC-001-100-D00-0
 62
     7
370
    -2
100
AcDbLine
 10
425.7027
 20
708.580767
 30
0.0
 11
428.7027
 21
711.580767
 31
0.0
  0
LINE
  5
307
330
2E0
100
AcDbEntity
  8
LC-001-100-D00-0
 62
     7
370
    -2
100
AcDbLine
 10
315.869135
 20
603.237331
 30
0.0
 11
319.369135
 21
606.737331
 31
0.0
  0
LINE
  5
308
330
2E0
100
AcDbEntity
  8
LC-001-100-D00-0
 62
     7
370
    -2
100
AcDbLine
 10
337.212571
 20
624.580767
 30
0.0
 11
340.212571
 21
627.580767
 31
0.0
  0
LINE
  5
309
330
2E0
100
AcDbEntity
  8
LC-001-100-D00-0
 62
     7
370
    -2
100
AcDbLine
 10
345.369135
 20
632.737331
 30
0.0
 11
348.369135
 21
635.737331
 31
0.0
  0
LINE
  5
30A
330
2E0
100
AcDbEntity
  8
LC-001-100-D00-0
 62
     7
370
    -2
100
AcDbLine
 10
358.886734
 20
646.25493
 30
0.0
 11
361.869135
 21
649.237331
 31
0.0
  0
LINE
  5
30B
330
2E0
100
AcDbEntity
  8
LC-001-100-D00-0
 62
     7
370
    -2
100
AcDbLine
 10
421.212571
 20
708.580767
 30
0.0
 11
424.212571
 21
711.580767
 31
0.0
  0
LINE
  5
30C
330
2E0
100
AcDbEntity
  8
LC-001-100-D00-0
 62
     7
370
    -2
100
AcDbLine
 10
315.869135
 20
607.727459
 30
0.0
 11
319.369135
 21
611.227459
 31
0.0
  0
LINE
  5
30D
330
2E0
100
AcDbEntity
  8
LC-001-100-D00-0
 62
     7
370
    -2
100
AcDbLine
 10
332.722443
 20
624.580767
 30
0.0
 11
335.722443
 21
627.580767
 31
0.0
  0
LINE
  5
30E
330
2E0
100
AcDbEntity
  8
LC-001-100-D00-0
 62
     7
370
    -2
100
AcDbLine
 10
345.369135
 20
637.227459
 30
0.0
 11
348.369135
 21
640.227459
 31
0.0
  0
LINE
  5
30F
330
2E0
100
AcDbEntity
  8
LC-001-100-D00-0
 62
     7
370
    -2
100
AcDbLine
 10
358.859471
 20
650.717795
 30
0.0
 11
361.869135
 21
653.727459
 31
0.0
  0
LINE
  5
310
330
2E0
100
AcDbEntity
  8
LC-001-100-D00-0
 62
     7
370
    -2
100
AcDbLine
 10
416.722443
 20
708.580767
 30
0.0
 11
419.722443
 21
711.580767
 31
0.0
  0
LINE
  5
311
330
2E0
100
AcDbEntity
  8
LC-001-100-D00-0
 62
     7
370
    -2
100
AcDbLine
 10
315.869135
 20
612.217587
 30
0.0
 11
319.369135
 21
615.717587
 31
0.0
  0
LINE
  5
312
330
2E0
100
AcDbEntity
  8
LC-001-100-D00-0
 62
     7
370
    -2
100
AcDbLine
 10
328.232315
 20
624.580767
 30
0.0
 11
331.232315
 21
627.580767
 31
0.0
  0
LINE
  5
313
330
2E0
100
AcDbEntity
  8
LC-001-100-D00-0
 62
     7
370
    -2
100
AcDbLine
 10
345.369135
 20
641.717587
 30
0.0
 11
348.369135
 21
644.717587
 31
0.0
  0
LINE
  5
314
330
2E0
100
AcDbEntity
  8
LC-001-100-D00-0
 62
     7
370
    -2
100
AcDbLine
 10
358.832209
 20
655.180661
 30
0.0
 11
361.869135
 21
658.217587
 31
0.0
  0
LINE
  5
315
330
2E0
100
AcDbEntity
  8
LC-001-100-D00-0
 62
     7
370
    -2
100
AcDbLine
 10
412.232315
 20
708.580767
 30
0.0
 11
415.232315
 21
711.580767
 31
0.0
  0
LINE
  5
316
330
2E0
100
AcDbEntity
  8
LC-001-100-D00-0
 62
     7
370
    -2
100
AcDbLine
 10
315.869135
 20
616.707715
 30
0.0
 11
319.369135
 21
620.207715
 31
0.0
  0
LINE
  5
317
330
2E0
100
AcDbEntity
  8
LC-001-100-D00-0
 62
     7
370
    -2
100
AcDbLine
 10
323.742187
 20
624.580767
 30
0.0
 11
326.742187
 21
627.580767
 31
0.0
  0
LINE
  5
318
330
2E0
100
AcDbEntity
  8
LC-001-100-D00-0
 62
     7
370
    -2
100
AcDbLine
 10
345.369135
 20
646.207715
 30
0.0
 11
348.369135
 21
649.207715
 31
0.0
  0
LINE
  5
319
330
2E0
100
AcDbEntity
  8
LC-001-100-D00-0
 62
     7
370
    -2
100
AcDbLine
 10
358.804947
 20
659.643527
 30
0.0
 11
361.869135
 21
662.707715
 31
0.0
  0
LINE
  5
31A
330
2E0
100
AcDbEntity
  8
LC-001-100-D00-0
 62
     7
370
    -2
100
AcDbLine
 10
407.742187
 20
708.580767
 30
0.0
 11
410.742187
 21
711.580767
 31
0.0
  0
LINE
  5
31B
330
2E0
100
AcDbEntity
  8
LC-001-100-D00-0
 62
     7
370
    -2
100
AcDbLine
 10
315.869135
 20
621.197844
 30
0.0
 11
322.252059
 21
627.580767
 31
0.0
  0
LINE
  5
31C
330
2E0
100
AcDbEntity
  8
LC-001-100-D00-0
 62
     7
370
    -2
100
AcDbLine
 10
345.369135
 20
650.697844
 30
0.0
 11
348.369135
 21
653.697844
 31
0.0
  0
LINE
  5
31D
330
2E0
100
AcDbEntity
  8
LC-001-100-D00-0
 62
     7
370
    -2
100
AcDbLine
 10
358.777684
 20
664.106392
 30
0.0
 11
361.869135
 21
667.197844
 31
0.0
  0
LINE
  5
31E
330
2E0
100
AcDbEntity
  8
LC-001-100-D00-0
 62
     7
370
    -2
100
AcDbLine
 10
403.252059
 20
708.580767
 30
0.0
 11
406.252059
 21
711.580767
 31
0.0
  0
LINE
  5
31F
330
2E0
100
AcDbEntity
  8
LC-001-100-D00-0
 62
     7
370
    -2
100
AcDbLine
 10
315.869135
 20
625.687972
 30
0.0
 11
317.761931
 21
627.580767
 31
0.0
  0
LINE
  5
320
330
2E0
100
AcDbEntity
  8
LC-001-100-D00-0
 62
     7
370
    -2
100
AcDbLine
 10
345.369135
 20
655.187972
 30
0.0
 11
348.369135
 21
658.187972
 31
0.0
  0
LINE
  5
321
330
2E0
100
AcDbEntity
  8
LC-001-100-D00-0
 62
     7
370
    -2
100
AcDbLine
 10
350.461931
 20
660.280767
 30
0.0
 11
354.169135
 21
663.987972
 31
0.0
  0
LINE
  5
322
330
2E0
100
AcDbEntity
  8
LC-001-100-D00-0
 62
     7
370
    -2
100
AcDbLine
 10
358.750422
 20
668.569258
 30
0.0
 11
361.869135
 21
671.687972
 31
0.0
  0
LINE
  5
323
330
2E0
100
AcDbEntity
  8
LC-001-100-D00-0
 62
     7
370
    -2
100
AcDbLine
 10
398.761931
 20
708.580767
 30
0.0
 11
401.761931
 21
711.580767
 31
0.0
  0
LINE
  5
324
330
2E0
100
AcDbEntity
  8
LC-001-100-D00-0
 62
     7
370
    -2
100
AcDbLine
 10
345.369135
 20
659.6781
 30
0.0
 11
349.471803
 21
663.780767
 31
0.0
  0
LINE
  5
325
330
2E0
100
AcDbEntity
  8
LC-001-100-D00-0
 62
     7
370
    -2
100
AcDbLine
 10
351.369135
 20
665.6781
 30
0.0
 11
354.169135
 21
668.4781
 31
0.0
  0
LINE
  5
326
330
2E0
100
AcDbEntity
  8
LC-001-100-D00-0
 62
     7
370
    -2
100
AcDbLine
 10
358.723159
 20
673.032123
 30
0.0
 11
361.869135
 21
676.1781
 31
0.0
  0
LINE
  5
327
330
2E0
100
AcDbEntity
  8
LC-001-100-D00-0
 62
     7
370
    -2
100
AcDbLine
 10
394.271803
 20
708.580767
 30
0.0
 11
397.271803
 21
711.580767
 31
0.0
  0
LINE
  5
328
330
2E0
100
AcDbEntity
  8
LC-001-100-D00-0
 62
     7
370
    -2
100
AcDbLine
 10
351.369135
 20
670.168228
 30
0.0
 11
354.169135
 21
672.968228
 31
0.0
  0
LINE
  5
329
330
2E0
100
AcDbEntity
  8
LC-001-100-D00-0
 62
     7
370
    -2
100
AcDbLine
 10
355.381675
 20
674.180767
 30
0.0
 11
357.981675
 21
676.780767
 31
0.0
  0
LINE
  5
32A
330
2E0
100
AcDbEntity
  8
LC-001-100-D00-0
 62
     7
370
    -2
100
AcDbLine
 10
358.369135
 20
677.168228
 30
0.0
 11
361.869135
 21
680.668228
 31
0.0
  0
LINE
  5
32B
330
2E0
100
AcDbEntity
  8
LC-001-100-D00-0
 62
     7
370
    -2
100
AcDbLine
 10
389.781675
 20
708.580767
 30
0.0
 11
392.781675
 21
711.580767
 31
0.0
  0
LINE
  5
32C
330
2E0
100
AcDbEntity
  8
LC-001-100-D00-0
 62
     7
370
    -2
100
AcDbLine
 10
351.369135
 20
674.658356
 30
0.0
 11
353.491547
 21
676.780767
 31
0.0
  0
LINE
  5
32D
330
2E0
100
AcDbEntity
  8
LC-001-100-D00-0
 62
     7
370
    -2
100
AcDbLine
 10
358.230341
 20
681.519562
 30
0.0
 11
361.869135
 21
685.158356
 31
0.0
  0
LINE
  5
32E
330
2E0
100
AcDbEntity
  8
LC-001-100-D00-0
 62
     7
370
    -2
100
AcDbLine
 10
385.291547
 20
708.580767
 30
0.0
 11
388.291547
 21
711.580767
 31
0.0
  0
LINE
  5
32F
330
2E0
100
AcDbEntity
  8
LC-001-100-D00-0
 62
     7
370
    -2
100
AcDbLine
 10
357.369135
 20
685.148484
 30
0.0
 11
361.869135
 21
689.648484
 31
0.0
  0
LINE
  5
330
330
2E0
100
AcDbEntity
  8
LC-001-100-D00-0
 62
     7
370
    -2
100
AcDbLine
 10
380.801419
 20
708.580767
 30
0.0
 11
383.801419
 21
711.580767
 31
0.0
  0
LINE
  5
331
330
2E0
100
AcDbEntity
  8
LC-001-100-D00-0
 62
     7
370
    -2
100
AcDbLine
 10
357.8978
 20
690.167277
 30
0.0
 11
363.369135
 21
695.638612
 31
0.0
  0
LINE
  5
332
330
2E0
100
AcDbEntity
  8
LC-001-100-D00-0
 62
     7
370
    -2
100
AcDbLine
 10
376.311291
 20
708.580767
 30
0.0
 11
379.311291
 21
711.580767
 31
0.0
  0
LINE
  5
333
330
2E0
100
AcDbEntity
  8
LC-001-100-D00-0
 62
     7
370
    -2
100
AcDbLine
 10
360.619135
 20
697.37874
 30
0.0
 11
363.369135
 21
700.12874
 31
0.0
  0
LINE
  5
334
330
2E0
100
AcDbEntity
  8
LC-001-100-D00-0
 62
     7
370
    -2
100
AcDbLine
 10
371.821163
 20
708.580767
 30
0.0
 11
374.821163
 21
711.580767
 31
0.0
  0
LINE
  5
335
330
2E0
100
AcDbEntity
  8
LC-001-100-D00-0
 62
     7
370
    -2
100
AcDbLine
 10
360.619135
 20
701.868868
 30
0.0
 11
363.369135
 21
704.618868
 31
0.0
  0
LINE
  5
336
330
2E0
100
AcDbEntity
  8
LC-001-100-D00-0
 62
     7
370
    -2
100
AcDbLine
 10
367.331035
 20
708.580767
 30
0.0
 11
370.331035
 21
711.580767
 31
0.0
  0
LINE
  5
337
330
2E0
100
AcDbEntity
  8
LC-001-100-D00-0
 62
     7
370
    -2
100
AcDbLine
 10
360.619135
 20
706.358996
 30
0.0
 11
365.840907
 21
711.580767
 31
0.0
  0
LINE
  5
338
330
2E0
100
AcDbEntity
  8
LC-001-100-D00-0
 62
     7
370
    -2
100
AcDbLine
 10
360.672199
 20
710.902187
 30
0.0
 11
361.297715
 21
711.527704
 31
0.0
  0
ENDBLK
  5
2E2
330
2E0
100
AcDbEntity
  8
0
100
AcDbBlockEnd
  0
BLOCK
  5
33B
330
33A
100
AcDbEntity
  8
0
100
AcDbBlockBegin
  2
KLON3
 70
     0
 71
     0
 10
0.0
 20
0.0
 30
0.0
  3
KLON3
  1

  4
KLON3
  0
LINE
  5
33D
330
33A
100
AcDbEntity
  8
LC-001-100-D00-0
 62
     7
370
    -2
100
AcDbLine
 10
245.270322
 20
496.717493
 30
0.0
 11
247.869135
 21
499.316307
 31
0.0
  0
LINE
  5
33E
330
33A
100
AcDbEntity
  8
LC-001-100-D00-0
 62
     7
370
    -2
100
AcDbLine
 10
244.369135
 20
500.306435
 30
0.0
 11
247.869135
 21
503.806435
 31
0.0
  0
LINE
  5
33F
330
33A
100
AcDbEntity
  8
LC-001-100-D00-0
 62
     7
370
    -2
100
AcDbLine
 10
244.369135
 20
504.796563
 30
0.0
 11
247.869135
 21
508.296563
 31
0.0
  0
LINE
  5
340
330
33A
100
AcDbEntity
  8
LC-001-100-D00-0
 62
     7
370
    -2
100
AcDbLine
 10
244.369135
 20
509.286691
 30
0.0
 11
247.869135
 21
512.786691
 31
0.0
  0
LINE
  5
341
330
33A
100
AcDbEntity
  8
LC-001-100-D00-0
 62
     7
370
    -2
100
AcDbLine
 10
244.369135
 20
513.776819
 30
0.0
 11
247.869135
 21
517.276819
 31
0.0
  0
LINE
  5
342
330
33A
100
AcDbEntity
  8
LC-001-100-D00-0
 62
     7
370
    -2
100
AcDbLine
 10
244.369135
 20
518.266947
 30
0.0
 11
247.869135
 21
521.766947
 31
0.0
  0
LINE
  5
343
330
33A
100
AcDbEntity
  8
LC-001-100-D00-0
 62
     7
370
    -2
100
AcDbLine
 10
244.369135
 20
522.757075
 30
0.0
 11
247.869135
 21
526.257075
 31
0.0
  0
LINE
  5
344
330
33A
100
AcDbEntity
  8
LC-001-100-D00-0
 62
     7
370
    -2
100
AcDbLine
 10
244.369135
 20
527.247203
 30
0.0
 11
247.869135
 21
530.747203
 31
0.0
  0
LINE
  5
345
330
33A
100
AcDbEntity
  8
LC-001-100-D00-0
 62
     7
370
    -2
100
AcDbLine
 10
244.369135
 20
531.737331
 30
0.0
 11
247.869135
 21
535.237331
 31
0.0
  0
LINE
  5
346
330
33A
100
AcDbEntity
  8
LC-001-100-D00-0
 62
     7
370
    -2
100
AcDbLine
 10
244.369135
 20
536.227459
 30
0.0
 11
247.869135
 21
539.727459
 31
0.0
  0
LINE
  5
347
330
33A
100
AcDbEntity
  8
LC-001-100-D00-0
 62
     7
370
    -2
100
AcDbLine
 10
244.369135
 20
540.717587
 30
0.0
 11
247.869135
 21
544.217587
 31
0.0
  0
LINE
  5
348
330
33A
100
AcDbEntity
  8
LC-001-100-D00-0
 62
     7
370
    -2
100
AcDbLine
 10
244.369135
 20
545.207715
 30
0.0
 11
247.869135
 21
548.707715
 31
0.0
  0
LINE
  5
349
330
33A
100
AcDbEntity
  8
LC-001-100-D00-0
 62
     7
370
    -2
100
AcDbLine
 10
244.369135
 20
549.697844
 30
0.0
 11
247.869135
 21
553.197844
 31
0.0
  0
LINE
  5
34A
330
33A
100
AcDbEntity
  8
LC-001-100-D00-0
 62
     7
370
    -2
100
AcDbLine
 10
244.369135
 20
554.187972
 30
0.0
 11
247.869135
 21
557.687972
 31
0.0
  0
LINE
  5
34B
330
33A
100
AcDbEntity
  8
LC-001-100-D00-0
 62
     7
370
    -2
100
AcDbLine
 10
244.369135
 20
558.6781
 30
0.0
 11
247.869135
 21
562.1781
 31
0.0
  0
LINE
  5
34C
330
33A
100
AcDbEntity
  8
LC-001-100-D00-0
 62
     7
370
    -2
100
AcDbLine
 10
244.369135
 20
563.168228
 30
0.0
 11
247.869135
 21
566.668228
 31
0.0
  0
LINE
  5
34D
330
33A
100
AcDbEntity
  8
LC-001-100-D00-0
 62
     7
370
    -2
100
AcDbLine
 10
244.369135
 20
567.658356
 30
0.0
 11
247.869135
 21
571.158356
 31
0.0
  0
LINE
  5
34E
330
33A
100
AcDbEntity
  8
LC-001-100-D00-0
 62
     7
370
    -2
100
AcDbLine
 10
244.369135
 20
572.148484
 30
0.0
 11
247.869135
 21
575.648484
 31
0.0
  0
LINE
  5
34F
330
33A
100
AcDbEntity
  8
LC-001-100-D00-0
 62
     7
370
    -2
100
AcDbLine
 10
244.369135
 20
576.638612
 30
0.0
 11
247.869135
 21
580.138612
 31
0.0
  0
LINE
  5
350
330
33A
100
AcDbEntity
  8
LC-001-100-D00-0
 62
     7
370
    -2
100
AcDbLine
 10
244.369135
 20
581.12874
 30
0.0
 11
247.869135
 21
584.62874
 31
0.0
  0
LINE
  5
351
330
33A
100
AcDbEntity
  8
LC-001-100-D00-0
 62
     7
370
    -2
100
AcDbLine
 10
244.369135
 20
585.618868
 30
0.0
 11
247.869135
 21
589.118868
 31
0.0
  0
LINE
  5
352
330
33A
100
AcDbEntity
  8
LC-001-100-D00-0
 62
     7
370
    -2
100
AcDbLine
 10
244.369135
 20
590.108996
 30
0.0
 11
247.869135
 21
593.608996
 31
0.0
  0
LINE
  5
353
330
33A
100
AcDbEntity
  8
LC-001-100-D00-0
 62
     7
370
    -2
100
AcDbLine
 10
244.369135
 20
594.599124
 30
0.0
 11
247.869135
 21
598.099124
 31
0.0
  0
LINE
  5
354
330
33A
100
AcDbEntity
  8
LC-001-100-D00-0
 62
     7
370
    -2
100
AcDbLine
 10
244.369135
 20
599.089252
 30
0.0
 11
247.869135
 21
602.589252
 31
0.0
  0
LINE
  5
355
330
33A
100
AcDbEntity
  8
LC-001-100-D00-0
 62
     7
370
    -2
100
AcDbLine
 10
244.369135
 20
603.57938
 30
0.0
 11
247.869135
 21
607.07938
 31
0.0
  0
LINE
  5
356
330
33A
100
AcDbEntity
  8
LC-001-100-D00-0
 62
     7
370
    -2
100
AcDbLine
 10
244.369135
 20
608.069508
 30
0.0
 11
247.869135
 21
611.569508
 31
0.0
  0
LINE
  5
357
330
33A
100
AcDbEntity
  8
LC-001-100-D00-0
 62
     7
370
    -2
100
AcDbLine
 10
244.369135
 20
612.559636
 30
0.0
 11
247.869135
 21
616.059636
 31
0.0
  0
LINE
  5
358
330
33A
100
AcDbEntity
  8
LC-001-100-D00-0
 62
     7
370
    -2
100
AcDbLine
 10
244.369135
 20
617.049764
 30
0.0
 11
247.869135
 21
620.549764
 31
0.0
  0
LINE
  5
359
330
33A
100
AcDbEntity
  8
LC-001-100-D00-0
 62
     7
370
    -2
100
AcDbLine
 10
244.369135
 20
621.539892
 30
0.0
 11
247.869135
 21
625.039892
 31
0.0
  0
LINE
  5
35A
330
33A
100
AcDbEntity
  8
LC-001-100-D00-0
 62
     7
370
    -2
100
AcDbLine
 10
242.85581
 20
624.516695
 30
0.0
 11
245.919882
 21
627.580767
 31
0.0
  0
LINE
  5
35B
330
33A
100
AcDbEntity
  8
LC-001-100-D00-0
 62
     7
370
    -2
100
AcDbLine
 10
238.429754
 20
624.580767
 30
0.0
 11
241.429754
 21
627.580767
 31
0.0
  0
LINE
  5
35C
330
33A
100
AcDbEntity
  8
LC-001-100-D00-0
 62
     7
370
    -2
100
AcDbLine
 10
233.939626
 20
624.580767
 30
0.0
 11
236.939626
 21
627.580767
 31
0.0
  0
LINE
  5
35D
330
33A
100
AcDbEntity
  8
LC-001-100-D00-0
 62
     7
370
    -2
100
AcDbLine
 10
229.449498
 20
624.580767
 30
0.0
 11
232.449498
 21
627.580767
 31
0.0
  0
LINE
  5
35E
330
33A
100
AcDbEntity
  8
LC-001-100-D00-0
 62
     7
370
    -2
100
AcDbLine
 10
224.95937
 20
624.580767
 30
0.0
 11
227.95937
 21
627.580767
 31
0.0
  0
LINE
  5
35F
330
33A
100
AcDbEntity
  8
LC-001-100-D00-0
 62
     7
370
    -2
100
AcDbLine
 10
220.469242
 20
624.580767
 30
0.0
 11
223.469242
 21
627.580767
 31
0.0
  0
LINE
  5
360
330
33A
100
AcDbEntity
  8
LC-001-100-D00-0
 62
     7
370
    -2
100
AcDbLine
 10
215.979114
 20
624.580767
 30
0.0
 11
218.979114
 21
627.580767
 31
0.0
  0
LINE
  5
361
330
33A
100
AcDbEntity
  8
LC-001-100-D00-0
 62
     7
370
    -2
100
AcDbLine
 10
215.369135
 20
628.460917
 30
0.0
 11
218.369135
 21
631.460917
 31
0.0
  0
LINE
  5
362
330
33A
100
AcDbEntity
  8
LC-001-100-D00-0
 62
     7
370
    -2
100
AcDbLine
 10
215.369135
 20
632.951045
 30
0.0
 11
218.369135
 21
635.951045
 31
0.0
  0
LINE
  5
363
330
33A
100
AcDbEntity
  8
LC-001-100-D00-0
 62
     7
370
    -2
100
AcDbLine
 10
202.50873
 20
624.580767
 30
0.0
 11
204.732721
 21
626.804759
 31
0.0
  0
LINE
  5
364
330
33A
100
AcDbEntity
  8
LC-001-100-D00-0
 62
     7
370
    -2
100
AcDbLine
 10
215.369135
 20
637.441173
 30
0.0
 11
218.369135
 21
640.441173
 31
0.0
  0
LINE
  5
365
330
33A
100
AcDbEntity
  8
LC-001-100-D00-0
 62
     7
370
    -2
100
AcDbLine
 10
201.869135
 20
628.431301
 30
0.0
 11
204.760319
 21
631.322484
 31
0.0
  0
LINE
  5
366
330
33A
100
AcDbEntity
  8
LC-001-100-D00-0
 62
     7
370
    -2
100
AcDbLine
 10
215.369135
 20
641.931301
 30
0.0
 11
218.369135
 21
644.931301
 31
0.0
  0
LINE
  5
367
330
33A
100
AcDbEntity
  8
LC-001-100-D00-0
 62
     7
370
    -2
100
AcDbLine
 10
201.869135
 20
632.921429
 30
0.0
 11
204.787916
 21
635.84021
 31
0.0
  0
LINE
  5
368
330
33A
100
AcDbEntity
  8
LC-001-100-D00-0
 62
     7
370
    -2
100
AcDbLine
 10
215.369135
 20
646.421429
 30
0.0
 11
218.369135
 21
649.421429
 31
0.0
  0
LINE
  5
369
330
33A
100
AcDbEntity
  8
LC-001-100-D00-0
 62
     7
370
    -2
100
AcDbLine
 10
201.869135
 20
637.411557
 30
0.0
 11
204.815514
 21
640.357936
 31
0.0
  0
LINE
  5
36A
330
33A
100
AcDbEntity
  8
LC-001-100-D00-0
 62
     7
370
    -2
100
AcDbLine
 10
215.369135
 20
650.911557
 30
0.0
 11
218.369135
 21
653.911557
 31
0.0
  0
LINE
  5
36B
330
33A
100
AcDbEntity
  8
LC-001-100-D00-0
 62
     7
370
    -2
100
AcDbLine
 10
201.869135
 20
641.901685
 30
0.0
 11
204.843111
 21
644.875661
 31
0.0
  0
LINE
  5
36C
330
33A
100
AcDbEntity
  8
LC-001-100-D00-0
 62
     7
370
    -2
100
AcDbLine
 10
215.369135
 20
655.401685
 30
0.0
 11
218.369135
 21
658.401685
 31
0.0
  0
LINE
  5
36D
330
33A
100
AcDbEntity
  8
LC-001-100-D00-0
 62
     7
370
    -2
100
AcDbLine
 10
201.869135
 20
646.391813
 30
0.0
 11
204.870709
 21
649.393387
 31
0.0
  0
LINE
  5
36E
330
33A
100
AcDbEntity
  8
LC-001-100-D00-0
 62
     7
370
    -2
100
AcDbLine
 10
215.24345
 20
659.766128
 30
0.0
 11
218.363558
 21
662.886236
 31
0.0
  0
LINE
  5
36F
330
33A
100
AcDbEntity
  8
LC-001-100-D00-0
 62
     7
370
    -2
100
AcDbLine
 10
201.869135
 20
650.881941
 30
0.0
 11
204.898307
 21
653.911113
 31
0.0
  0
LINE
  5
370
330
33A
100
AcDbEntity
  8
LC-001-100-D00-0
 62
     7
370
    -2
100
AcDbLine
 10
211.368227
 20
660.381033
 30
0.0
 11
214.767961
 21
663.780767
 31
0.0
  0
LINE
  5
371
330
33A
100
AcDbEntity
  8
LC-001-100-D00-0
 62
     7
370
    -2
100
AcDbLine
 10
201.869135
 20
655.37207
 30
0.0
 11
204.925904
 21
658.428838
 31
0.0
  0
LINE
  5
372
330
33A
100
AcDbEntity
  8
LC-001-100-D00-0
 62
     7
370
    -2
100
AcDbLine
 10
209.569135
 20
663.07207
 30
0.0
 11
212.369135
 21
665.87207
 31
0.0
  0
LINE
  5
373
330
33A
100
AcDbEntity
  8
LC-001-100-D00-0
 62
     7
370
    -2
100
AcDbLine
 10
201.869135
 20
659.862198
 30
0.0
 11
204.953502
 21
662.946564
 31
0.0
  0
LINE
  5
374
330
33A
100
AcDbEntity
  8
LC-001-100-D00-0
 62
     7
370
    -2
100
AcDbLine
 10
209.569135
 20
667.562198
 30
0.0
 11
212.369135
 21
670.362198
 31
0.0
  0
LINE
  5
375
330
33A
100
AcDbEntity
  8
LC-001-100-D00-0
 62
     7
370
    -2
100
AcDbLine
 10
201.869135
 20
664.352326
 30
0.0
 11
204.981099
 21
667.464289
 31
0.0
  0
LINE
  5
376
330
33A
100
AcDbEntity
  8
LC-001-100-D00-0
 62
     7
370
    -2
100
AcDbLine
 10
209.569135
 20
672.052326
 30
0.0
 11
212.369135
 21
674.852326
 31
0.0
  0
LINE
  5
377
330
33A
100
AcDbEntity
  8
LC-001-100-D00-0
 62
     7
370
    -2
100
AcDbLine
 10
201.869135
 20
668.842454
 30
0.0
 11
205.008697
 21
671.982015
 31
0.0
  0
LINE
  5
378
330
33A
100
AcDbEntity
  8
LC-001-100-D00-0
 62
     7
370
    -2
100
AcDbLine
 10
207.207449
 20
674.180767
 30
0.0
 11
209.807449
 21
676.780767
 31
0.0
  0
LINE
  5
379
330
33A
100
AcDbEntity
  8
LC-001-100-D00-0
 62
     7
370
    -2
100
AcDbLine
 10
201.869135
 20
673.332582
 30
0.0
 11
205.369135
 21
676.832582
 31
0.0
  0
LINE
  5
37A
330
33A
100
AcDbEntity
  8
LC-001-100-D00-0
 62
     7
370
    -2
100
AcDbLine
 10
201.869135
 20
677.82271
 30
0.0
 11
205.369135
 21
681.32271
 31
0.0
  0
LINE
  5
37B
330
33A
100
AcDbEntity
  8
LC-001-100-D00-0
 62
     7
370
    -2
100
AcDbLine
 10
201.869135
 20
682.312838
 30
0.0
 11
207.119135
 21
687.562838
 31
0.0
  0
LINE
  5
37C
330
33A
100
AcDbEntity
  8
LC-001-100-D00-0
 62
     7
370
    -2
100
AcDbLine
 10
201.869135
 20
686.802966
 30
0.0
 11
205.618284
 21
690.552115
 31
0.0
  0
LINE
  5
37D
330
33A
100
AcDbEntity
  8
LC-001-100-D00-0
 62
     7
370
    -2
100
AcDbLine
 10
201.778631
 20
691.202589
 30
0.0
 11
203.974783
 21
693.398742
 31
0.0
  0
LINE
  5
37E
330
33A
100
AcDbEntity
  8
LC-001-100-D00-0
 62
     7
370
    -2
100
AcDbLine
 10
200.369135
 20
694.283222
 30
0.0
 11
203.119135
 21
697.033222
 31
0.0
  0
LINE
  5
37F
330
33A
100
AcDbEntity
  8
LC-001-100-D00-0
 62
     7
370
    -2
100
AcDbLine
 10
200.369135
 20
698.77335
 30
0.0
 11
203.119135
 21
701.52335
 31
0.0
  0
LINE
  5
380
330
33A
100
AcDbEntity
  8
LC-001-100-D00-0
 62
     7
370
    -2
100
AcDbLine
 10
200.369135
 20
703.263478
 30
0.0
 11
203.119135
 21
706.013478
 31
0.0
  0
LINE
  5
381
330
33A
100
AcDbEntity
  8
LC-001-100-D00-0
 62
     7
370
    -2
100
AcDbLine
 10
200.282716
 20
707.667187
 30
0.0
 11
203.119135
 21
710.503606
 31
0.0
  0
LINE
  5
382
330
33A
100
AcDbEntity
  8
LC-001-100-D00-0
 62
     7
370
    -2
100
AcDbLine
 10
196.706168
 20
708.580767
 30
0.0
 11
199.706168
 21
711.580767
 31
0.0
  0
LINE
  5
383
330
33A
100
AcDbEntity
  8
LC-001-100-D00-0
 62
     7
370
    -2
100
AcDbLine
 10
192.21604
 20
708.580767
 30
0.0
 11
195.21604
 21
711.580767
 31
0.0
  0
LINE
  5
384
330
33A
100
AcDbEntity
  8
LC-001-100-D00-0
 62
     7
370
    -2
100
AcDbLine
 10
187.725912
 20
708.580767
 30
0.0
 11
190.725912
 21
711.580767
 31
0.0
  0
LINE
  5
385
330
33A
100
AcDbEntity
  8
LC-001-100-D00-0
 62
     7
370
    -2
100
AcDbLine
 10
183.235784
 20
708.580767
 30
0.0
 11
186.235784
 21
711.580767
 31
0.0
  0
LINE
  5
386
330
33A
100
AcDbEntity
  8
LC-001-100-D00-0
 62
     7
370
    -2
100
AcDbLine
 10
178.745656
 20
708.580767
 30
0.0
 11
181.745656
 21
711.580767
 31
0.0
  0
LINE
  5
387
330
33A
100
AcDbEntity
  8
LC-001-100-D00-0
 62
     7
370
    -2
100
AcDbLine
 10
174.255528
 20
708.580767
 30
0.0
 11
177.255528
 21
711.580767
 31
0.0
  0
LINE
  5
388
330
33A
100
AcDbEntity
  8
LC-001-100-D00-0
 62
     7
370
    -2
100
AcDbLine
 10
169.7654
 20
708.580767
 30
0.0
 11
172.7654
 21
711.580767
 31
0.0
  0
LINE
  5
389
330
33A
100
AcDbEntity
  8
LC-001-100-D00-0
 62
     7
370
    -2
100
AcDbLine
 10
165.275272
 20
708.580767
 30
0.0
 11
168.275272
 21
711.580767
 31
0.0
  0
LINE
  5
38A
330
33A
100
AcDbEntity
  8
LC-001-100-D00-0
 62
     7
370
    -2
100
AcDbLine
 10
160.785144
 20
708.580767
 30
0.0
 11
163.785144
 21
711.580767
 31
0.0
  0
LINE
  5
38B
330
33A
100
AcDbEntity
  8
LC-001-100-D00-0
 62
     7
370
    -2
100
AcDbLine
 10
156.295016
 20
708.580767
 30
0.0
 11
159.295016
 21
711.580767
 31
0.0
  0
LINE
  5
38C
330
33A
100
AcDbEntity
  8
LC-001-100-D00-0
 62
     7
370
    -2
100
AcDbLine
 10
151.804888
 20
708.580767
 30
0.0
 11
154.804888
 21
711.580767
 31
0.0
  0
LINE
  5
38D
330
33A
100
AcDbEntity
  8
LC-001-100-D00-0
 62
     7
370
    -2
100
AcDbLine
 10
147.31476
 20
708.580767
 30
0.0
 11
150.31476
 21
711.580767
 31
0.0
  0
LINE
  5
38E
330
33A
100
AcDbEntity
  8
LC-001-100-D00-0
 62
     7
370
    -2
100
AcDbLine
 10
142.824632
 20
708.580767
 30
0.0
 11
145.824632
 21
711.580767
 31
0.0
  0
LINE
  5
38F
330
33A
100
AcDbEntity
  8
LC-001-100-D00-0
 62
     7
370
    -2
100
AcDbLine
 10
138.334504
 20
708.580767
 30
0.0
 11
141.334504
 21
711.580767
 31
0.0
  0
LINE
  5
390
330
33A
100
AcDbEntity
  8
LC-001-100-D00-0
 62
     7
370
    -2
100
AcDbLine
 10
133.844376
 20
708.580767
 30
0.0
 11
136.844376
 21
711.580767
 31
0.0
  0
LINE
  5
391
330
33A
100
AcDbEntity
  8
LC-001-100-D00-0
 62
     7
370
    -2
100
AcDbLine
 10
129.354248
 20
708.580767
 30
0.0
 11
132.354248
 21
711.580767
 31
0.0
  0
LINE
  5
392
330
33A
100
AcDbEntity
  8
LC-001-100-D00-0
 62
     7
370
    -2
100
AcDbLine
 10
124.864119
 20
708.580767
 30
0.0
 11
127.864119
 21
711.580767
 31
0.0
  0
ENDBLK
  5
33C
330
33A
100
AcDbEntity
  8
0
100
AcDbBlockEnd
  0
BLOCK
  5
395
330
394
100
AcDbEntity
  8
0
100
AcDbBlockBegin
  2
KLON4
 70
     0
 71
     0
 10
0.0
 20
0.0
 30
0.0
  3
KLON4
  1

  4
KLON4
  0
LINE
  5
397
330
394
100
AcDbEntity
  8
LC-001-100-D00-0
 62
     7
370
    -2
100
AcDbLine
 10
115.883863
 20
708.580767
 30
0.0
 11
117.751499
 21
710.448403
 31
0.0
  0
LINE
  5
398
330
394
100
AcDbEntity
  8
LC-001-100-D00-0
 62
     7
370
    -2
100
AcDbLine
 10
111.393735
 20
708.580767
 30
0.0
 11
114.393735
 21
711.580767
 31
0.0
  0
LINE
  5
399
330
394
100
AcDbEntity
  8
LC-001-100-D00-0
 62
     7
370
    -2
100
AcDbLine
 10
106.903607
 20
708.580767
 30
0.0
 11
109.903607
 21
711.580767
 31
0.0
  0
LINE
  5
39A
330
394
100
AcDbEntity
  8
LC-001-100-D00-0
 62
     7
370
    -2
100
AcDbLine
 10
102.413479
 20
708.580767
 30
0.0
 11
105.413479
 21
711.580767
 31
0.0
  0
ENDBLK
  5
396
330
394
100
AcDbEntity
  8
0
100
AcDbBlockEnd
  0
BLOCK
  5
39D
330
39C
100
AcDbEntity
  8
0
100
AcDbBlockBegin
  2
KLON5
 70
     0
 71
     0
 10
0.0
 20
0.0
 30
0.0
  3
KLON5
  1

  4
KLON5
  0
LINE
  5
39F
330
39C
100
AcDbEntity
  8
LC-001-100-D00-0
 62
     7
370
    -2
100
AcDbLine
 10
357.981675
 20
676.780767
 30
0.0
 11
359.119135
 21
677.918228
 31
0.0
  0
LINE
  5
3A0
330
39C
100
AcDbEntity
  8
LC-001-100-D00-0
 62
     7
370
    -2
100
AcDbLine
 10
355.119135
 20
678.408356
 30
0.0
 11
358.119135
 21
681.408356
 31
0.0
  0
LINE
  5
3A1
330
39C
100
AcDbEntity
  8
LC-001-100-D00-0
 62
     7
370
    -2
100
AcDbLine
 10
346.635952
 20
674.4153
 30
0.0
 11
350.619135
 21
678.398484
 31
0.0
  0
LINE
  5
3A2
330
39C
100
AcDbEntity
  8
LC-001-100-D00-0
 62
     7
370
    -2
100
AcDbLine
 10
351.001419
 20
678.780767
 30
0.0
 11
354.501419
 21
682.280767
 31
0.0
  0
LINE
  5
3A3
330
39C
100
AcDbEntity
  8
LC-001-100-D00-0
 62
     7
370
    -2
100
AcDbLine
 10
347.277399
 20
679.546875
 30
0.0
 11
350.011291
 21
682.280767
 31
0.0
  0
ENDBLK
  5
39E
330
39C
100
AcDbEntity
  8
0
100
AcDbBlockEnd
  0
BLOCK
  5
3A6
330
3A5
100
AcDbEntity
  8
0
100
AcDbBlockBegin
  2
KLON6
 70
     0
 71
     0
 10
0.0
 20
0.0
 30
0.0
  3
KLON6
  1

  4
KLON6
  0
LINE
  5
3A8
330
3A5
100
AcDbEntity
  8
LC-001-100-D00-0
 62
     7
370
    -2
100
AcDbLine
 10
216.287705
 20
674.280767
 30
0.0
 11
217.026754
 21
675.019816
 31
0.0
  0
LINE
  5
3A9
330
3A5
100
AcDbEntity
  8
LC-001-100-D00-0
 62
     7
370
    -2
100
AcDbLine
 10
213.119135
 20
675.602326
 30
0.0
 11
216.527851
 21
679.011041
 31
0.0
  0
LINE
  5
3AA
330
3A5
100
AcDbEntity
  8
LC-001-100-D00-0
 62
     7
370
    -2
100
AcDbLine
 10
211.807449
 20
678.780767
 30
0.0
 11
215.307449
 21
682.280767
 31
0.0
  0
LINE
  5
3AB
330
3A5
100
AcDbEntity
  8
LC-001-100-D00-0
 62
     7
370
    -2
100
AcDbLine
 10
205.468228
 20
676.931675
 30
0.0
 11
210.817321
 21
682.280767
 31
0.0
  0
LINE
  5
3AC
330
3A5
100
AcDbEntity
  8
LC-001-100-D00-0
 62
     7
370
    -2
100
AcDbLine
 10
204.619135
 20
680.57271
 30
0.0
 11
205.327193
 21
681.280767
 31
0.0
  0
LINE
  5
3AD
330
3A5
100
AcDbEntity
  8
LC-001-100-D00-0
 62
     7
370
    -2
100
AcDbLine
 10
205.619135
 20
681.57271
 30
0.0
 11
206.327193
 21
682.280767
 31
0.0
  0
ENDBLK
  5
3A7
330
3A5
100
AcDbEntity
  8
0
100
AcDbBlockEnd
  0
BLOCK
  5
3B0
330
3AF
100
AcDbEntity
  8
0
100
AcDbBlockBegin
  2
KLON7
 70
     0
 71
     0
 10
0.0
 20
0.0
 30
0.0
  3
KLON7
  1

  4
KLON7
  0
LINE
  5
3B2
330
3AF
100
AcDbEntity
  8
LC-001-100-D00-0
 62
     7
370
    -2
100
AcDbLine
 10
229.869135
 20
616.520004
 30
0.0
 11
229.308372
 21
617.080767
 31
0.0
  0
LINE
  5
3B3
330
3AF
100
AcDbEntity
  8
LC-001-100-D00-0
 62
     7
370
    -2
100
AcDbLine
 10
229.869135
 20
615.397472
 30
0.0
 11
228.18584
 21
617.080767
 31
0.0
  0
LINE
  5
3B4
330
3AF
100
AcDbEntity
  8
LC-001-100-D00-0
 62
     7
370
    -2
100
AcDbLine
 10
229.563308
 20
614.580767
 30
0.0
 11
227.063308
 21
617.080767
 31
0.0
  0
LINE
  5
3B5
330
3AF
100
AcDbEntity
  8
LC-001-100-D00-0
 62
     7
370
    -2
100
AcDbLine
 10
228.440776
 20
614.580767
 30
0.0
 11
225.940776
 21
617.080767
 31
0.0
  0
LINE
  5
3B6
330
3AF
100
AcDbEntity
  8
LC-001-100-D00-0
 62
     7
370
    -2
100
AcDbLine
 10
227.318244
 20
614.580767
 30
0.0
 11
224.818244
 21
617.080767
 31
0.0
  0
LINE
  5
3B7
330
3AF
100
AcDbEntity
  8
LC-001-100-D00-0
 62
     7
370
    -2
100
AcDbLine
 10
226.195712
 20
614.580767
 30
0.0
 11
223.695712
 21
617.080767
 31
0.0
  0
LINE
  5
3B8
330
3AF
100
AcDbEntity
  8
LC-001-100-D00-0
 62
     7
370
    -2
100
AcDbLine
 10
225.07318
 20
614.580767
 30
0.0
 11
222.57318
 21
617.080767
 31
0.0
  0
LINE
  5
3B9
330
3AF
100
AcDbEntity
  8
LC-001-100-D00-0
 62
     7
370
    -2
100
AcDbLine
 10
206.569135
 20
633.084812
 30
0.0
 11
206.07318
 21
633.580767
 31
0.0
  0
LINE
  5
3BA
330
3AF
100
AcDbEntity
  8
LC-001-100-D00-0
 62
     7
370
    -2
100
AcDbLine
 10
224.369135
 20
614.16228
 30
0.0
 11
221.450648
 21
617.080767
 31
0.0
  0
LINE
  5
3BB
330
3AF
100
AcDbEntity
  8
LC-001-100-D00-0
 62
     7
370
    -2
100
AcDbLine
 10
206.869135
 20
631.66228
 30
0.0
 11
204.950648
 21
633.580767
 31
0.0
  0
LINE
  5
3BC
330
3AF
100
AcDbEntity
  8
LC-001-100-D00-0
 62
     7
370
    -2
100
AcDbLine
 10
224.369135
 20
613.039748
 30
0.0
 11
220.328116
 21
617.080767
 31
0.0
  0
LINE
  5
3BD
330
3AF
100
AcDbEntity
  8
LC-001-100-D00-0
 62
     7
370
    -2
100
AcDbLine
 10
206.869135
 20
630.539748
 30
0.0
 11
204.369135
 21
633.039748
 31
0.0
  0
LINE
  5
3BE
330
3AF
100
AcDbEntity
  8
LC-001-100-D00-0
 62
     7
370
    -2
100
AcDbLine
 10
224.205584
 20
612.080767
 30
0.0
 11
219.205584
 21
617.080767
 31
0.0
  0
LINE
  5
3BF
330
3AF
100
AcDbEntity
  8
LC-001-100-D00-0
 62
     7
370
    -2
100
AcDbLine
 10
206.869135
 20
629.417216
 30
0.0
 11
204.369135
 21
631.917216
 31
0.0
  0
LINE
  5
3C0
330
3AF
100
AcDbEntity
  8
LC-001-100-D00-0
 62
     7
370
    -2
100
AcDbLine
 10
223.083052
 20
612.080767
 30
0.0
 11
218.083052
 21
617.080767
 31
0.0
  0
LINE
  5
3C1
330
3AF
100
AcDbEntity
  8
LC-001-100-D00-0
 62
     7
370
    -2
100
AcDbLine
 10
206.869135
 20
628.294684
 30
0.0
 11
204.369135
 21
630.794684
 31
0.0
  0
LINE
  5
3C2
330
3AF
100
AcDbEntity
  8
LC-001-100-D00-0
 62
     7
370
    -2
100
AcDbLine
 10
221.96052
 20
612.080767
 30
0.0
 11
216.96052
 21
617.080767
 31
0.0
  0
LINE
  5
3C3
330
3AF
100
AcDbEntity
  8
LC-001-100-D00-0
 62
     7
370
    -2
100
AcDbLine
 10
206.869135
 20
627.172152
 30
0.0
 11
204.369135
 21
629.672152
 31
0.0
  0
LINE
  5
3C4
330
3AF
100
AcDbEntity
  8
LC-001-100-D00-0
 62
     7
370
    -2
100
AcDbLine
 10
220.837988
 20
612.080767
 30
0.0
 11
215.837988
 21
617.080767
 31
0.0
  0
LINE
  5
3C5
330
3AF
100
AcDbEntity
  8
LC-001-100-D00-0
 62
     7
370
    -2
100
AcDbLine
 10
206.869135
 20
626.04962
 30
0.0
 11
204.369135
 21
628.54962
 31
0.0
  0
LINE
  5
3C6
330
3AF
100
AcDbEntity
  8
LC-001-100-D00-0
 62
     7
370
    -2
100
AcDbLine
 10
219.715456
 20
612.080767
 30
0.0
 11
214.715456
 21
617.080767
 31
0.0
  0
LINE
  5
3C7
330
3AF
100
AcDbEntity
  8
LC-001-100-D00-0
 62
     7
370
    -2
100
AcDbLine
 10
206.869135
 20
624.927088
 30
0.0
 11
204.369135
 21
627.427088
 31
0.0
  0
LINE
  5
3C8
330
3AF
100
AcDbEntity
  8
LC-001-100-D00-0
 62
     7
370
    -2
100
AcDbLine
 10
218.592924
 20
612.080767
 30
0.0
 11
213.592924
 21
617.080767
 31
0.0
  0
LINE
  5
3C9
330
3AF
100
AcDbEntity
  8
LC-001-100-D00-0
 62
     7
370
    -2
100
AcDbLine
 10
206.869135
 20
623.804556
 30
0.0
 11
204.369135
 21
626.304556
 31
0.0
  0
LINE
  5
3CA
330
3AF
100
AcDbEntity
  8
LC-001-100-D00-0
 62
     7
370
    -2
100
AcDbLine
 10
217.470392
 20
612.080767
 30
0.0
 11
212.470392
 21
617.080767
 31
0.0
  0
LINE
  5
3CB
330
3AF
100
AcDbEntity
  8
LC-001-100-D00-0
 62
     7
370
    -2
100
AcDbLine
 10
206.869135
 20
622.682024
 30
0.0
 11
204.369135
 21
625.182024
 31
0.0
  0
LINE
  5
3CC
330
3AF
100
AcDbEntity
  8
LC-001-100-D00-0
 62
     7
370
    -2
100
AcDbLine
 10
216.34786
 20
612.080767
 30
0.0
 11
214.369135
 21
614.059492
 31
0.0
  0
LINE
  5
3CD
330
3AF
100
AcDbEntity
  8
LC-001-100-D00-0
 62
     7
370
    -2
100
AcDbLine
 10
213.84786
 20
614.580767
 30
0.0
 11
211.34786
 21
617.080767
 31
0.0
  0
LINE
  5
3CE
330
3AF
100
AcDbEntity
  8
LC-001-100-D00-0
 62
     7
370
    -2
100
AcDbLine
 10
206.869135
 20
621.559492
 30
0.0
 11
203.84786
 21
624.580767
 31
0.0
  0
LINE
  5
3CF
330
3AF
100
AcDbEntity
  8
LC-001-100-D00-0
 62
     7
370
    -2
100
AcDbLine
 10
215.225328
 20
612.080767
 30
0.0
 11
214.369135
 21
612.93696
 31
0.0
  0
LINE
  5
3D0
330
3AF
100
AcDbEntity
  8
LC-001-100-D00-0
 62
     7
370
    -2
100
AcDbLine
 10
212.725328
 20
614.580767
 30
0.0
 11
210.225328
 21
617.080767
 31
0.0
  0
LINE
  5
3D1
330
3AF
100
AcDbEntity
  8
LC-001-100-D00-0
 62
     7
370
    -2
100
AcDbLine
 10
206.869135
 20
620.43696
 30
0.0
 11
202.725328
 21
624.580767
 31
0.0
  0
LINE
  5
3D2
330
3AF
100
AcDbEntity
  8
LC-001-100-D00-0
 62
     7
370
    -2
100
AcDbLine
 10
211.602796
 20
614.580767
 30
0.0
 11
209.086802
 21
617.096761
 31
0.0
  0
LINE
  5
3D3
330
3AF
100
AcDbEntity
  8
LC-001-100-D00-0
 62
     7
370
    -2
100
AcDbLine
 10
206.885129
 20
619.298434
 30
0.0
 11
201.869135
 21
624.314428
 31
0.0
  0
LINE
  5
3D4
330
3AF
100
AcDbEntity
  8
LC-001-100-D00-0
 62
     7
370
    -2
100
AcDbLine
 10
210.480264
 20
614.580767
 30
0.0
 11
201.869135
 21
623.191896
 31
0.0
  0
LINE
  5
3D5
330
3AF
100
AcDbEntity
  8
LC-001-100-D00-0
 62
     7
370
    -2
100
AcDbLine
 10
209.340229
 20
614.59827
 30
0.0
 11
201.886638
 21
622.051861
 31
0.0
  0
LINE
  5
3D6
330
3AF
100
AcDbEntity
  8
LC-001-100-D00-0
 62
     7
370
    -2
100
AcDbLine
 10
208.018111
 20
614.797856
 30
0.0
 11
202.086224
 21
620.729743
 31
0.0
  0
LINE
  5
3D7
330
3AF
100
AcDbEntity
  8
LC-001-100-D00-0
 62
     7
370
    -2
100
AcDbLine
 10
206.244355
 20
615.44908
 30
0.0
 11
202.737448
 21
618.955987
 31
0.0
  0
ENDBLK
  5
3B1
330
3AF
100
AcDbEntity
  8
0
100
AcDbBlockEnd
  0
BLOCK
  5
3DA
330
3D9
100
AcDbEntity
  8
0
100
AcDbBlockBegin
  2
KLON8
 70
     0
 71
     0
 10
0.0
 20
0.0
 30
0.0
  3
KLON8
  1

  4
KLON8
  0
LINE
  5
3DC
330
3D9
100
AcDbEntity
  8
LC-001-100-D00-0
 62
     7
370
    -2
100
AcDbLine
 10
244.369135
 20
616.61292
 30
0.0
 11
243.901288
 21
617.080767
 31
0.0
  0
LINE
  5
3DD
330
3D9
100
AcDbEntity
  8
LC-001-100-D00-0
 62
     7
370
    -2
100
AcDbLine
 10
244.369135
 20
615.490388
 30
0.0
 11
242.778756
 21
617.080767
 31
0.0
  0
LINE
  5
3DE
330
3D9
100
AcDbEntity
  8
LC-001-100-D00-0
 62
     7
370
    -2
100
AcDbLine
 10
244.156224
 20
614.580767
 30
0.0
 11
241.656224
 21
617.080767
 31
0.0
  0
LINE
  5
3DF
330
3D9
100
AcDbEntity
  8
LC-001-100-D00-0
 62
     7
370
    -2
100
AcDbLine
 10
243.033692
 20
614.580767
 30
0.0
 11
240.533692
 21
617.080767
 31
0.0
  0
LINE
  5
3E0
330
3D9
100
AcDbEntity
  8
LC-001-100-D00-0
 62
     7
370
    -2
100
AcDbLine
 10
241.91116
 20
614.580767
 30
0.0
 11
239.41116
 21
617.080767
 31
0.0
  0
LINE
  5
3E1
330
3D9
100
AcDbEntity
  8
LC-001-100-D00-0
 62
     7
370
    -2
100
AcDbLine
 10
240.788628
 20
614.580767
 30
0.0
 11
238.288628
 21
617.080767
 31
0.0
  0
LINE
  5
3E2
330
3D9
100
AcDbEntity
  8
LC-001-100-D00-0
 62
     7
370
    -2
100
AcDbLine
 10
239.666096
 20
614.580767
 30
0.0
 11
237.869135
 21
616.377728
 31
0.0
  0
LINE
  5
3E3
330
3D9
100
AcDbEntity
  8
LC-001-100-D00-0
 62
     7
370
    -2
100
AcDbLine
 10
238.543564
 20
614.580767
 30
0.0
 11
237.869135
 21
615.255196
 31
0.0
  0
ENDBLK
  5
3DB
330
3D9
100
AcDbEntity
  8
0
100
AcDbBlockEnd
  0
BLOCK
  5
3E6
330
3E5
100
AcDbEntity
  8
0
100
AcDbBlockBegin
  2
KLON9
 70
     0
 71
     0
 10
0.0
 20
0.0
 30
0.0
  3
KLON9
  1

  4
KLON9
  0
LINE
  5
3E8
330
3E5
100
AcDbEntity
  8
LC-001-100-D00-0
 62
     7
370
    -2
100
AcDbLine
 10
359.369135
 20
632.949166
 30
0.0
 11
358.737534
 21
633.580767
 31
0.0
  0
LINE
  5
3E9
330
3E5
100
AcDbEntity
  8
LC-001-100-D00-0
 62
     7
370
    -2
100
AcDbLine
 10
359.369135
 20
631.826634
 30
0.0
 11
357.615002
 21
633.580767
 31
0.0
  0
LINE
  5
3EA
330
3E5
100
AcDbEntity
  8
LC-001-100-D00-0
 62
     7
370
    -2
100
AcDbLine
 10
359.369135
 20
630.704102
 30
0.0
 11
357.169135
 21
632.904102
 31
0.0
  0
LINE
  5
3EB
330
3E5
100
AcDbEntity
  8
LC-001-100-D00-0
 62
     7
370
    -2
100
AcDbLine
 10
359.369135
 20
629.58157
 30
0.0
 11
356.869938
 21
632.080767
 31
0.0
  0
LINE
  5
3EC
330
3E5
100
AcDbEntity
  8
LC-001-100-D00-0
 62
     7
370
    -2
100
AcDbLine
 10
359.369135
 20
628.459038
 30
0.0
 11
356.869135
 21
630.959038
 31
0.0
  0
LINE
  5
3ED
330
3E5
100
AcDbEntity
  8
LC-001-100-D00-0
 62
     7
370
    -2
100
AcDbLine
 10
359.369135
 20
627.336506
 30
0.0
 11
356.869135
 21
629.836506
 31
0.0
  0
LINE
  5
3EE
330
3E5
100
AcDbEntity
  8
LC-001-100-D00-0
 62
     7
370
    -2
100
AcDbLine
 10
361.869135
 20
623.713974
 30
0.0
 11
361.002342
 21
624.580767
 31
0.0
  0
LINE
  5
3EF
330
3E5
100
AcDbEntity
  8
LC-001-100-D00-0
 62
     7
370
    -2
100
AcDbLine
 10
359.369135
 20
626.213974
 30
0.0
 11
356.869135
 21
628.713974
 31
0.0
  0
LINE
  5
3F0
330
3E5
100
AcDbEntity
  8
LC-001-100-D00-0
 62
     7
370
    -2
100
AcDbLine
 10
361.869135
 20
622.591442
 30
0.0
 11
359.87981
 21
624.580767
 31
0.0
  0
LINE
  5
3F1
330
3E5
100
AcDbEntity
  8
LC-001-100-D00-0
 62
     7
370
    -2
100
AcDbLine
 10
359.369135
 20
625.091442
 30
0.0
 11
356.869135
 21
627.591442
 31
0.0
  0
LINE
  5
3F2
330
3E5
100
AcDbEntity
  8
LC-001-100-D00-0
 62
     7
370
    -2
100
AcDbLine
 10
361.800787
 20
621.537259
 30
0.0
 11
356.869135
 21
626.46891
 31
0.0
  0
LINE
  5
3F3
330
3E5
100
AcDbEntity
  8
LC-001-100-D00-0
 62
     7
370
    -2
100
AcDbLine
 10
361.61912
 20
620.596393
 30
0.0
 11
356.869135
 21
625.346378
 31
0.0
  0
LINE
  5
3F4
330
3E5
100
AcDbEntity
  8
LC-001-100-D00-0
 62
     7
370
    -2
100
AcDbLine
 10
361.349207
 20
619.743774
 30
0.0
 11
356.869135
 21
624.223846
 31
0.0
  0
LINE
  5
3F5
330
3E5
100
AcDbEntity
  8
LC-001-100-D00-0
 62
     7
370
    -2
100
AcDbLine
 10
361.005414
 20
618.965035
 30
0.0
 11
356.869135
 21
623.101314
 31
0.0
  0
LINE
  5
3F6
330
3E5
100
AcDbEntity
  8
LC-001-100-D00-0
 62
     7
370
    -2
100
AcDbLine
 10
360.596468
 20
618.251449
 30
0.0
 11
356.869135
 21
621.978782
 31
0.0
  0
LINE
  5
3F7
330
3E5
100
AcDbEntity
  8
LC-001-100-D00-0
 62
     7
370
    -2
100
AcDbLine
 10
360.127667
 20
617.597718
 30
0.0
 11
356.869135
 21
620.85625
 31
0.0
  0
LINE
  5
3F8
330
3E5
100
AcDbEntity
  8
LC-001-100-D00-0
 62
     7
370
    -2
100
AcDbLine
 10
359.601948
 20
617.000905
 30
0.0
 11
356.869135
 21
619.733718
 31
0.0
  0
LINE
  5
3F9
330
3E5
100
AcDbEntity
  8
LC-001-100-D00-0
 62
     7
370
    -2
100
AcDbLine
 10
359.020387
 20
616.459934
 30
0.0
 11
356.727911
 21
618.75241
 31
0.0
  0
LINE
  5
3FA
330
3E5
100
AcDbEntity
  8
LC-001-100-D00-0
 62
     7
370
    -2
100
AcDbLine
 10
358.382374
 20
615.975415
 30
0.0
 11
356.329042
 21
618.028747
 31
0.0
  0
LINE
  5
3FB
330
3E5
100
AcDbEntity
  8
LC-001-100-D00-0
 62
     7
370
    -2
100
AcDbLine
 10
357.685512
 20
615.549745
 30
0.0
 11
355.74309
 21
617.492167
 31
0.0
  0
LINE
  5
3FC
330
3E5
100
AcDbEntity
  8
LC-001-100-D00-0
 62
     7
370
    -2
100
AcDbLine
 10
356.925221
 20
615.187504
 30
0.0
 11
354.960909
 21
617.151816
 31
0.0
  0
LINE
  5
3FD
330
3E5
100
AcDbEntity
  8
LC-001-100-D00-0
 62
     7
370
    -2
100
AcDbLine
 10
356.093864
 20
614.89633
 30
0.0
 11
353.909426
 21
617.080767
 31
0.0
  0
LINE
  5
3FE
330
3E5
100
AcDbEntity
  8
LC-001-100-D00-0
 62
     7
370
    -2
100
AcDbLine
 10
355.178941
 20
614.68872
 30
0.0
 11
352.786894
 21
617.080767
 31
0.0
  0
LINE
  5
3FF
330
3E5
100
AcDbEntity
  8
LC-001-100-D00-0
 62
     7
370
    -2
100
AcDbLine
 10
354.159105
 20
614.586024
 30
0.0
 11
351.664362
 21
617.080767
 31
0.0
  0
LINE
  5
400
330
3E5
100
AcDbEntity
  8
LC-001-100-D00-0
 62
     7
370
    -2
100
AcDbLine
 10
353.04183
 20
614.580767
 30
0.0
 11
350.54183
 21
617.080767
 31
0.0
  0
LINE
  5
401
330
3E5
100
AcDbEntity
  8
LC-001-100-D00-0
 62
     7
370
    -2
100
AcDbLine
 10
351.919298
 20
614.580767
 30
0.0
 11
349.419298
 21
617.080767
 31
0.0
  0
LINE
  5
402
330
3E5
100
AcDbEntity
  8
LC-001-100-D00-0
 62
     7
370
    -2
100
AcDbLine
 10
350.796766
 20
614.580767
 30
0.0
 11
348.296766
 21
617.080767
 31
0.0
  0
LINE
  5
403
330
3E5
100
AcDbEntity
  8
LC-001-100-D00-0
 62
     7
370
    -2
100
AcDbLine
 10
349.674234
 20
614.580767
 30
0.0
 11
347.174234
 21
617.080767
 31
0.0
  0
LINE
  5
404
330
3E5
100
AcDbEntity
  8
LC-001-100-D00-0
 62
     7
370
    -2
100
AcDbLine
 10
349.369135
 20
613.763334
 30
0.0
 11
346.051702
 21
617.080767
 31
0.0
  0
LINE
  5
405
330
3E5
100
AcDbEntity
  8
LC-001-100-D00-0
 62
     7
370
    -2
100
AcDbLine
 10
349.369135
 20
612.640802
 30
0.0
 11
344.92917
 21
617.080767
 31
0.0
  0
LINE
  5
406
330
3E5
100
AcDbEntity
  8
LC-001-100-D00-0
 62
     7
370
    -2
100
AcDbLine
 10
348.806638
 20
612.080767
 30
0.0
 11
343.806638
 21
617.080767
 31
0.0
  0
LINE
  5
407
330
3E5
100
AcDbEntity
  8
LC-001-100-D00-0
 62
     7
370
    -2
100
AcDbLine
 10
347.684106
 20
612.080767
 30
0.0
 11
342.684106
 21
617.080767
 31
0.0
  0
LINE
  5
408
330
3E5
100
AcDbEntity
  8
LC-001-100-D00-0
 62
     7
370
    -2
100
AcDbLine
 10
346.561574
 20
612.080767
 30
0.0
 11
341.561574
 21
617.080767
 31
0.0
  0
LINE
  5
409
330
3E5
100
AcDbEntity
  8
LC-001-100-D00-0
 62
     7
370
    -2
100
AcDbLine
 10
345.439042
 20
612.080767
 30
0.0
 11
340.439042
 21
617.080767
 31
0.0
  0
LINE
  5
40A
330
3E5
100
AcDbEntity
  8
LC-001-100-D00-0
 62
     7
370
    -2
100
AcDbLine
 10
344.31651
 20
612.080767
 30
0.0
 11
339.31651
 21
617.080767
 31
0.0
  0
LINE
  5
40B
330
3E5
100
AcDbEntity
  8
LC-001-100-D00-0
 62
     7
370
    -2
100
AcDbLine
 10
343.193978
 20
612.080767
 30
0.0
 11
338.193978
 21
617.080767
 31
0.0
  0
LINE
  5
40C
330
3E5
100
AcDbEntity
  8
LC-001-100-D00-0
 62
     7
370
    -2
100
AcDbLine
 10
342.071445
 20
612.080767
 30
0.0
 11
337.071445
 21
617.080767
 31
0.0
  0
LINE
  5
40D
330
3E5
100
AcDbEntity
  8
LC-001-100-D00-0
 62
     7
370
    -2
100
AcDbLine
 10
340.948913
 20
612.080767
 30
0.0
 11
339.369135
 21
613.660545
 31
0.0
  0
LINE
  5
40E
330
3E5
100
AcDbEntity
  8
LC-001-100-D00-0
 62
     7
370
    -2
100
AcDbLine
 10
338.448913
 20
614.580767
 30
0.0
 11
335.948913
 21
617.080767
 31
0.0
  0
LINE
  5
40F
330
3E5
100
AcDbEntity
  8
LC-001-100-D00-0
 62
     7
370
    -2
100
AcDbLine
 10
339.826381
 20
612.080767
 30
0.0
 11
339.369135
 21
612.538013
 31
0.0
  0
LINE
  5
410
330
3E5
100
AcDbEntity
  8
LC-001-100-D00-0
 62
     7
370
    -2
100
AcDbLine
 10
337.326381
 20
614.580767
 30
0.0
 11
334.826381
 21
617.080767
 31
0.0
  0
LINE
  5
411
330
3E5
100
AcDbEntity
  8
LC-001-100-D00-0
 62
     7
370
    -2
100
AcDbLine
 10
336.203849
 20
614.580767
 30
0.0
 11
333.703849
 21
617.080767
 31
0.0
  0
LINE
  5
412
330
3E5
100
AcDbEntity
  8
LC-001-100-D00-0
 62
     7
370
    -2
100
AcDbLine
 10
335.081317
 20
614.580767
 30
0.0
 11
332.581317
 21
617.080767
 31
0.0
  0
LINE
  5
413
330
3E5
100
AcDbEntity
  8
LC-001-100-D00-0
 62
     7
370
    -2
100
AcDbLine
 10
333.958785
 20
614.580767
 30
0.0
 11
331.458785
 21
617.080767
 31
0.0
  0
LINE
  5
414
330
3E5
100
AcDbEntity
  8
LC-001-100-D00-0
 62
     7
370
    -2
100
AcDbLine
 10
332.836253
 20
614.580767
 30
0.0
 11
330.336253
 21
617.080767
 31
0.0
  0
LINE
  5
415
330
3E5
100
AcDbEntity
  8
LC-001-100-D00-0
 62
     7
370
    -2
100
AcDbLine
 10
331.713721
 20
614.580767
 30
0.0
 11
329.213721
 21
617.080767
 31
0.0
  0
LINE
  5
416
330
3E5
100
AcDbEntity
  8
LC-001-100-D00-0
 62
     7
370
    -2
100
AcDbLine
 10
330.591189
 20
614.580767
 30
0.0
 11
328.091189
 21
617.080767
 31
0.0
  0
LINE
  5
417
330
3E5
100
AcDbEntity
  8
LC-001-100-D00-0
 62
     7
370
    -2
100
AcDbLine
 10
329.468657
 20
614.580767
 30
0.0
 11
326.968657
 21
617.080767
 31
0.0
  0
LINE
  5
418
330
3E5
100
AcDbEntity
  8
LC-001-100-D00-0
 62
     7
370
    -2
100
AcDbLine
 10
328.346125
 20
614.580767
 30
0.0
 11
325.846125
 21
617.080767
 31
0.0
  0
LINE
  5
419
330
3E5
100
AcDbEntity
  8
LC-001-100-D00-0
 62
     7
370
    -2
100
AcDbLine
 10
327.223593
 20
614.580767
 30
0.0
 11
324.723593
 21
617.080767
 31
0.0
  0
LINE
  5
41A
330
3E5
100
AcDbEntity
  8
LC-001-100-D00-0
 62
     7
370
    -2
100
AcDbLine
 10
326.101061
 20
614.580767
 30
0.0
 11
323.601061
 21
617.080767
 31
0.0
  0
LINE
  5
41B
330
3E5
100
AcDbEntity
  8
LC-001-100-D00-0
 62
     7
370
    -2
100
AcDbLine
 10
324.978529
 20
614.580767
 30
0.0
 11
322.478529
 21
617.080767
 31
0.0
  0
LINE
  5
41C
330
3E5
100
AcDbEntity
  8
LC-001-100-D00-0
 62
     7
370
    -2
100
AcDbLine
 10
323.855997
 20
614.580767
 30
0.0
 11
321.355997
 21
617.080767
 31
0.0
  0
LINE
  5
41D
330
3E5
100
AcDbEntity
  8
LC-001-100-D00-0
 62
     7
370
    -2
100
AcDbLine
 10
322.733465
 20
614.580767
 30
0.0
 11
320.233465
 21
617.080767
 31
0.0
  0
LINE
  5
41E
330
3E5
100
AcDbEntity
  8
LC-001-100-D00-0
 62
     7
370
    -2
100
AcDbLine
 10
321.610933
 20
614.580767
 30
0.0
 11
319.369135
 21
616.822565
 31
0.0
  0
LINE
  5
41F
330
3E5
100
AcDbEntity
  8
LC-001-100-D00-0
 62
     7
370
    -2
100
AcDbLine
 10
320.488401
 20
614.580767
 30
0.0
 11
319.369135
 21
615.700033
 31
0.0
  0
ENDBLK
  5
3E7
330
3E5
100
AcDbEntity
  8
0
100
AcDbBlockEnd
  0
BLOCK
  5
422
330
421
100
AcDbEntity
  8
0
100
AcDbBlockBegin
  2
KLON10
 70
     0
 71
     0
 10
0.0
 20
0.0
 30
0.0
  3
KLON10
  1

  4
KLON10
  0
LINE
  5
424
330
421
100
AcDbEntity
  8
LC-001-100-D00-0
 62
     7
370
    -2
100
AcDbLine
 10
354.801419
 20
682.580767
 30
0.0
 11
356.702593
 21
684.481941
 31
0.0
  0
LINE
  5
425
330
421
100
AcDbEntity
  8
LC-001-100-D00-0
 62
     7
370
    -2
100
AcDbLine
 10
352.869135
 20
685.138612
 30
0.0
 11
355.769135
 21
688.038612
 31
0.0
  0
LINE
  5
426
330
421
100
AcDbEntity
  8
LC-001-100-D00-0
 62
     7
370
    -2
100
AcDbLine
 10
352.869135
 20
689.62874
 30
0.0
 11
355.769135
 21
692.52874
 31
0.0
  0
LINE
  5
427
330
421
100
AcDbEntity
  8
LC-001-100-D00-0
 62
     7
370
    -2
100
AcDbLine
 10
352.869135
 20
694.118868
 30
0.0
 11
355.769135
 21
697.018868
 31
0.0
  0
LINE
  5
428
330
421
100
AcDbEntity
  8
LC-001-100-D00-0
 62
     7
370
    -2
100
AcDbLine
 10
352.869135
 20
698.608996
 30
0.0
 11
355.769135
 21
701.508996
 31
0.0
  0
LINE
  5
429
330
421
100
AcDbEntity
  8
LC-001-100-D00-0
 62
     7
370
    -2
100
AcDbLine
 10
352.869135
 20
703.099124
 30
0.0
 11
355.769135
 21
705.999124
 31
0.0
  0
LINE
  5
42A
330
421
100
AcDbEntity
  8
LC-001-100-D00-0
 62
     7
370
    -2
100
AcDbLine
 10
361.350779
 20
711.580767
 30
0.0
 11
366.312633
 21
716.542621
 31
0.0
  0
LINE
  5
42B
330
421
100
AcDbEntity
  8
LC-001-100-D00-0
 62
     7
370
    -2
100
AcDbLine
 10
352.369135
 20
707.089252
 30
0.0
 11
355.769135
 21
710.489252
 31
0.0
  0
LINE
  5
42C
330
421
100
AcDbEntity
  8
LC-001-100-D00-0
 62
     7
370
    -2
100
AcDbLine
 10
356.860651
 20
711.580767
 30
0.0
 11
365.114459
 21
719.834576
 31
0.0
  0
LINE
  5
42D
330
421
100
AcDbEntity
  8
LC-001-100-D00-0
 62
     7
370
    -2
100
AcDbLine
 10
352.369135
 20
711.57938
 30
0.0
 11
363.916286
 21
723.126531
 31
0.0
  0
LINE
  5
42E
330
421
100
AcDbEntity
  8
LC-001-100-D00-0
 62
     7
370
    -2
100
AcDbLine
 10
351.17106
 20
714.871433
 30
0.0
 11
362.718112
 21
726.418485
 31
0.0
  0
LINE
  5
42F
330
421
100
AcDbEntity
  8
LC-001-100-D00-0
 62
     7
370
    -2
100
AcDbLine
 10
349.972886
 20
718.163387
 30
0.0
 11
361.519939
 21
729.71044
 31
0.0
  0
LINE
  5
430
330
421
100
AcDbEntity
  8
LC-001-100-D00-0
 62
     7
370
    -2
100
AcDbLine
 10
348.774713
 20
721.455342
 30
0.0
 11
360.321765
 21
733.002394
 31
0.0
  0
LINE
  5
431
330
421
100
AcDbEntity
  8
LC-001-100-D00-0
 62
     7
370
    -2
100
AcDbLine
 10
347.57654
 20
724.747297
 30
0.0
 11
359.123592
 21
736.294349
 31
0.0
  0
LINE
  5
432
330
421
100
AcDbEntity
  8
LC-001-100-D00-0
 62
     7
370
    -2
100
AcDbLine
 10
346.378366
 20
728.039252
 30
0.0
 11
357.925418
 21
739.586304
 31
0.0
  0
LINE
  5
433
330
421
100
AcDbEntity
  8
LC-001-100-D00-0
 62
     7
370
    -2
100
AcDbLine
 10
345.180193
 20
731.331206
 30
0.0
 11
356.727245
 21
742.878258
 31
0.0
  0
LINE
  5
434
330
421
100
AcDbEntity
  8
LC-001-100-D00-0
 62
     7
370
    -2
100
AcDbLine
 10
343.98202
 20
734.623161
 30
0.0
 11
355.529071
 21
746.170213
 31
0.0
  0
LINE
  5
435
330
421
100
AcDbEntity
  8
LC-001-100-D00-0
 62
     7
370
    -2
100
AcDbLine
 10
342.783846
 20
737.915116
 30
0.0
 11
354.330898
 21
749.462167
 31
0.0
  0
LINE
  5
436
330
421
100
AcDbEntity
  8
LC-001-100-D00-0
 62
     7
370
    -2
100
AcDbLine
 10
341.585673
 20
741.20707
 30
0.0
 11
353.132725
 21
752.754122
 31
0.0
  0
LINE
  5
437
330
421
100
AcDbEntity
  8
LC-001-100-D00-0
 62
     7
370
    -2
100
AcDbLine
 10
340.3875
 20
744.499025
 30
0.0
 11
351.934551
 21
756.046077
 31
0.0
  0
LINE
  5
438
330
421
100
AcDbEntity
  8
LC-001-100-D00-0
 62
     7
370
    -2
100
AcDbLine
 10
338.069135
 20
746.670789
 30
0.0
 11
350.736378
 21
759.338031
 31
0.0
  0
LINE
  5
439
330
421
100
AcDbEntity
  8
LC-001-100-D00-0
 62
     7
370
    -2
100
AcDbLine
 10
337.991153
 20
751.082935
 30
0.0
 11
349.538204
 21
762.629986
 31
0.0
  0
LINE
  5
43A
330
421
100
AcDbEntity
  8
LC-001-100-D00-0
 62
     7
370
    -2
100
AcDbLine
 10
336.79298
 20
754.374889
 30
0.0
 11
348.340031
 21
765.92194
 31
0.0
  0
LINE
  5
43B
330
421
100
AcDbEntity
  8
LC-001-100-D00-0
 62
     7
370
    -2
100
AcDbLine
 10
335.594807
 20
757.666844
 30
0.0
 11
347.141857
 21
769.213895
 31
0.0
  0
LINE
  5
43C
330
421
100
AcDbEntity
  8
LC-001-100-D00-0
 62
     7
370
    -2
100
AcDbLine
 10
334.396633
 20
760.958799
 30
0.0
 11
345.943684
 21
772.505849
 31
0.0
  0
LINE
  5
43D
330
421
100
AcDbEntity
  8
LC-001-100-D00-0
 62
     7
370
    -2
100
AcDbLine
 10
333.19846
 20
764.250754
 30
0.0
 11
344.74551
 21
775.797804
 31
0.0
  0
LINE
  5
43E
330
421
100
AcDbEntity
  8
LC-001-100-D00-0
 62
     7
370
    -2
100
AcDbLine
 10
332.000287
 20
767.542709
 30
0.0
 11
343.391681
 21
778.934103
 31
0.0
  0
LINE
  5
43F
330
421
100
AcDbEntity
  8
LC-001-100-D00-0
 62
     7
370
    -2
100
AcDbLine
 10
330.802113
 20
770.834663
 30
0.0
 11
341.521713
 21
781.554263
 31
0.0
  0
LINE
  5
440
330
421
100
AcDbEntity
  8
LC-001-100-D00-0
 62
     7
370
    -2
100
AcDbLine
 10
327.258095
 20
771.780773
 30
0.0
 11
339.168542
 21
783.69122
 31
0.0
  0
LINE
  5
441
330
421
100
AcDbEntity
  8
LC-001-100-D00-0
 62
     7
370
    -2
100
AcDbLine
 10
322.767967
 20
771.780773
 30
0.0
 11
336.316309
 21
785.329115
 31
0.0
  0
LINE
  5
442
330
421
100
AcDbEntity
  8
LC-001-100-D00-0
 62
     7
370
    -2
100
AcDbLine
 10
318.277839
 20
771.780773
 30
0.0
 11
332.860708
 21
786.363642
 31
0.0
  0
LINE
  5
443
330
421
100
AcDbEntity
  8
LC-001-100-D00-0
 62
     7
370
    -2
100
AcDbLine
 10
313.787711
 20
771.780773
 30
0.0
 11
328.587711
 21
786.580773
 31
0.0
  0
LINE
  5
444
330
421
100
AcDbEntity
  8
LC-001-100-D00-0
 62
     7
370
    -2
100
AcDbLine
 10
309.297583
 20
771.780773
 30
0.0
 11
324.097583
 21
786.580773
 31
0.0
  0
LINE
  5
445
330
421
100
AcDbEntity
  8
LC-001-100-D00-0
 62
     7
370
    -2
100
AcDbLine
 10
304.807455
 20
771.780773
 30
0.0
 11
319.607455
 21
786.580773
 31
0.0
  0
LINE
  5
446
330
421
100
AcDbEntity
  8
LC-001-100-D00-0
 62
     7
370
    -2
100
AcDbLine
 10
300.317327
 20
771.780773
 30
0.0
 11
315.117327
 21
786.580773
 31
0.0
  0
LINE
  5
447
330
421
100
AcDbEntity
  8
LC-001-100-D00-0
 62
     7
370
    -2
100
AcDbLine
 10
206.845488
 20
682.799062
 30
0.0
 11
210.869135
 21
686.82271
 31
0.0
  0
LINE
  5
448
330
421
100
AcDbEntity
  8
LC-001-100-D00-0
 62
     7
370
    -2
100
AcDbLine
 10
295.827199
 20
771.780773
 30
0.0
 11
310.727199
 21
786.680773
 31
0.0
  0
LINE
  5
449
330
421
100
AcDbEntity
  8
LC-001-100-D00-0
 62
     7
370
    -2
100
AcDbLine
 10
207.969135
 20
688.412838
 30
0.0
 11
210.869135
 21
691.312838
 31
0.0
  0
LINE
  5
44A
330
421
100
AcDbEntity
  8
LC-001-100-D00-0
 62
     7
370
    -2
100
AcDbLine
 10
291.337071
 20
771.780773
 30
0.0
 11
306.236127
 21
786.67983
 31
0.0
  0
LINE
  5
44B
330
421
100
AcDbEntity
  8
LC-001-100-D00-0
 62
     7
370
    -2
100
AcDbLine
 10
207.969135
 20
692.902966
 30
0.0
 11
210.869135
 21
695.802966
 31
0.0
  0
LINE
  5
44C
330
421
100
AcDbEntity
  8
LC-001-100-D00-0
 62
     7
370
    -2
100
AcDbLine
 10
286.846943
 20
771.780773
 30
0.0
 11
301.646943
 21
786.580773
 31
0.0
  0
LINE
  5
44D
330
421
100
AcDbEntity
  8
LC-001-100-D00-0
 62
     7
370
    -2
100
AcDbLine
 10
207.969135
 20
697.393094
 30
0.0
 11
210.869135
 21
700.293094
 31
0.0
  0
LINE
  5
44E
330
421
100
AcDbEntity
  8
LC-001-100-D00-0
 62
     7
370
    -2
100
AcDbLine
 10
282.356815
 20
771.780773
 30
0.0
 11
297.256815
 21
786.680773
 31
0.0
  0
LINE
  5
44F
330
421
100
AcDbEntity
  8
LC-001-100-D00-0
 62
     7
370
    -2
100
AcDbLine
 10
207.969135
 20
701.883222
 30
0.0
 11
211.369135
 21
705.283222
 31
0.0
  0
LINE
  5
450
330
421
100
AcDbEntity
  8
LC-001-100-D00-0
 62
     7
370
    -2
100
AcDbLine
 10
277.866687
 20
771.780773
 30
0.0
 11
292.666687
 21
786.580773
 31
0.0
  0
LINE
  5
451
330
421
100
AcDbEntity
  8
LC-001-100-D00-0
 62
     7
370
    -2
100
AcDbLine
 10
207.969135
 20
706.37335
 30
0.0
 11
211.369135
 21
709.77335
 31
0.0
  0
LINE
  5
452
330
421
100
AcDbEntity
  8
LC-001-100-D00-0
 62
     7
370
    -2
100
AcDbLine
 10
273.376559
 20
771.780773
 30
0.0
 11
288.176559
 21
786.580773
 31
0.0
  0
LINE
  5
453
330
421
100
AcDbEntity
  8
LC-001-100-D00-0
 62
     7
370
    -2
100
AcDbLine
 10
207.969135
 20
710.863478
 30
0.0
 11
212.90491
 21
715.799253
 31
0.0
  0
LINE
  5
454
330
421
100
AcDbEntity
  8
LC-001-100-D00-0
 62
     7
370
    -2
100
AcDbLine
 10
268.886431
 20
771.780773
 30
0.0
 11
283.686431
 21
786.580773
 31
0.0
  0
LINE
  5
455
330
421
100
AcDbEntity
  8
LC-001-100-D00-0
 62
     7
370
    -2
100
AcDbLine
 10
204.196297
 20
711.580767
 30
0.0
 11
215.474401
 21
722.858871
 31
0.0
  0
LINE
  5
456
330
421
100
AcDbEntity
  8
LC-001-100-D00-0
 62
     7
370
    -2
100
AcDbLine
 10
264.396303
 20
771.780773
 30
0.0
 11
279.196303
 21
786.580773
 31
0.0
  0
LINE
  5
457
330
421
100
AcDbEntity
  8
LC-001-100-D00-0
 62
     7
370
    -2
100
AcDbLine
 10
199.706168
 20
711.580767
 30
0.0
 11
218.043891
 21
729.91849
 31
0.0
  0
LINE
  5
458
330
421
100
AcDbEntity
  8
LC-001-100-D00-0
 62
     7
370
    -2
100
AcDbLine
 10
259.906174
 20
771.780773
 30
0.0
 11
274.706174
 21
786.580773
 31
0.0
  0
LINE
  5
459
330
421
100
AcDbEntity
  8
LC-001-100-D00-0
 62
     7
370
    -2
100
AcDbLine
 10
196.765203
 20
713.12993
 30
0.0
 11
220.613382
 21
736.978109
 31
0.0
  0
LINE
  5
45A
330
421
100
AcDbEntity
  8
LC-001-100-D00-0
 62
     7
370
    -2
100
AcDbLine
 10
255.416046
 20
771.780773
 30
0.0
 11
270.216046
 21
786.580773
 31
0.0
  0
LINE
  5
45B
330
421
100
AcDbEntity
  8
LC-001-100-D00-0
 62
     7
370
    -2
100
AcDbLine
 10
198.420141
 20
719.274996
 30
0.0
 11
223.182872
 21
744.037727
 31
0.0
  0
LINE
  5
45C
330
421
100
AcDbEntity
  8
LC-001-100-D00-0
 62
     7
370
    -2
100
AcDbLine
 10
225.325978
 20
746.180833
 30
0.0
 11
225.669135
 21
746.52399
 31
0.0
  0
LINE
  5
45D
330
421
100
AcDbEntity
  8
LC-001-100-D00-0
 62
     7
370
    -2
100
AcDbLine
 10
250.925918
 20
771.780773
 30
0.0
 11
265.725918
 21
786.580773
 31
0.0
  0
LINE
  5
45E
330
421
100
AcDbEntity
  8
LC-001-100-D00-0
 62
     7
370
    -2
100
AcDbLine
 10
200.989632
 20
726.334616
 30
0.0
 11
225.752363
 21
751.097346
 31
0.0
  0
LINE
  5
45F
330
421
100
AcDbEntity
  8
LC-001-100-D00-0
 62
     7
370
    -2
100
AcDbLine
 10
246.43579
 20
771.780773
 30
0.0
 11
261.23579
 21
786.580773
 31
0.0
  0
LINE
  5
460
330
421
100
AcDbEntity
  8
LC-001-100-D00-0
 62
     7
370
    -2
100
AcDbLine
 10
203.559124
 20
733.394235
 30
0.0
 11
228.321853
 21
758.156965
 31
0.0
  0
LINE
  5
461
330
421
100
AcDbEntity
  8
LC-001-100-D00-0
 62
     7
370
    -2
100
AcDbLine
 10
241.945662
 20
771.780773
 30
0.0
 11
256.745662
 21
786.580773
 31
0.0
  0
LINE
  5
462
330
421
100
AcDbEntity
  8
LC-001-100-D00-0
 62
     7
370
    -2
100
AcDbLine
 10
206.128615
 20
740.453854
 30
0.0
 11
230.891344
 21
765.216583
 31
0.0
  0
LINE
  5
463
330
421
100
AcDbEntity
  8
LC-001-100-D00-0
 62
     7
370
    -2
100
AcDbLine
 10
237.455534
 20
771.780773
 30
0.0
 11
252.255534
 21
786.580773
 31
0.0
  0
LINE
  5
464
330
421
100
AcDbEntity
  8
LC-001-100-D00-0
 62
     7
370
    -2
100
AcDbLine
 10
208.698106
 20
747.513474
 30
0.0
 11
247.765406
 21
786.580773
 31
0.0
  0
LINE
  5
465
330
421
100
AcDbEntity
  8
LC-001-100-D00-0
 62
     7
370
    -2
100
AcDbLine
 10
211.267598
 20
754.573093
 30
0.0
 11
243.275278
 21
786.580773
 31
0.0
  0
LINE
  5
466
330
421
100
AcDbEntity
  8
LC-001-100-D00-0
 62
     7
370
    -2
100
AcDbLine
 10
213.837089
 20
761.632712
 30
0.0
 11
238.78515
 21
786.580773
 31
0.0
  0
LINE
  5
467
330
421
100
AcDbEntity
  8
LC-001-100-D00-0
 62
     7
370
    -2
100
AcDbLine
 10
216.40658
 20
768.692332
 30
0.0
 11
234.295022
 21
786.580773
 31
0.0
  0
LINE
  5
468
330
421
100
AcDbEntity
  8
LC-001-100-D00-0
 62
     7
370
    -2
100
AcDbLine
 10
218.976071
 20
775.751951
 30
0.0
 11
229.19842
 21
785.974299
 31
0.0
  0
ENDBLK
  5
423
330
421
100
AcDbEntity
  8
0
100
AcDbBlockEnd
  0
BLOCK
  5
47B
330
471
100
AcDbEntity
  8
0
100
AcDbBlockBegin
  2
*D23
 70
     1
 71
     0
 10
0.0
 20
0.0
 30
0.0
  3
*D23
  1

  0
LINE
  5
472
330
471
100
AcDbEntity
  8
LC-002-003-----0
 62
     2
370
    -2
100
AcDbLine
 10
101.869135
 20
708.58077
 30
0.0
 11
101.869135
 21
812.838138
 31
0.0
  0
LINE
  5
473
330
471
100
AcDbEntity
  8
LC-002-003-----0
 62
     2
370
    -2
100
AcDbLine
 10
461.869134
 20
708.58077
 30
0.0
 11
461.869134
 21
812.838138
 31
0.0
  0
LINE
  5
474
330
471
100
AcDbEntity
  8
LC-002-003-----0
 62
     2
370
    -2
100
AcDbLine
 10
129.869135
 20
809.238138
 30
0.0
 11
433.869134
 21
809.238138
 31
0.0
  0
SOLID
  5
475
330
471
100
AcDbEntity
  8
LC-002-003-----0
 62
     2
100
AcDbTrace
 10
129.869135
 20
813.904805
 30
0.0
 11
129.869135
 21
804.571472
 31
0.0
 12
101.869135
 22
809.238138
 32
0.0
 13
101.869135
 23
809.238138
 33
0.0
  0
SOLID
  5
476
330
471
100
AcDbEntity
  8
LC-002-003-----0
 62
     2
100
AcDbTrace
 10
433.869134
 20
804.571472
 30
0.0
 11
433.869134
 21
813.904805
 31
0.0
 12
461.869134
 22
809.238138
 32
0.0
 13
461.869134
 23
809.238138
 33
0.0
  0
MTEXT
  5
477
330
471
100
AcDbEntity
  8
LC-002-003-----0
 62
     2
100
AcDbMText
 10
280.732324
 20
840.038138
 30
0.0
 40
28.0
 41
0.0
 71
     5
 72
     1
  1
%%c\A1;360
  7
LCTX15-400-0-0pDIN-Schrift
 73
     1
 44
1.0
  0
POINT
  5
478
330
471
100
AcDbEntity
  8
Defpoints
 62
     0
100
AcDbPoint
 10
101.869135
 20
708.58077
 30
0.0
  0
POINT
  5
479
330
471
100
AcDbEntity
  8
Defpoints
 62
     0
100
AcDbPoint
 10
461.869134
 20
708.58077
 30
0.0
  0
POINT
  5
47A
330
471
100
AcDbEntity
  8
Defpoints
 62
     0
100
AcDbPoint
 10
461.869134
 20
809.238138
 30
0.0
  0
ENDBLK
  5
47C
330
471
100
AcDbEntity
  8
0
100
AcDbBlockEnd
  0
BLOCK
  5
488
330
47E
100
AcDbEntity
  8
0
100
AcDbBlockBegin
  2
*D24
 70
     1
 71
     0
 10
0.0
 20
0.0
 30
0.0
  3
*D24
  1

  0
LINE
  5
47F
330
47E
100
AcDbEntity
  8
LC-002-003-----0
 62
     2
370
    -2
100
AcDbLine
 10
201.869136
 20
624.580768
 30
0.0
 11
201.869136
 21
386.274138
 31
0.0
  0
LINE
  5
480
330
47E
100
AcDbEntity
  8
LC-002-003-----0
 62
     2
370
    -2
100
AcDbLine
 10
361.869133
 20
624.580768
 30
0.0
 11
361.869133
 21
386.274138
 31
0.0
  0
LINE
  5
481
330
47E
100
AcDbEntity
  8
LC-002-003-----0
 62
     2
370
    -2
100
AcDbLine
 10
229.869136
 20
389.874138
 30
0.0
 11
333.869133
 21
389.874138
 31
0.0
  0
SOLID
  5
482
330
47E
100
AcDbEntity
  8
LC-002-003-----0
 62
     2
100
AcDbTrace
 10
229.869136
 20
394.540805
 30
0.0
 11
229.869136
 21
385.207472
 31
0.0
 12
201.869136
 22
389.874138
 32
0.0
 13
201.869136
 23
389.874138
 33
0.0
  0
SOLID
  5
483
330
47E
100
AcDbEntity
  8
LC-002-003-----0
 62
     2
100
AcDbTrace
 10
333.869133
 20
385.207472
 30
0.0
 11
333.869133
 21
394.540805
 31
0.0
 12
361.869133
 22
389.874138
 32
0.0
 13
361.869133
 23
389.874138
 33
0.0
  0
MTEXT
  5
484
330
47E
100
AcDbEntity
  8
LC-002-003-----0
 62
     2
100
AcDbMText
 10
275.425977
 20
420.674138
 30
0.0
 40
28.0
 41
0.0
 71
     5
 72
     1
  1
%%c\A1;160
  7
LCTX15-400-0-0pDIN-Schrift
 73
     1
 44
1.0
  0
POINT
  5
485
330
47E
100
AcDbEntity
  8
Defpoints
 62
     0
100
AcDbPoint
 10
201.869136
 20
624.580768
 30
0.0
  0
POINT
  5
486
330
47E
100
AcDbEntity
  8
Defpoints
 62
     0
100
AcDbPoint
 10
361.869133
 20
624.580768
 30
0.0
  0
POINT
  5
487
330
47E
100
AcDbEntity
  8
Defpoints
 62
     0
100
AcDbPoint
 10
361.869133
 20
389.874138
 30
0.0
  0
ENDBLK
  5
489
330
47E
100
AcDbEntity
  8
0
100
AcDbBlockEnd
  0
BLOCK
  5
495
330
48B
100
AcDbEntity
  8
0
100
AcDbBlockBegin
  2
*D25
 70
     1
 71
     0
 10
0.0
 20
0.0
 30
0.0
  3
*D25
  1

  0
LINE
  5
48C
330
48B
100
AcDbEntity
  8
LC-002-003-----0
 62
     2
370
    -2
100
AcDbLine
 10
244.369135
 20
500.306435
 30
0.0
 11
244.369135
 21
451.614138
 31
0.0
  0
LINE
  5
48D
330
48B
100
AcDbEntity
  8
LC-002-003-----0
 62
     2
370
    -2
100
AcDbLine
 10
319.369136
 20
500.080765
 30
0.0
 11
319.369136
 21
451.614138
 31
0.0
  0
LINE
  5
48E
330
48B
100
AcDbEntity
  8
LC-002-003-----0
 62
     2
370
    -2
100
AcDbLine
 10
272.369135
 20
455.214138
 30
0.0
 11
291.369136
 21
455.214138
 31
0.0
  0
SOLID
  5
48F
330
48B
100
AcDbEntity
  8
LC-002-003-----0
 62
     2
100
AcDbTrace
 10
272.369135
 20
459.880805
 30
0.0
 11
272.369135
 21
450.547472
 31
0.0
 12
244.369135
 22
455.214138
 32
0.0
 13
244.369135
 23
455.214138
 33
0.0
  0
SOLID
  5
490
330
48B
100
AcDbEntity
  8
LC-002-003-----0
 62
     2
100
AcDbTrace
 10
291.369136
 20
450.547472
 30
0.0
 11
291.369136
 21
459.880805
 31
0.0
 12
319.369136
 22
455.214138
 32
0.0
 13
319.369136
 23
455.214138
 33
0.0
  0
MTEXT
  5
491
330
48B
100
AcDbEntity
  8
LC-002-003-----0
 62
     2
100
AcDbMText
 10
283.385497
 20
486.014138
 30
0.0
 40
28.0
 41
0.0
 71
     5
 72
     1
  1
\A1;DN70
  7
LCTX15-400-0-0pDIN-Schrift
 73
     1
 44
1.0
  0
POINT
  5
492
330
48B
100
AcDbEntity
  8
Defpoints
 62
     0
100
AcDbPoint
 10
244.369135
 20
500.306435
 30
0.0
  0
POINT
  5
493
330
48B
100
AcDbEntity
  8
Defpoints
 62
     0
100
AcDbPoint
 10
319.369136
 20
500.080765
 30
0.0
  0
POINT
  5
494
330
48B
100
AcDbEntity
  8
Defpoints
 62
     0
100
AcDbPoint
 10
319.369136
 20
455.214138
 30
0.0
  0
ENDBLK
  5
496
330
48B
100
AcDbEntity
  8
0
100
AcDbBlockEnd
  0
BLOCK
  5
4A2
330
498
100
AcDbEntity
  8
0
100
AcDbBlockBegin
  2
*D26
 70
     1
 71
     0
 10
0.0
 20
0.0
 30
0.0
  3
*D26
  1

  0
LINE
  5
499
330
498
100
AcDbEntity
  8
LC-002-003-----0
 62
     2
370
    -2
100
AcDbLine
 10
101.869135
 20
708.58077
 30
0.0
 11
120.719974
 21
708.58077
 31
0.0
  0
LINE
  5
49A
330
498
100
AcDbEntity
  8
LC-002-003-----0
 62
     2
370
    -2
100
AcDbLine
 10
209.869138
 20
614.580767
 30
0.0
 11
113.519974
 21
614.580767
 31
0.0
  0
LINE
  5
49B
330
498
100
AcDbEntity
  8
LC-002-003-----0
 62
     2
370
    -2
100
AcDbLine
 10
117.119974
 20
680.58077
 30
0.0
 11
117.119974
 21
642.580767
 31
0.0
  0
SOLID
  5
49C
330
498
100
AcDbEntity
  8
LC-002-003-----0
 62
     2
100
AcDbTrace
 10
121.786641
 20
680.58077
 30
0.0
 11
112.453308
 21
680.58077
 31
0.0
 12
117.119974
 22
708.58077
 32
0.0
 13
117.119974
 23
708.58077
 33
0.0
  0
SOLID
  5
49D
330
498
100
AcDbEntity
  8
LC-002-003-----0
 62
     2
100
AcDbTrace
 10
112.453308
 20
642.580767
 30
0.0
 11
121.786641
 21
642.580767
 31
0.0
 12
117.119974
 22
614.580767
 32
0.0
 13
117.119974
 23
614.580767
 33
0.0
  0
MTEXT
  5
49E
330
498
100
AcDbEntity
  8
LC-002-003-----0
 62
     2
100
AcDbMText
 10
86.319974
 20
666.084138
 30
0.0
 40
28.0
 41
0.0
 71
     5
 72
     1
  1
\A1;94
  7
LCTX15-400-0-0pDIN-Schrift
 11
6.123031769111886E-17
 21
1.0
 31
0.0
 73
     1
 44
1.0
  0
POINT
  5
49F
330
498
100
AcDbEntity
  8
Defpoints
 62
     0
100
AcDbPoint
 10
101.869135
 20
708.58077
 30
0.0
  0
POINT
  5
4A0
330
498
100
AcDbEntity
  8
Defpoints
 62
     0
100
AcDbPoint
 10
209.869138
 20
614.580767
 30
0.0
  0
POINT
  5
4A1
330
498
100
AcDbEntity
  8
Defpoints
 62
     0
100
AcDbPoint
 10
117.119974
 20
614.580767
 30
0.0
  0
ENDBLK
  5
4A3
330
498
100
AcDbEntity
  8
0
100
AcDbBlockEnd
  0
BLOCK
  5
4AF
330
4A5
100
AcDbEntity
  8
0
100
AcDbBlockBegin
  2
*D27
 70
     1
 71
     0
 10
0.0
 20
0.0
 30
0.0
  3
*D27
  1

  0
LINE
  5
4A6
330
4A5
100
AcDbEntity
  8
LC-002-003-----0
 62
     2
370
    -2
100
AcDbLine
 10
209.340229
 20
614.59827
 30
0.0
 11
113.718819
 21
614.59827
 31
0.0
  0
LINE
  5
4A7
330
4A5
100
AcDbEntity
  8
LC-002-003-----0
 62
     2
370
    -2
100
AcDbLine
 10
245.708882
 20
495.08077
 30
0.0
 11
113.718819
 21
495.08077
 31
0.0
  0
LINE
  5
4A8
330
4A5
100
AcDbEntity
  8
LC-002-003-----0
 62
     2
370
    -2
100
AcDbLine
 10
117.318819
 20
586.59827
 30
0.0
 11
117.318819
 21
523.08077
 31
0.0
  0
SOLID
  5
4A9
330
4A5
100
AcDbEntity
  8
LC-002-003-----0
 62
     2
100
AcDbTrace
 10
121.985485
 20
586.59827
 30
0.0
 11
112.652152
 21
586.59827
 31
0.0
 12
117.318819
 22
614.59827
 32
0.0
 13
117.318819
 23
614.59827
 33
0.0
  0
SOLID
  5
4AA
330
4A5
100
AcDbEntity
  8
LC-002-003-----0
 62
     2
100
AcDbTrace
 10
112.652152
 20
523.08077
 30
0.0
 11
121.985485
 21
523.08077
 31
0.0
 12
117.318819
 22
495.08077
 32
0.0
 13
117.318819
 23
495.08077
 33
0.0
  0
MTEXT
  5
4AB
330
4A5
100
AcDbEntity
  8
LC-002-003-----0
 62
     2
100
AcDbMText
 10
86.518819
 20
566.892906
 30
0.0
 40
28.0
 41
0.0
 71
     5
 72
     1
  1
\A1;119,5
  7
LCTX15-400-0-0pDIN-Schrift
 11
6.123031769111886E-17
 21
1.0
 31
0.0
 73
     1
 44
1.0
  0
POINT
  5
4AC
330
4A5
100
AcDbEntity
  8
Defpoints
 62
     0
100
AcDbPoint
 10
209.340229
 20
614.59827
 30
0.0
  0
POINT
  5
4AD
330
4A5
100
AcDbEntity
  8
Defpoints
 62
     0
100
AcDbPoint
 10
245.708882
 20
495.08077
 30
0.0
  0
POINT
  5
4AE
330
4A5
100
AcDbEntity
  8
Defpoints
 62
     0
100
AcDbPoint
 10
117.318819
 20
495.08077
 30
0.0
  0
ENDBLK
  5
4B0
330
4A5
100
AcDbEntity
  8
0
100
AcDbBlockEnd
  0
ENDSEC
  0
SECTION
  2
ENTITIES
  0
ARC
  5
32
330
1F
100
AcDbEntity
  8
LC-001-100-D00-0
 62
     7
370
    15
100
AcDbCircle
 10
207.469135
 20
683.580767
 30
0.0
 40
1.0
100
AcDbArc
 50
180.0
 51
270.0
  0
LINE
  5
33
330
1F
100
AcDbEntity
  8
LC-001-100-D00-0
 62
     7
370
    15
100
AcDbLine
 10
338.069136
 20
750.868686
 30
0.0
 11
330.317716
 21
772.16553
 31
0.0
  0
LINE
  5
34
330
1F
100
AcDbEntity
  8
LC-001-100-D00-0
 62
     7
370
    15
100
AcDbLine
 10
330.317716
 20
772.16553
 30
0.0
 11
330.317716
 21
771.780767
 31
0.0
  0
LINE
  5
35
330
1F
100
AcDbEntity
  8
LC-001-100-D00-0
 62
     7
370
    15
100
AcDbLine
 10
330.317716
 20
771.780767
 30
0.0
 11
233.420553
 21
771.780767
 31
0.0
  0
LINE
  5
36
330
1F
100
AcDbEntity
  8
LC-001-100-D00-0
 62
     7
370
    15
100
AcDbLine
 10
233.420553
 20
771.780767
 30
0.0
 11
233.420553
 21
772.16553
 31
0.0
  0
LINE
  5
37
330
1F
100
AcDbEntity
  8
LC-001-100-D00-0
 62
     7
370
    15
100
AcDbLine
 10
233.420553
 20
772.16553
 30
0.0
 11
225.669137
 21
750.868686
 31
0.0
  0
LINE
  5
38
330
1F
100
AcDbEntity
  8
LC-001-100-D00-0
 62
     7
370
    15
100
AcDbLine
 10
225.669137
 20
750.868686
 30
0.0
 11
225.669137
 21
746.180826
 31
0.0
  0
LINE
  5
39
330
1F
100
AcDbEntity
  8
LC-001-100-D00-0
 62
     7
370
    15
100
AcDbLine
 10
225.669137
 20
746.180826
 30
0.0
 11
223.962902
 21
746.180826
 31
0.0
  0
LINE
  5
3A
330
1F
100
AcDbEntity
  8
LC-001-100-D00-0
 62
     7
370
    15
100
AcDbLine
 10
223.962902
 20
746.180826
 30
0.0
 11
211.369506
 21
711.580769
 31
0.0
  0
LINE
  5
3B
330
1F
100
AcDbEntity
  8
LC-001-100-D00-0
 62
     7
370
    15
100
AcDbLine
 10
211.369506
 20
711.580769
 30
0.0
 11
211.369133
 21
711.580769
 31
0.0
  0
LINE
  5
3C
330
1F
100
AcDbEntity
  8
LC-001-100-D00-0
 62
     7
370
    15
100
AcDbLine
 10
211.369133
 20
703.880765
 30
0.0
 11
211.369133
 21
711.580769
 31
0.0
  0
LINE
  5
3D
330
1F
100
AcDbEntity
  8
LC-001-100-D00-0
 62
     7
370
    15
100
AcDbLine
 10
210.869132
 20
703.880765
 30
0.0
 11
211.369133
 21
703.880765
 31
0.0
  0
LINE
  5
3E
330
1F
100
AcDbEntity
  8
LC-001-100-D00-0
 62
     7
370
    15
100
AcDbLine
 10
210.869132
 20
682.58077
 30
0.0
 11
210.869132
 21
703.880765
 31
0.0
  0
ARC
  5
3F
330
1F
100
AcDbEntity
  8
LC-001-100-D00-0
 62
     7
370
    15
100
AcDbCircle
 10
207.469135
 20
683.580767
 30
0.0
 40
1.0
100
AcDbArc
 50
90.0
 51
180.0
  0
LINE
  5
40
330
1F
100
AcDbEntity
  8
LC-001-100-D00-0
 62
     7
370
    15
100
AcDbLine
 10
207.469134
 20
684.580766
 30
0.0
 11
207.969135
 21
684.580766
 31
0.0
  0
LINE
  5
41
330
1F
100
AcDbEntity
  8
LC-001-100-D00-0
 62
     7
370
    15
100
AcDbLine
 10
207.969135
 20
684.580766
 30
0.0
 11
207.969135
 21
711.580769
 31
0.0
  0
LINE
  5
42
330
1F
100
AcDbEntity
  8
LC-001-100-D00-0
 62
     7
370
    15
100
AcDbLine
 10
207.969135
 20
711.580769
 30
0.0
 11
199.476241
 21
711.580769
 31
0.0
  0
LINE
  5
43
330
1F
100
AcDbEntity
  8
LC-001-100-D00-0
 62
     7
370
    15
100
AcDbLine
 10
196.283667
 20
713.405088
 30
0.0
 11
199.476241
 21
711.580769
 31
0.0
  0
LINE
  5
44
330
1F
100
AcDbEntity
  8
LC-001-100-D00-0
 62
     7
370
    15
100
AcDbLine
 10
219.325161
 20
776.71107
 30
0.0
 11
196.283667
 21
713.405088
 31
0.0
  0
ARC
  5
45
330
1F
100
AcDbEntity
  8
LC-001-100-D00-0
 62
     7
370
    15
100
AcDbCircle
 10
233.420553
 20
771.580773
 30
0.0
 40
15.0
100
AcDbArc
 50
90.0
 51
160.0
  0
LINE
  5
46
330
1F
100
AcDbEntity
  8
LC-001-100-D00-0
 62
     7
370
    15
100
AcDbLine
 10
233.420553
 20
786.580779
 30
0.0
 11
293.6714
 21
786.580779
 31
0.0
  0
LINE
  5
47
330
1F
100
AcDbEntity
  8
LC-001-100-D00-0
 62
     7
370
    15
100
AcDbLine
 10
293.6714
 20
786.580779
 30
0.0
 11
293.6714
 21
786.680766
 31
0.0
  0
LINE
  5
48
330
1F
100
AcDbEntity
  8
LC-001-100-D00-0
 62
     7
370
    15
100
AcDbLine
 10
294.497454
 20
786.680766
 30
0.0
 11
293.6714
 21
786.680766
 31
0.0
  0
LINE
  5
49
330
1F
100
AcDbEntity
  8
LC-001-100-D00-0
 62
     7
370
    15
100
AcDbLine
 10
294.497454
 20
786.580779
 30
0.0
 11
294.497454
 21
786.680766
 31
0.0
  0
LINE
  5
4A
330
1F
100
AcDbEntity
  8
LC-001-100-D00-0
 62
     7
370
    15
100
AcDbLine
 10
294.497454
 20
786.580779
 30
0.0
 11
295.075076
 21
786.580779
 31
0.0
  0
LINE
  5
4B
330
1F
100
AcDbEntity
  8
LC-001-100-D00-0
 62
     7
370
    15
100
AcDbLine
 10
295.075076
 20
786.680766
 30
0.0
 11
295.075076
 21
786.580779
 31
0.0
  0
LINE
  5
4C
330
1F
100
AcDbEntity
  8
LC-001-100-D00-0
 62
     7
370
    15
100
AcDbLine
 10
295.814178
 20
786.680766
 30
0.0
 11
295.075076
 21
786.680766
 31
0.0
  0
LINE
  5
4D
330
1F
100
AcDbEntity
  8
LC-001-100-D00-0
 62
     7
370
    15
100
AcDbLine
 10
295.814178
 20
786.680766
 30
0.0
 11
295.814178
 21
786.580779
 31
0.0
  0
LINE
  5
4E
330
1F
100
AcDbEntity
  8
LC-001-100-D00-0
 62
     7
370
    15
100
AcDbLine
 10
295.814178
 20
786.580779
 30
0.0
 11
296.193041
 21
786.580779
 31
0.0
  0
LINE
  5
4F
330
1F
100
AcDbEntity
  8
LC-001-100-D00-0
 62
     7
370
    15
100
AcDbLine
 10
296.193041
 20
786.580779
 30
0.0
 11
296.193041
 21
786.680766
 31
0.0
  0
LINE
  5
50
330
1F
100
AcDbEntity
  8
LC-001-100-D00-0
 62
     7
370
    15
100
AcDbLine
 10
298.540774
 20
786.680766
 30
0.0
 11
296.193041
 21
786.680766
 31
0.0
  0
LINE
  5
51
330
1F
100
AcDbEntity
  8
LC-001-100-D00-0
 62
     7
370
    15
100
AcDbLine
 10
298.540774
 20
786.680766
 30
0.0
 11
298.540774
 21
786.580779
 31
0.0
  0
LINE
  5
52
330
1F
100
AcDbEntity
  8
LC-001-100-D00-0
 62
     7
370
    15
100
AcDbLine
 10
298.540774
 20
786.580779
 30
0.0
 11
298.975541
 21
786.580779
 31
0.0
  0
LINE
  5
53
330
1F
100
AcDbEntity
  8
LC-001-100-D00-0
 62
     7
370
    15
100
AcDbLine
 10
298.975541
 20
786.580779
 30
0.0
 11
298.975541
 21
786.680766
 31
0.0
  0
LINE
  5
54
330
1F
100
AcDbEntity
  8
LC-001-100-D00-0
 62
     7
370
    15
100
AcDbLine
 10
298.975541
 20
786.680766
 30
0.0
 11
299.758119
 21
786.680766
 31
0.0
  0
LINE
  5
55
330
1F
100
AcDbEntity
  8
LC-001-100-D00-0
 62
     7
370
    15
100
AcDbLine
 10
299.758119
 20
786.680766
 30
0.0
 11
299.758119
 21
786.580779
 31
0.0
  0
LINE
  5
56
330
1F
100
AcDbEntity
  8
LC-001-100-D00-0
 62
     7
370
    15
100
AcDbLine
 10
299.758119
 20
786.580779
 30
0.0
 11
300.845033
 21
786.580779
 31
0.0
  0
LINE
  5
57
330
1F
100
AcDbEntity
  8
LC-001-100-D00-0
 62
     7
370
    15
100
AcDbLine
 10
300.845033
 20
786.580779
 30
0.0
 11
300.845033
 21
786.680766
 31
0.0
  0
LINE
  5
58
330
1F
100
AcDbEntity
  8
LC-001-100-D00-0
 62
     7
370
    15
100
AcDbLine
 10
300.845033
 20
786.680766
 30
0.0
 11
301.627612
 21
786.680766
 31
0.0
  0
LINE
  5
59
330
1F
100
AcDbEntity
  8
LC-001-100-D00-0
 62
     7
370
    15
100
AcDbLine
 10
301.627612
 20
786.680766
 30
0.0
 11
301.627612
 21
786.580779
 31
0.0
  0
LINE
  5
5A
330
1F
100
AcDbEntity
  8
LC-001-100-D00-0
 62
     7
370
    15
100
AcDbLine
 10
301.627612
 20
786.580779
 30
0.0
 11
302.714526
 21
786.580779
 31
0.0
  0
LINE
  5
5B
330
1F
100
AcDbEntity
  8
LC-001-100-D00-0
 62
     7
370
    15
100
AcDbLine
 10
302.714526
 20
786.580779
 30
0.0
 11
302.714526
 21
786.680766
 31
0.0
  0
LINE
  5
5C
330
1F
100
AcDbEntity
  8
LC-001-100-D00-0
 62
     7
370
    15
100
AcDbLine
 10
303.497104
 20
786.680766
 30
0.0
 11
302.714526
 21
786.680766
 31
0.0
  0
LINE
  5
5D
330
1F
100
AcDbEntity
  8
LC-001-100-D00-0
 62
     7
370
    15
100
AcDbLine
 10
303.497104
 20
786.680766
 30
0.0
 11
303.497104
 21
786.580779
 31
0.0
  0
LINE
  5
5E
330
1F
100
AcDbEntity
  8
LC-001-100-D00-0
 62
     7
370
    15
100
AcDbLine
 10
303.497104
 20
786.580779
 30
0.0
 11
304.062299
 21
786.580779
 31
0.0
  0
LINE
  5
5F
330
1F
100
AcDbEntity
  8
LC-001-100-D00-0
 62
     7
370
    15
100
AcDbLine
 10
304.062299
 20
786.580779
 30
0.0
 11
304.062299
 21
786.680766
 31
0.0
  0
LINE
  5
60
330
1F
100
AcDbEntity
  8
LC-001-100-D00-0
 62
     7
370
    15
100
AcDbLine
 10
304.888354
 20
786.680766
 30
0.0
 11
304.062299
 21
786.680766
 31
0.0
  0
LINE
  5
61
330
1F
100
AcDbEntity
  8
LC-001-100-D00-0
 62
     7
370
    15
100
AcDbLine
 10
304.888354
 20
786.680766
 30
0.0
 11
304.888354
 21
786.580779
 31
0.0
  0
LINE
  5
62
330
1F
100
AcDbEntity
  8
LC-001-100-D00-0
 62
     7
370
    15
100
AcDbLine
 10
304.888354
 20
786.580779
 30
0.0
 11
305.45355
 21
786.580779
 31
0.0
  0
LINE
  5
63
330
1F
100
AcDbEntity
  8
LC-001-100-D00-0
 62
     7
370
    15
100
AcDbLine
 10
305.45355
 20
786.580779
 30
0.0
 11
305.45355
 21
786.680766
 31
0.0
  0
LINE
  5
64
330
1F
100
AcDbEntity
  8
LC-001-100-D00-0
 62
     7
370
    15
100
AcDbLine
 10
306.236128
 20
786.680766
 30
0.0
 11
305.45355
 21
786.680766
 31
0.0
  0
LINE
  5
65
330
1F
100
AcDbEntity
  8
LC-001-100-D00-0
 62
     7
370
    15
100
AcDbLine
 10
306.236128
 20
786.680766
 30
0.0
 11
306.236128
 21
786.580779
 31
0.0
  0
LINE
  5
66
330
1F
100
AcDbEntity
  8
LC-001-100-D00-0
 62
     7
370
    15
100
AcDbLine
 10
306.236128
 20
786.580779
 30
0.0
 11
306.583942
 21
786.580779
 31
0.0
  0
LINE
  5
67
330
1F
100
AcDbEntity
  8
LC-001-100-D00-0
 62
     7
370
    15
100
AcDbLine
 10
306.583942
 20
786.580779
 30
0.0
 11
306.583942
 21
786.680766
 31
0.0
  0
LINE
  5
68
330
1F
100
AcDbEntity
  8
LC-001-100-D00-0
 62
     7
370
    15
100
AcDbLine
 10
306.583942
 20
786.680766
 30
0.0
 11
308.49691
 21
786.680766
 31
0.0
  0
LINE
  5
69
330
1F
100
AcDbEntity
  8
LC-001-100-D00-0
 62
     7
370
    15
100
AcDbLine
 10
308.49691
 20
786.680766
 30
0.0
 11
308.49691
 21
786.580779
 31
0.0
  0
LINE
  5
6A
330
1F
100
AcDbEntity
  8
LC-001-100-D00-0
 62
     7
370
    15
100
AcDbLine
 10
308.49691
 20
786.580779
 30
0.0
 11
308.975151
 21
786.580779
 31
0.0
  0
LINE
  5
6B
330
1F
100
AcDbEntity
  8
LC-001-100-D00-0
 62
     7
370
    15
100
AcDbLine
 10
308.975151
 20
786.580779
 30
0.0
 11
308.975151
 21
786.680766
 31
0.0
  0
LINE
  5
6C
330
1F
100
AcDbEntity
  8
LC-001-100-D00-0
 62
     7
370
    15
100
AcDbLine
 10
311.298218
 20
786.680766
 30
0.0
 11
308.975151
 21
786.680766
 31
0.0
  0
LINE
  5
6D
330
1F
100
AcDbEntity
  8
LC-001-100-D00-0
 62
     7
370
    15
100
AcDbLine
 10
311.298218
 20
786.680766
 30
0.0
 11
311.298218
 21
786.580779
 31
0.0
  0
LINE
  5
6E
330
1F
100
AcDbEntity
  8
LC-001-100-D00-0
 62
     7
370
    15
100
AcDbLine
 10
311.298218
 20
786.580779
 30
0.0
 11
330.317716
 21
786.580779
 31
0.0
  0
ARC
  5
6F
330
1F
100
AcDbEntity
  8
LC-001-100-D00-0
 62
     7
370
    15
100
AcDbCircle
 10
330.317717
 20
771.580773
 30
0.0
 40
15.00000000000008
100
AcDbArc
 50
20.0
 51
90.0
  0
LINE
  5
70
330
1F
100
AcDbEntity
  8
LC-001-100-D00-0
 62
     7
370
    15
100
AcDbLine
 10
367.454602
 20
713.405088
 30
0.0
 11
344.413108
 21
776.71107
 31
0.0
  0
LINE
  5
71
330
1F
100
AcDbEntity
  8
LC-001-100-D00-0
 62
     7
370
    15
100
AcDbLine
 10
364.262036
 20
711.580769
 30
0.0
 11
367.454602
 21
713.405088
 31
0.0
  0
LINE
  5
72
330
1F
100
AcDbEntity
  8
LC-001-100-D00-0
 62
     7
370
    15
100
AcDbLine
 10
364.262036
 20
711.580769
 30
0.0
 11
355.769134
 21
711.580769
 31
0.0
  0
LINE
  5
73
330
1F
100
AcDbEntity
  8
LC-001-100-D00-0
 62
     7
370
    15
100
AcDbLine
 10
355.769134
 20
711.580769
 30
0.0
 11
355.769134
 21
684.580766
 31
0.0
  0
LINE
  5
74
330
1F
100
AcDbEntity
  8
LC-001-100-D00-0
 62
     7
370
    15
100
AcDbLine
 10
355.769134
 20
684.580766
 30
0.0
 11
356.269135
 21
684.580766
 31
0.0
  0
ARC
  5
75
330
1F
100
AcDbEntity
  8
LC-001-100-D00-0
 62
     7
370
    15
100
AcDbCircle
 10
356.269135
 20
683.580767
 30
0.0
 40
1.0
100
AcDbArc
 50
0.0
 51
90.0
  0
ARC
  5
76
330
1F
100
AcDbEntity
  8
LC-001-100-D00-0
 62
     7
370
    15
100
AcDbCircle
 10
356.269135
 20
683.580767
 30
0.0
 40
1.0
100
AcDbArc
 50
270.0
 51
0.0
  0
LINE
  5
77
330
1F
100
AcDbEntity
  8
LC-001-100-D00-0
 62
     7
370
    15
100
AcDbLine
 10
352.869137
 20
682.58077
 30
0.0
 11
356.269135
 21
682.58077
 31
0.0
  0
LINE
  5
78
330
1F
100
AcDbEntity
  8
LC-001-100-D00-0
 62
     7
370
    15
100
AcDbLine
 10
352.869137
 20
703.880765
 30
0.0
 11
352.869137
 21
682.58077
 31
0.0
  0
LINE
  5
79
330
1F
100
AcDbEntity
  8
LC-001-100-D00-0
 62
     7
370
    15
100
AcDbLine
 10
352.369136
 20
703.880765
 30
0.0
 11
352.869137
 21
703.880765
 31
0.0
  0
LINE
  5
7A
330
1F
100
AcDbEntity
  8
LC-001-100-D00-0
 62
     7
370
    15
100
AcDbLine
 10
352.369136
 20
711.580769
 30
0.0
 11
352.369136
 21
703.880765
 31
0.0
  0
LINE
  5
7B
330
1F
100
AcDbEntity
  8
LC-001-100-D00-0
 62
     7
370
    15
100
AcDbLine
 10
352.369136
 20
711.580769
 30
0.0
 11
352.368763
 21
711.580769
 31
0.0
  0
LINE
  5
7C
330
1F
100
AcDbEntity
  8
LC-001-100-D00-0
 62
     7
370
    15
100
AcDbLine
 10
352.368763
 20
711.580769
 30
0.0
 11
339.775371
 21
746.180826
 31
0.0
  0
LINE
  5
7D
330
1F
100
AcDbEntity
  8
LC-001-100-D00-0
 62
     7
370
    15
100
AcDbLine
 10
339.775371
 20
746.180826
 30
0.0
 11
338.069136
 21
746.180826
 31
0.0
  0
LINE
  5
7E
330
1F
100
AcDbEntity
  8
LC-001-100-D00-0
 62
     7
370
    15
100
AcDbLine
 10
338.069136
 20
746.180826
 30
0.0
 11
338.069136
 21
750.868686
 31
0.0
  0
LINE
  5
7F
330
1F
100
AcDbEntity
  8
LC-001-100-D00-0
 62
     7
370
    15
100
AcDbLine
 10
207.469134
 20
682.58077
 30
0.0
 11
210.869132
 21
682.58077
 31
0.0
  0
INSERT
  5
91
330
1F
100
AcDbEntity
  8
LC-001-100-D00-0
 62
     7
370
    15
100
AcDbBlockReference
  2
POLY1
 10
0.0
 20
0.0
 30
0.0
  0
LINE
  5
92
330
1F
100
AcDbEntity
  8
LC-001-100-D00-0
 62
     7
370
    15
100
AcDbLine
 10
211.85658
 20
702.880771
 30
0.0
 11
211.85658
 21
682.58077
 31
0.0
  0
LINE
  5
93
330
1F
100
AcDbEntity
  8
LC-001-100-D00-0
 62
     7
370
    15
100
AcDbLine
 10
210.869132
 20
682.58077
 30
0.0
 11
211.85658
 21
682.58077
 31
0.0
  0
LINE
  5
94
330
1F
100
AcDbEntity
  8
LC-001-100-D00-0
 62
     7
370
    15
100
AcDbLine
 10
351.881708
 20
682.58077
 30
0.0
 11
351.881708
 21
702.880771
 31
0.0
  0
INSERT
  5
A6
330
1F
100
AcDbEntity
  8
LC-001-100-D00-0
 62
     7
370
    15
100
AcDbBlockReference
  2
POLY2
 10
0.0
 20
0.0
 30
0.0
  0
LINE
  5
A7
330
1F
100
AcDbEntity
  8
LC-001-100-D00-0
 62
     7
370
    15
100
AcDbLine
 10
351.881708
 20
682.58077
 30
0.0
 11
352.869137
 21
682.58077
 31
0.0
  0
LINE
  5
A8
330
1F
100
AcDbEntity
  8
LC-001-100-D00-0
 62
     7
370
    15
100
AcDbLine
 10
211.369506
 20
711.580769
 30
0.0
 11
213.712468
 21
711.580769
 31
0.0
  0
LINE
  5
A9
330
1F
100
AcDbEntity
  8
LC-001-100-D00-0
 62
     7
370
    15
100
AcDbLine
 10
213.830984
 20
711.580769
 30
0.0
 11
220.700188
 21
711.580769
 31
0.0
  0
LINE
  5
AA
330
1F
100
AcDbEntity
  8
LC-001-100-D00-0
 62
     7
370
    15
100
AcDbLine
 10
220.929145
 20
711.580769
 30
0.0
 11
231.856475
 21
711.580769
 31
0.0
  0
LINE
  5
AB
330
1F
100
AcDbEntity
  8
LC-001-100-D00-0
 62
     7
370
    15
100
AcDbLine
 10
232.180266
 20
711.580769
 30
0.0
 11
246.421042
 21
711.580769
 31
0.0
  0
LINE
  5
AC
330
1F
100
AcDbEntity
  8
LC-001-100-D00-0
 62
     7
370
    15
100
AcDbLine
 10
246.817603
 20
711.580769
 30
0.0
 11
263.401338
 21
711.580769
 31
0.0
  0
LINE
  5
AD
330
1F
100
AcDbEntity
  8
LC-001-100-D00-0
 62
     7
370
    15
100
AcDbLine
 10
263.843641
 20
711.580769
 30
0.0
 11
281.640182
 21
711.580769
 31
0.0
  0
LINE
  5
AE
330
1F
100
AcDbEntity
  8
LC-001-100-D00-0
 62
     7
370
    15
100
AcDbLine
 10
282.098089
 20
711.580769
 30
0.0
 11
299.89463
 21
711.580769
 31
0.0
  0
LINE
  5
AF
330
1F
100
AcDbEntity
  8
LC-001-100-D00-0
 62
     7
370
    15
100
AcDbLine
 10
300.336933
 20
711.580769
 30
0.0
 11
316.92067
 21
711.580769
 31
0.0
  0
LINE
  5
B0
330
1F
100
AcDbEntity
  8
LC-001-100-D00-0
 62
     7
370
    15
100
AcDbLine
 10
317.317229
 20
711.580769
 30
0.0
 11
331.558007
 21
711.580769
 31
0.0
  0
LINE
  5
B1
330
1F
100
AcDbEntity
  8
LC-001-100-D00-0
 62
     7
370
    15
100
AcDbLine
 10
331.881794
 20
711.580769
 30
0.0
 11
342.809128
 21
711.580769
 31
0.0
  0
LINE
  5
B2
330
1F
100
AcDbEntity
  8
LC-001-100-D00-0
 62
     7
370
    15
100
AcDbLine
 10
343.038081
 20
711.580769
 30
0.0
 11
349.907289
 21
711.580769
 31
0.0
  0
LINE
  5
B3
330
1F
100
AcDbEntity
  8
LC-001-100-D00-0
 62
     7
370
    15
100
AcDbLine
 10
350.025805
 20
711.580769
 30
0.0
 11
352.368763
 21
711.580769
 31
0.0
  0
LINE
  5
B4
330
1F
100
AcDbEntity
  8
LC-001-100-D00-0
 62
     7
370
    15
100
AcDbLine
 10
211.369133
 20
703.880765
 30
0.0
 11
352.369136
 21
703.880765
 31
0.0
  0
LINE
  5
B5
330
1F
100
AcDbEntity
  8
LC-001-100-D00-0
 62
     7
370
    15
100
AcDbLine
 10
227.297826
 20
751.487546
 30
0.0
 11
225.894383
 21
751.487546
 31
0.0
  0
LINE
  5
B6
330
1F
100
AcDbEntity
  8
LC-001-100-D00-0
 62
     7
370
    15
100
AcDbLine
 10
227.297826
 20
751.487546
 30
0.0
 11
227.297826
 21
750.901007
 31
0.0
  0
ELLIPSE
  5
B7
330
1F
100
AcDbEntity
  8
LC-001-100-D00-0
 62
     7
370
    15
100
AcDbEllipse
 10
281.869135
 20
905.276943
 30
0.0
 11
-54.69271162371587
 21
-154.3402810312806
 31
0.0
210
0.0
220
0.0
230
1.0
 40
0.083767
 41
3.15080375059724
 42
3.191731874073083
  0
LINE
  5
B8
330
1F
100
AcDbEntity
  8
LC-001-100-D00-0
 62
     7
370
    15
100
AcDbLine
 10
232.633698
 20
751.487546
 30
0.0
 11
228.099315
 21
751.487546
 31
0.0
  0
LINE
  5
B9
330
1F
100
AcDbEntity
  8
LC-001-100-D00-0
 62
     7
370
    15
100
AcDbLine
 10
232.633698
 20
751.487546
 30
0.0
 11
232.633698
 21
750.901007
 31
0.0
  0
ELLIPSE
  5
BA
330
1F
100
AcDbEntity
  8
LC-001-100-D00-0
 62
     7
370
    15
100
AcDbEllipse
 10
281.869135
 20
905.276943
 30
0.0
 11
-50.10599910011509
 21
-154.1865670813247
 31
0.0
210
0.0
220
0.0
230
1.0
 40
0.165076
 41
3.174721918189732
 42
3.215650041665574
  0
LINE
  5
BB
330
1F
100
AcDbEntity
  8
LC-001-100-D00-0
 62
     7
370
    15
100
AcDbLine
 10
241.324882
 20
751.487546
 30
0.0
 11
233.968577
 21
751.487546
 31
0.0
  0
LINE
  5
BC
330
1F
100
AcDbEntity
  8
LC-001-100-D00-0
 62
     7
370
    15
100
AcDbLine
 10
241.324882
 20
751.487546
 30
0.0
 11
241.324882
 21
750.901007
 31
0.0
  0
ELLIPSE
  5
BD
330
1F
100
AcDbEntity
  8
LC-001-100-D00-0
 62
     7
370
    15
100
AcDbEllipse
 10
281.869135
 20
905.276943
 30
0.0
 11
-42.26835833949225
 21
-154.0735723013277
 31
0.0
210
0.0
220
0.0
230
0.9999999999999999
 40
0.240393
 41
3.18698228471561
 42
3.22791040819145
  0
LINE
  5
BE
330
1F
100
AcDbEntity
  8
LC-001-100-D00-0
 62
     7
370
    15
100
AcDbLine
 10
252.779091
 20
751.487546
 30
0.0
 11
243.102181
 21
751.487546
 31
0.0
  0
LINE
  5
BF
330
1F
100
AcDbEntity
  8
LC-001-100-D00-0
 62
     7
370
    15
100
AcDbLine
 10
252.779091
 20
751.487546
 30
0.0
 11
252.779091
 21
750.901007
 31
0.0
  0
ELLIPSE
  5
C0
330
1F
100
AcDbEntity
  8
LC-001-100-D00-0
 62
     7
370
    15
100
AcDbEllipse
 10
281.869135
 20
905.276943
 30
0.0
 11
-31.02069845648295
 21
-154.1198904247343
 31
0.0
210
0.0
220
0.0
230
0.9999999999999999
 40
0.30407
 41
3.182254375888676
 42
3.223182499364516
  0
LINE
  5
C1
330
1F
100
AcDbEntity
  8
LC-001-100-D00-0
 62
     7
370
    15
100
AcDbLine
 10
266.215737
 20
751.487546
 30
0.0
 11
254.770948
 21
751.487546
 31
0.0
  0
LINE
  5
C2
330
1F
100
AcDbEntity
  8
LC-001-100-D00-0
 62
     7
370
    15
100
AcDbLine
 10
266.215737
 20
751.487546
 30
0.0
 11
266.215737
 21
750.901007
 31
0.0
  0
ELLIPSE
  5
C3
330
1F
100
AcDbEntity
  8
LC-001-100-D00-0
 62
     7
370
    15
100
AcDbEllipse
 10
281.869135
 20
905.276943
 30
0.0
 11
-16.56207463459352
 21
-154.3006263193176
 31
0.0
210
0.0
220
0.0
230
1.0
 40
0.348049
 41
3.158469548149913
 42
3.199397671625755
  0
LINE
  5
C4
330
1F
100
AcDbEntity
  8
LC-001-100-D00-0
 62
     7
370
    15
100
AcDbLine
 10
280.719136
 20
751.487546
 30
0.0
 11
268.437366
 21
751.487546
 31
0.0
  0
ELLIPSE
  5
C5
330
1F
100
AcDbEntity
  8
LC-001-100-D00-0
 62
     7
370
    15
100
AcDbEllipse
 10
281.869135
 20
905.276943
 30
0.0
 11
0.0
 21
-154.4082631621091
 31
0.0
210
0.0
220
0.0
230
1.0
 40
0.36397
 41
3.121128591851877
 42
3.162056715327756
  0
LINE
  5
C6
330
1F
100
AcDbEntity
  8
LC-001-100-D00-0
 62
     7
370
    15
100
AcDbLine
 10
295.300905
 20
751.487546
 30
0.0
 11
283.019135
 21
751.487546
 31
0.0
  0
ELLIPSE
  5
C7
330
1F
100
AcDbEntity
  8
LC-001-100-D00-0
 62
     7
370
    15
100
AcDbEllipse
 10
281.869135
 20
905.276943
 30
0.0
 11
16.56207463459367
 21
-154.3006263193147
 31
0.0
210
0.0
220
0.0
230
1.0
 40
0.348049
 41
3.08378763555387
 42
3.124715759029711
  0
LINE
  5
C8
330
1F
100
AcDbEntity
  8
LC-001-100-D00-0
 62
     7
370
    15
100
AcDbLine
 10
297.522535
 20
751.487546
 30
0.0
 11
297.522535
 21
750.901007
 31
0.0
  0
LINE
  5
C9
330
1F
100
AcDbEntity
  8
LC-001-100-D00-0
 62
     7
370
    15
100
AcDbLine
 10
308.967323
 20
751.487546
 30
0.0
 11
297.522535
 21
751.487546
 31
0.0
  0
ELLIPSE
  5
CA
330
1F
100
AcDbEntity
  8
LC-001-100-D00-0
 62
     7
370
    15
100
AcDbEllipse
 10
281.869135
 20
905.276943
 30
0.0
 11
31.02069845648453
 21
-154.1198904247401
 31
0.0
210
0.0
220
0.0
230
1.0
 40
0.30407
 41
3.060002807815116
 42
3.100930931290955
  0
LINE
  5
CB
330
1F
100
AcDbEntity
  8
LC-001-100-D00-0
 62
     7
370
    15
100
AcDbLine
 10
310.959181
 20
751.487546
 30
0.0
 11
310.959181
 21
750.901007
 31
0.0
  0
LINE
  5
CC
330
1F
100
AcDbEntity
  8
LC-001-100-D00-0
 62
     7
370
    15
100
AcDbLine
 10
320.636091
 20
751.487546
 30
0.0
 11
310.959181
 21
751.487546
 31
0.0
  0
ELLIPSE
  5
CD
330
1F
100
AcDbEntity
  8
LC-001-100-D00-0
 62
     7
370
    15
100
AcDbEllipse
 10
281.869135
 20
905.276943
 30
0.0
 11
42.26835833949549
 21
-154.0735723013384
 31
0.0
210
0.0
220
0.0
230
0.9999999999999999
 40
0.240393
 41
3.055274898988177
 42
3.096203022464021
  0
LINE
  5
CE
330
1F
100
AcDbEntity
  8
LC-001-100-D00-0
 62
     7
370
    15
100
AcDbLine
 10
322.413387
 20
751.487546
 30
0.0
 11
322.413387
 21
750.901007
 31
0.0
  0
LINE
  5
CF
330
1F
100
AcDbEntity
  8
LC-001-100-D00-0
 62
     7
370
    15
100
AcDbLine
 10
329.769696
 20
751.487546
 30
0.0
 11
322.413387
 21
751.487546
 31
0.0
  0
ELLIPSE
  5
D0
330
1F
100
AcDbEntity
  8
LC-001-100-D00-0
 62
     7
370
    15
100
AcDbEllipse
 10
281.869135
 20
905.276943
 30
0.0
 11
50.10599910007734
 21
-154.186567081208
 31
0.0
210
0.0
220
0.0
230
1.0
 40
0.165076
 41
3.067535265514155
 42
3.108463388989994
  0
LINE
  5
D1
330
1F
100
AcDbEntity
  8
LC-001-100-D00-0
 62
     7
370
    15
100
AcDbLine
 10
331.104572
 20
751.487546
 30
0.0
 11
331.104572
 21
750.901007
 31
0.0
  0
LINE
  5
D2
330
1F
100
AcDbEntity
  8
LC-001-100-D00-0
 62
     7
370
    15
100
AcDbLine
 10
335.638954
 20
751.487546
 30
0.0
 11
331.104572
 21
751.487546
 31
0.0
  0
ELLIPSE
  5
D3
330
1F
100
AcDbEntity
  8
LC-001-100-D00-0
 62
     7
370
    15
100
AcDbEllipse
 10
281.869135
 20
905.276943
 30
0.0
 11
54.69271162350906
 21
-154.3402810306968
 31
0.0
210
0.0
220
0.0
230
1.0
 40
0.083767
 41
3.091453433106786
 42
3.132381556582633
  0
LINE
  5
D4
330
1F
100
AcDbEntity
  8
LC-001-100-D00-0
 62
     7
370
    15
100
AcDbLine
 10
336.440443
 20
751.487546
 30
0.0
 11
336.440443
 21
750.901007
 31
0.0
  0
LINE
  5
D5
330
1F
100
AcDbEntity
  8
LC-001-100-D00-0
 62
     7
370
    15
100
AcDbLine
 10
337.84389
 20
751.487546
 30
0.0
 11
336.440443
 21
751.487546
 31
0.0
  0
LINE
  5
D6
330
1F
100
AcDbEntity
  8
LC-001-100-D00-0
 62
     7
370
    15
100
AcDbLine
 10
338.069136
 20
746.180826
 30
0.0
 11
225.669137
 21
746.180826
 31
0.0
  0
LINE
  5
D7
330
1F
100
AcDbEntity
  8
LC-001-100-D00-0
 62
     7
370
    15
100
AcDbLine
 10
311.322887
 20
786.680766
 30
0.0
 11
311.322887
 21
786.580779
 31
0.0
  0
LINE
  5
D8
330
1F
100
AcDbEntity
  8
LC-001-100-D00-0
 62
     7
370
    15
100
AcDbLine
 10
311.298218
 20
786.680766
 30
0.0
 11
311.322887
 21
786.680766
 31
0.0
  0
LINE
  5
D9
330
1F
100
AcDbEntity
  8
LC-001-100-D00-0
 62
     7
370
    15
100
AcDbLine
 10
294.944647
 20
786.680766
 30
0.0
 11
294.944647
 21
786.580779
 31
0.0
  0
LINE
  5
DA
330
1F
100
AcDbEntity
  8
LC-001-100-D00-0
 62
     7
370
    15
100
AcDbLine
 10
295.075076
 20
786.680766
 30
0.0
 11
294.944647
 21
786.680766
 31
0.0
  0
LINE
  5
DB
330
1F
100
AcDbEntity
  8
LC-001-100-D00-0
 62
     7
370
    15
100
AcDbLine
 10
304.975307
 20
786.680766
 30
0.0
 11
304.975307
 21
786.580779
 31
0.0
  0
LINE
  5
DC
330
1F
100
AcDbEntity
  8
LC-001-100-D00-0
 62
     7
370
    15
100
AcDbLine
 10
304.888354
 20
786.680766
 30
0.0
 11
304.975307
 21
786.680766
 31
0.0
  0
LINE
  5
DD
330
1F
100
AcDbEntity
  8
LC-001-100-D00-0
 62
     7
370
    15
100
AcDbLine
 10
303.975346
 20
786.680766
 30
0.0
 11
303.975346
 21
786.580779
 31
0.0
  0
LINE
  5
DE
330
1F
100
AcDbEntity
  8
LC-001-100-D00-0
 62
     7
370
    15
100
AcDbLine
 10
303.975346
 20
786.680766
 30
0.0
 11
304.062299
 21
786.680766
 31
0.0
  0
LINE
  5
DF
330
1F
100
AcDbEntity
  8
LC-001-100-D00-0
 62
     7
370
    15
100
AcDbLine
 10
303.584057
 20
786.680766
 30
0.0
 11
303.584057
 21
786.580779
 31
0.0
  0
LINE
  5
E0
330
1F
100
AcDbEntity
  8
LC-001-100-D00-0
 62
     7
370
    15
100
AcDbLine
 10
303.497104
 20
786.680766
 30
0.0
 11
303.584057
 21
786.680766
 31
0.0
  0
LINE
  5
E1
330
1F
100
AcDbEntity
  8
LC-001-100-D00-0
 62
     7
370
    15
100
AcDbLine
 10
305.366597
 20
786.680766
 30
0.0
 11
305.366597
 21
786.580779
 31
0.0
  0
LINE
  5
E2
330
1F
100
AcDbEntity
  8
LC-001-100-D00-0
 62
     7
370
    15
100
AcDbLine
 10
305.366597
 20
786.680766
 30
0.0
 11
305.45355
 21
786.680766
 31
0.0
  0
LINE
  5
E3
330
1F
100
AcDbEntity
  8
LC-001-100-D00-0
 62
     7
370
    15
100
AcDbLine
 10
294.944647
 20
786.680766
 30
0.0
 11
294.497454
 21
786.680766
 31
0.0
  0
LINE
  5
E4
330
1F
100
AcDbEntity
  8
LC-001-100-D00-0
 62
     7
370
    15
100
AcDbLine
 10
303.584057
 20
786.680766
 30
0.0
 11
303.975346
 21
786.680766
 31
0.0
  0
LINE
  5
E5
330
1F
100
AcDbEntity
  8
LC-001-100-D00-0
 62
     7
370
    15
100
AcDbLine
 10
304.975307
 20
786.680766
 30
0.0
 11
305.366597
 21
786.680766
 31
0.0
  0
LINE
  5
E6
330
1F
100
AcDbEntity
  8
LC-001-100-D00-0
 62
     7
370
    15
100
AcDbLine
 10
322.413387
 20
750.901007
 30
0.0
 11
317.039652
 21
771.780767
 31
0.0
  0
LINE
  5
E7
330
1F
100
AcDbEntity
  8
LC-001-100-D00-0
 62
     7
370
    15
100
AcDbLine
 10
340.942885
 20
711.580769
 30
0.0
 11
342.063225
 21
712.486141
 31
0.0
  0
LINE
  5
E8
330
1F
100
AcDbEntity
  8
LC-001-100-D00-0
 62
     7
370
    15
100
AcDbLine
 10
332.533075
 20
711.580769
 30
0.0
 11
323.628201
 21
746.180826
 31
0.0
  0
LINE
  5
E9
330
1F
100
AcDbEntity
  8
LC-001-100-D00-0
 62
     7
370
    15
100
AcDbLine
 10
222.795388
 20
711.580769
 30
0.0
 11
221.675045
 21
712.486141
 31
0.0
  0
LINE
  5
EA
330
1F
100
AcDbEntity
  8
LC-001-100-D00-0
 62
     7
370
    15
100
AcDbLine
 10
241.324882
 20
750.901007
 30
0.0
 11
246.698617
 21
771.780767
 31
0.0
  0
LINE
  5
EB
330
1F
100
AcDbEntity
  8
LC-001-100-D00-0
 62
     7
370
    15
100
AcDbLine
 10
231.205198
 20
711.580769
 30
0.0
 11
240.110068
 21
746.180826
 31
0.0
  0
LINE
  5
EC
330
1F
100
AcDbEntity
  8
LC-001-100-D00-0
 62
     7
370
    15
100
AcDbLine
 10
207.969135
 20
694.880769
 30
0.0
 11
205.851054
 21
694.880769
 31
0.0
  0
LINE
  5
ED
330
1F
100
AcDbEntity
  8
LC-001-100-D00-0
 62
     7
370
    15
100
AcDbLine
 10
205.851054
 20
694.880769
 30
0.0
 11
205.851054
 21
711.580769
 31
0.0
  0
LINE
  5
EE
330
1F
100
AcDbEntity
  8
LC-001-100-D00-0
 62
     7
370
    15
100
AcDbLine
 10
227.297826
 20
750.901007
 30
0.0
 11
234.638489
 21
771.780767
 31
0.0
  0
LINE
  5
EF
330
1F
100
AcDbEntity
  8
LC-001-100-D00-0
 62
     7
370
    15
100
AcDbLine
 10
213.474079
 20
711.580769
 30
0.0
 11
225.638366
 21
746.180826
 31
0.0
  0
LINE
  5
F0
330
1F
100
AcDbEntity
  8
LC-001-100-D00-0
 62
     7
370
    15
100
AcDbLine
 10
336.440443
 20
750.901007
 30
0.0
 11
329.099781
 21
771.780767
 31
0.0
  0
LINE
  5
F1
330
1F
100
AcDbEntity
  8
LC-001-100-D00-0
 62
     7
370
    15
100
AcDbLine
 10
357.887215
 20
694.880769
 30
0.0
 11
357.887215
 21
711.580769
 31
0.0
  0
LINE
  5
F2
330
1F
100
AcDbEntity
  8
LC-001-100-D00-0
 62
     7
370
    15
100
AcDbLine
 10
357.887215
 20
694.880769
 30
0.0
 11
355.769134
 21
694.880769
 31
0.0
  0
LINE
  5
F3
330
1F
100
AcDbEntity
  8
LC-001-100-D00-0
 62
     7
370
    15
100
AcDbLine
 10
350.26419
 20
711.580769
 30
0.0
 11
338.099907
 21
746.180826
 31
0.0
  0
LINE
  5
F4
330
1F
100
AcDbEntity
  8
LC-001-100-D00-0
 62
     7
370
    15
100
AcDbLine
 10
335.84516
 20
750.901007
 30
0.0
 11
328.504498
 21
771.780767
 31
0.0
  0
LINE
  5
F5
330
1F
100
AcDbEntity
  8
LC-001-100-D00-0
 62
     7
370
    15
100
AcDbLine
 10
227.893113
 20
750.901007
 30
0.0
 11
235.233771
 21
771.780767
 31
0.0
  0
INSERT
  5
107
330
1F
100
AcDbEntity
  8
LC-001-100-D00-0
 62
     7
370
    15
100
AcDbBlockReference
  2
POLY3
 10
0.0
 20
0.0
 30
0.0
  0
INSERT
  5
119
330
1F
100
AcDbEntity
  8
LC-001-100-D00-0
 62
     7
370
    15
100
AcDbBlockReference
  2
POLY4
 10
0.0
 20
0.0
 30
0.0
  0
LINE
  5
11A
330
1F
100
AcDbEntity
  8
LC-001-100-D00-0
 62
     7
370
    15
100
AcDbLine
 10
268.069152
 20
702.880771
 30
0.0
 11
268.069152
 21
694.880769
 31
0.0
  0
LINE
  5
11B
330
1F
100
AcDbEntity
  8
LC-001-100-D00-0
 62
     7
370
    15
100
AcDbLine
 10
212.223193
 20
694.880769
 30
0.0
 11
268.069152
 21
694.880769
 31
0.0
  0
LINE
  5
11C
330
1F
100
AcDbEntity
  8
LC-001-100-D00-0
 62
     7
370
    15
100
AcDbLine
 10
212.223193
 20
694.880769
 30
0.0
 11
212.223193
 21
702.880771
 31
0.0
  0
INSERT
  5
12E
330
1F
100
AcDbEntity
  8
LC-001-100-D00-0
 62
     7
370
    15
100
AcDbBlockReference
  2
POLY5
 10
0.0
 20
0.0
 30
0.0
  0
INSERT
  5
140
330
1F
100
AcDbEntity
  8
LC-001-100-D00-0
 62
     7
370
    15
100
AcDbBlockReference
  2
POLY6
 10
0.0
 20
0.0
 30
0.0
  0
LINE
  5
141
330
1F
100
AcDbEntity
  8
LC-001-100-D00-0
 62
     7
370
    15
100
AcDbLine
 10
351.515102
 20
702.880771
 30
0.0
 11
351.515102
 21
694.880769
 31
0.0
  0
LINE
  5
142
330
1F
100
AcDbEntity
  8
LC-001-100-D00-0
 62
     7
370
    15
100
AcDbLine
 10
295.669232
 20
694.880769
 30
0.0
 11
351.515102
 21
694.880769
 31
0.0
  0
LINE
  5
143
330
1F
100
AcDbEntity
  8
LC-001-100-D00-0
 62
     7
370
    15
100
AcDbLine
 10
295.669232
 20
694.880769
 30
0.0
 11
295.669232
 21
702.880771
 31
0.0
  0
LINE
  5
144
330
1F
100
AcDbEntity
  8
LC-001-100-D00-0
 62
     7
370
    15
100
AcDbLine
 10
351.515102
 20
694.880769
 30
0.0
 11
351.881708
 21
694.880769
 31
0.0
  0
LINE
  5
145
330
1F
100
AcDbEntity
  8
LC-001-100-D00-0
 62
     7
370
    15
100
AcDbLine
 10
211.85658
 20
694.880769
 30
0.0
 11
212.223193
 21
694.880769
 31
0.0
  0
LINE
  5
146
330
1F
100
AcDbEntity
  8
LC-001-100-D00-0
 62
     7
370
    15
100
AcDbLine
 10
349.907289
 20
711.580769
 30
0.0
 11
350.025805
 21
711.580769
 31
0.0
  0
LINE
  5
147
330
1F
100
AcDbEntity
  8
LC-001-100-D00-0
 62
     7
370
    15
100
AcDbLine
 10
349.668904
 20
711.580769
 30
0.0
 11
337.504624
 21
746.180826
 31
0.0
  0
LINE
  5
148
330
1F
100
AcDbEntity
  8
LC-001-100-D00-0
 62
     7
370
    15
100
AcDbLine
 10
213.712468
 20
711.580769
 30
0.0
 11
213.830984
 21
711.580769
 31
0.0
  0
LINE
  5
149
330
1F
100
AcDbEntity
  8
LC-001-100-D00-0
 62
     7
370
    15
100
AcDbLine
 10
214.069365
 20
711.580769
 30
0.0
 11
226.233645
 21
746.180826
 31
0.0
  0
LINE
  5
14A
330
1F
100
AcDbEntity
  8
LC-001-100-D00-0
 62
     7
370
    15
100
AcDbLine
 10
331.104572
 20
750.901007
 30
0.0
 11
324.523116
 21
771.780767
 31
0.0
  0
LINE
  5
14B
330
1F
100
AcDbEntity
  8
LC-001-100-D00-0
 62
     7
370
    15
100
AcDbLine
 10
343.498605
 20
711.580769
 30
0.0
 11
332.592408
 21
746.180826
 31
0.0
  0
LINE
  5
14C
330
1F
100
AcDbEntity
  8
LC-001-100-D00-0
 62
     7
370
    15
100
AcDbLine
 10
232.633698
 20
750.901007
 30
0.0
 11
239.215153
 21
771.780767
 31
0.0
  0
LINE
  5
14D
330
1F
100
AcDbEntity
  8
LC-001-100-D00-0
 62
     7
370
    15
100
AcDbLine
 10
220.239668
 20
711.580769
 30
0.0
 11
231.145865
 21
746.180826
 31
0.0
  0
LINE
  5
14E
330
1F
100
AcDbEntity
  8
LC-001-100-D00-0
 62
     7
370
    15
100
AcDbLine
 10
329.954571
 20
750.901007
 30
0.0
 11
323.373115
 21
771.780767
 31
0.0
  0
LINE
  5
14F
330
1F
100
AcDbEntity
  8
LC-001-100-D00-0
 62
     7
370
    15
100
AcDbLine
 10
233.783698
 20
750.901007
 30
0.0
 11
240.365154
 21
771.780767
 31
0.0
  0
LINE
  5
150
330
1F
100
AcDbEntity
  8
LC-001-100-D00-0
 62
     7
370
    15
100
AcDbLine
 10
342.809128
 20
711.580769
 30
0.0
 11
343.038081
 21
711.580769
 31
0.0
  0
LINE
  5
151
330
1F
100
AcDbEntity
  8
LC-001-100-D00-0
 62
     7
370
    15
100
AcDbLine
 10
342.348604
 20
711.580769
 30
0.0
 11
331.442407
 21
746.180826
 31
0.0
  0
LINE
  5
152
330
1F
100
AcDbEntity
  8
LC-001-100-D00-0
 62
     7
370
    15
100
AcDbLine
 10
220.700188
 20
711.580769
 30
0.0
 11
220.929145
 21
711.580769
 31
0.0
  0
LINE
  5
153
330
1F
100
AcDbEntity
  8
LC-001-100-D00-0
 62
     7
370
    15
100
AcDbLine
 10
221.389665
 20
711.580769
 30
0.0
 11
232.295862
 21
746.180826
 31
0.0
  0
LINE
  5
154
330
1F
100
AcDbEntity
  8
LC-001-100-D00-0
 62
     7
370
    15
100
AcDbLine
 10
320.787043
 20
750.901007
 30
0.0
 11
315.413306
 21
771.780767
 31
0.0
  0
LINE
  5
155
330
1F
100
AcDbEntity
  8
LC-001-100-D00-0
 62
     7
370
    15
100
AcDbLine
 10
242.951228
 20
750.901007
 30
0.0
 11
248.324963
 21
771.780767
 31
0.0
  0
LINE
  5
156
330
1F
100
AcDbEntity
  8
LC-001-100-D00-0
 62
     7
370
    15
100
AcDbLine
 10
310.959181
 20
750.901007
 30
0.0
 11
307.159376
 21
771.780767
 31
0.0
  0
LINE
  5
157
330
1F
100
AcDbEntity
  8
LC-001-100-D00-0
 62
     7
370
    15
100
AcDbLine
 10
325.657799
 20
713.405088
 30
0.0
 11
319.6931
 21
746.180826
 31
0.0
  0
LINE
  5
158
330
1F
100
AcDbEntity
  8
LC-001-100-D00-0
 62
     7
370
    15
100
AcDbLine
 10
318.727358
 20
751.487546
 30
0.0
 11
315.034291
 21
771.780767
 31
0.0
  0
LINE
  5
159
330
1F
100
AcDbEntity
  8
LC-001-100-D00-0
 62
     7
370
    15
100
AcDbLine
 10
324.061512
 20
711.580769
 30
0.0
 11
325.657799
 21
713.405088
 31
0.0
  0
LINE
  5
15A
330
1F
100
AcDbEntity
  8
LC-001-100-D00-0
 62
     7
370
    15
100
AcDbLine
 10
318.114879
 20
711.580769
 30
0.0
 11
311.818183
 21
746.180826
 31
0.0
  0
LINE
  5
15B
330
1F
100
AcDbEntity
  8
LC-001-100-D00-0
 62
     7
370
    15
100
AcDbLine
 10
239.676757
 20
711.580769
 30
0.0
 11
238.080474
 21
713.405088
 31
0.0
  0
LINE
  5
15C
330
1F
100
AcDbEntity
  8
LC-001-100-D00-0
 62
     7
370
    15
100
AcDbLine
 10
238.080474
 20
713.405088
 30
0.0
 11
244.045171
 21
746.180826
 31
0.0
  0
LINE
  5
15D
330
1F
100
AcDbEntity
  8
LC-001-100-D00-0
 62
     7
370
    15
100
AcDbLine
 10
245.010911
 20
751.487546
 30
0.0
 11
248.703978
 21
771.780767
 31
0.0
  0
LINE
  5
15E
330
1F
100
AcDbEntity
  8
LC-001-100-D00-0
 62
     7
370
    15
100
AcDbLine
 10
252.779091
 20
750.901007
 30
0.0
 11
256.578895
 21
771.780767
 31
0.0
  0
LINE
  5
15F
330
1F
100
AcDbEntity
  8
LC-001-100-D00-0
 62
     7
370
    15
100
AcDbLine
 10
245.623394
 20
711.580769
 30
0.0
 11
251.920088
 21
746.180826
 31
0.0
  0
LINE
  5
160
330
1F
100
AcDbEntity
  8
LC-001-100-D00-0
 62
     7
370
    15
100
AcDbLine
 10
308.967323
 20
750.901007
 30
0.0
 11
305.167517
 21
771.780767
 31
0.0
  0
LINE
  5
161
330
1F
100
AcDbEntity
  8
LC-001-100-D00-0
 62
     7
370
    15
100
AcDbLine
 10
254.770948
 20
750.901007
 30
0.0
 11
258.570752
 21
771.780767
 31
0.0
  0
LINE
  5
162
330
1F
100
AcDbEntity
  8
LC-001-100-D00-0
 62
     7
370
    15
100
AcDbLine
 10
331.558007
 20
711.580769
 30
0.0
 11
331.881794
 21
711.580769
 31
0.0
  0
LINE
  5
163
330
1F
100
AcDbEntity
  8
LC-001-100-D00-0
 62
     7
370
    15
100
AcDbLine
 10
330.906729
 20
711.580769
 30
0.0
 11
322.001855
 21
746.180826
 31
0.0
  0
LINE
  5
164
330
1F
100
AcDbEntity
  8
LC-001-100-D00-0
 62
     7
370
    15
100
AcDbLine
 10
231.856475
 20
711.580769
 30
0.0
 11
232.180266
 21
711.580769
 31
0.0
  0
LINE
  5
165
330
1F
100
AcDbEntity
  8
LC-001-100-D00-0
 62
     7
370
    15
100
AcDbLine
 10
232.831544
 20
711.580769
 30
0.0
 11
241.736415
 21
746.180826
 31
0.0
  0
LINE
  5
166
330
1F
100
AcDbEntity
  8
LC-001-100-D00-0
 62
     7
370
    15
100
AcDbLine
 10
297.522535
 20
750.901007
 30
0.0
 11
295.555611
 21
771.780767
 31
0.0
  0
LINE
  5
167
330
1F
100
AcDbEntity
  8
LC-001-100-D00-0
 62
     7
370
    15
100
AcDbLine
 10
305.131098
 20
713.405088
 30
0.0
 11
302.043544
 21
746.180826
 31
0.0
  0
LINE
  5
168
330
1F
100
AcDbEntity
  8
LC-001-100-D00-0
 62
     7
370
    15
100
AcDbLine
 10
301.54364
 20
751.487546
 30
0.0
 11
299.631968
 21
771.780767
 31
0.0
  0
LINE
  5
169
330
1F
100
AcDbEntity
  8
LC-001-100-D00-0
 62
     7
370
    15
100
AcDbLine
 10
304.304802
 20
711.580769
 30
0.0
 11
305.131098
 21
713.405088
 31
0.0
  0
LINE
  5
16A
330
1F
100
AcDbEntity
  8
LC-001-100-D00-0
 62
     7
370
    15
100
AcDbLine
 10
301.226596
 20
711.580769
 30
0.0
 11
297.967187
 21
746.180826
 31
0.0
  0
LINE
  5
16B
330
1F
100
AcDbEntity
  8
LC-001-100-D00-0
 62
     7
370
    15
100
AcDbLine
 10
259.433469
 20
711.580769
 30
0.0
 11
258.607174
 21
713.405088
 31
0.0
  0
LINE
  5
16C
330
1F
100
AcDbEntity
  8
LC-001-100-D00-0
 62
     7
370
    15
100
AcDbLine
 10
258.607174
 20
713.405088
 30
0.0
 11
261.694726
 21
746.180826
 31
0.0
  0
LINE
  5
16D
330
1F
100
AcDbEntity
  8
LC-001-100-D00-0
 62
     7
370
    15
100
AcDbLine
 10
262.194632
 20
751.487546
 30
0.0
 11
264.106304
 21
771.780767
 31
0.0
  0
LINE
  5
16E
330
1F
100
AcDbEntity
  8
LC-001-100-D00-0
 62
     7
370
    15
100
AcDbLine
 10
266.215737
 20
750.901007
 30
0.0
 11
268.18266
 21
771.780767
 31
0.0
  0
LINE
  5
16F
330
1F
100
AcDbEntity
  8
LC-001-100-D00-0
 62
     7
370
    15
100
AcDbLine
 10
262.511675
 20
711.580769
 30
0.0
 11
265.771084
 21
746.180826
 31
0.0
  0
LINE
  5
170
330
1F
100
AcDbEntity
  8
LC-001-100-D00-0
 62
     7
370
    15
100
AcDbLine
 10
295.300905
 20
750.901007
 30
0.0
 11
293.333981
 21
771.780767
 31
0.0
  0
LINE
  5
171
330
1F
100
AcDbEntity
  8
LC-001-100-D00-0
 62
     7
370
    15
100
AcDbLine
 10
268.437366
 20
750.901007
 30
0.0
 11
270.404289
 21
771.780767
 31
0.0
  0
LINE
  5
172
330
1F
100
AcDbEntity
  8
LC-001-100-D00-0
 62
     7
370
    15
100
AcDbLine
 10
280.719136
 20
750.901007
 30
0.0
 11
280.719136
 21
771.780767
 31
0.0
  0
LINE
  5
173
330
1F
100
AcDbEntity
  8
LC-001-100-D00-0
 62
     7
370
    15
100
AcDbLine
 10
283.019135
 20
750.901007
 30
0.0
 11
283.019135
 21
771.780767
 31
0.0
  0
LINE
  5
174
330
1F
100
AcDbEntity
  8
LC-001-100-D00-0
 62
     7
370
    15
100
AcDbLine
 10
316.92067
 20
711.580769
 30
0.0
 11
317.317229
 21
711.580769
 31
0.0
  0
LINE
  5
175
330
1F
100
AcDbEntity
  8
LC-001-100-D00-0
 62
     7
370
    15
100
AcDbLine
 10
316.123021
 20
711.580769
 30
0.0
 11
309.826324
 21
746.180826
 31
0.0
  0
LINE
  5
176
330
1F
100
AcDbEntity
  8
LC-001-100-D00-0
 62
     7
370
    15
100
AcDbLine
 10
246.421042
 20
711.580769
 30
0.0
 11
246.817603
 21
711.580769
 31
0.0
  0
LINE
  5
177
330
1F
100
AcDbEntity
  8
LC-001-100-D00-0
 62
     7
370
    15
100
AcDbLine
 10
247.615251
 20
711.580769
 30
0.0
 11
253.911945
 21
746.180826
 31
0.0
  0
LINE
  5
178
330
1F
100
AcDbEntity
  8
LC-001-100-D00-0
 62
     7
370
    15
100
AcDbLine
 10
299.89463
 20
711.580769
 30
0.0
 11
300.336933
 21
711.580769
 31
0.0
  0
LINE
  5
179
330
1F
100
AcDbEntity
  8
LC-001-100-D00-0
 62
     7
370
    15
100
AcDbLine
 10
299.004967
 20
711.580769
 30
0.0
 11
295.745557
 21
746.180826
 31
0.0
  0
LINE
  5
17A
330
1F
100
AcDbEntity
  8
LC-001-100-D00-0
 62
     7
370
    15
100
AcDbLine
 10
263.401338
 20
711.580769
 30
0.0
 11
263.843641
 21
711.580769
 31
0.0
  0
LINE
  5
17B
330
1F
100
AcDbEntity
  8
LC-001-100-D00-0
 62
     7
370
    15
100
AcDbLine
 10
264.733304
 20
711.580769
 30
0.0
 11
267.992713
 21
746.180826
 31
0.0
  0
LINE
  5
17C
330
1F
100
AcDbEntity
  8
LC-001-100-D00-0
 62
     7
370
    15
100
AcDbLine
 10
281.640182
 20
711.580769
 30
0.0
 11
282.098089
 21
711.580769
 31
0.0
  0
LINE
  5
17D
330
1F
100
AcDbEntity
  8
LC-001-100-D00-0
 62
     7
370
    15
100
AcDbLine
 10
280.719136
 20
711.580769
 30
0.0
 11
280.719136
 21
746.180826
 31
0.0
  0
LINE
  5
17E
330
1F
100
AcDbEntity
  8
LC-001-100-D00-0
 62
     7
370
    15
100
AcDbLine
 10
283.019135
 20
711.580769
 30
0.0
 11
283.019135
 21
746.180826
 31
0.0
  0
INSERT
  5
190
330
1F
100
AcDbEntity
  8
LC-001-100-D00-0
 62
     7
370
    15
100
AcDbBlockReference
  2
POLY7
 10
0.0
 20
0.0
 30
0.0
  0
LINE
  5
191
330
1F
100
AcDbEntity
  8
LC-001-100-D00-0
 62
     7
370
    15
100
AcDbLine
 10
293.669232
 20
702.880771
 30
0.0
 11
293.669232
 21
682.58077
 31
0.0
  0
LINE
  5
192
330
1F
100
AcDbEntity
  8
LC-001-100-D00-0
 62
     7
370
    15
100
AcDbLine
 10
270.069153
 20
682.58077
 30
0.0
 11
293.669232
 21
682.58077
 31
0.0
  0
LINE
  5
193
330
1F
100
AcDbEntity
  8
LC-001-100-D00-0
 62
     7
370
    15
100
AcDbLine
 10
270.069153
 20
682.58077
 30
0.0
 11
270.069153
 21
702.880771
 31
0.0
  0
INSERT
  5
1A5
330
1F
100
AcDbEntity
  8
LC-001-100-D00-0
 62
     7
370
    15
100
AcDbBlockReference
  2
POLY8
 10
0.0
 20
0.0
 30
0.0
  0
LINE
  5
1A6
330
1F
100
AcDbEntity
  8
LC-001-100-D00-0
 62
     7
370
    15
100
AcDbLine
 10
349.369134
 20
614.580767
 30
0.0
 11
353.869139
 21
614.580767
 31
0.0
  0
LINE
  5
1A7
330
1F
100
AcDbEntity
  8
LC-001-100-D00-0
 62
     7
370
    15
100
AcDbLine
 10
349.369134
 20
614.580767
 30
0.0
 11
349.369134
 21
612.080768
 31
0.0
  0
LINE
  5
1A8
330
1F
100
AcDbEntity
  8
LC-001-100-D00-0
 62
     7
370
    15
100
AcDbLine
 10
319.369136
 20
614.580767
 30
0.0
 11
339.369136
 21
614.580767
 31
0.0
  0
LINE
  5
1A9
330
1F
100
AcDbEntity
  8
LC-001-100-D00-0
 62
     7
370
    15
100
AcDbLine
 10
319.369136
 20
617.080767
 30
0.0
 11
319.369136
 21
614.580767
 31
0.0
  0
LINE
  5
1AA
330
1F
100
AcDbEntity
  8
LC-001-100-D00-0
 62
     7
370
    15
100
AcDbLine
 10
354.369133
 20
617.080767
 30
0.0
 11
319.369136
 21
617.080767
 31
0.0
  0
ARC
  5
1AB
330
1F
100
AcDbEntity
  8
LC-001-100-D00-0
 62
     7
370
    15
100
AcDbCircle
 10
354.369135
 20
619.580767
 30
0.0
 40
2.499999999999886
100
AcDbArc
 50
270.0
 51
0.0
  0
LINE
  5
1AC
330
1F
100
AcDbEntity
  8
LC-001-100-D00-0
 62
     7
370
    15
100
AcDbLine
 10
356.869138
 20
632.080768
 30
0.0
 11
356.869138
 21
619.580767
 31
0.0
  0
LINE
  5
1AD
330
1F
100
AcDbEntity
  8
LC-001-100-D00-0
 62
     7
370
    15
100
AcDbLine
 10
357.169135
 20
632.080768
 30
0.0
 11
356.869138
 21
632.080768
 31
0.0
  0
LINE
  5
1AE
330
1F
100
AcDbEntity
  8
LC-001-100-D00-0
 62
     7
370
    15
100
AcDbLine
 10
357.169135
 20
633.580767
 30
0.0
 11
357.169135
 21
632.080768
 31
0.0
  0
LINE
  5
1AF
330
1F
100
AcDbEntity
  8
LC-001-100-D00-0
 62
     7
370
    15
100
AcDbLine
 10
359.369135
 20
633.580767
 30
0.0
 11
357.169135
 21
633.580767
 31
0.0
  0
LINE
  5
1B0
330
1F
100
AcDbEntity
  8
LC-001-100-D00-0
 62
     7
370
    15
100
AcDbLine
 10
359.369135
 20
624.580768
 30
0.0
 11
359.369135
 21
633.580767
 31
0.0
  0
LINE
  5
1B1
330
1F
100
AcDbEntity
  8
LC-001-100-D00-0
 62
     7
370
    15
100
AcDbLine
 10
361.869133
 20
624.580768
 30
0.0
 11
359.369135
 21
624.580768
 31
0.0
  0
LINE
  5
1B2
330
1F
100
AcDbEntity
  8
LC-001-100-D00-0
 62
     7
370
    15
100
AcDbLine
 10
361.869133
 20
622.580767
 30
0.0
 11
361.869133
 21
624.580768
 31
0.0
  0
ARC
  5
1B3
330
1F
100
AcDbEntity
  8
LC-001-100-D00-0
 62
     7
370
    15
100
AcDbCircle
 10
353.869135
 20
622.580767
 30
0.0
 40
8.0
100
AcDbArc
 50
270.0
 51
0.0
  0
LINE
  5
1B4
330
1F
100
AcDbEntity
  8
LC-001-100-D00-0
 62
     7
370
    15
100
AcDbLine
 10
339.369136
 20
612.080768
 30
0.0
 11
339.369136
 21
614.580767
 31
0.0
  0
LINE
  5
1B5
330
1F
100
AcDbEntity
  8
LC-001-100-D00-0
 62
     7
370
    15
100
AcDbLine
 10
349.369134
 20
612.080768
 30
0.0
 11
339.369136
 21
612.080768
 31
0.0
  0
LINE
  5
1B6
330
1F
100
AcDbEntity
  8
LC-001-100-D00-0
 62
     7
370
    15
100
AcDbLine
 10
209.869138
 20
614.580767
 30
0.0
 11
214.369132
 21
614.580767
 31
0.0
  0
ARC
  5
1B7
330
1F
100
AcDbEntity
  8
LC-001-100-D00-0
 62
     7
370
    15
100
AcDbCircle
 10
209.869135
 20
622.580767
 30
0.0
 40
8.0
100
AcDbArc
 50
180.0
 51
270.0
  0
LINE
  5
1B8
330
1F
100
AcDbEntity
  8
LC-001-100-D00-0
 62
     7
370
    15
100
AcDbLine
 10
201.869136
 20
624.580768
 30
0.0
 11
201.869136
 21
622.580767
 31
0.0
  0
LINE
  5
1B9
330
1F
100
AcDbEntity
  8
LC-001-100-D00-0
 62
     7
370
    15
100
AcDbLine
 10
204.369134
 20
624.580768
 30
0.0
 11
201.869136
 21
624.580768
 31
0.0
  0
LINE
  5
1BA
330
1F
100
AcDbEntity
  8
LC-001-100-D00-0
 62
     7
370
    15
100
AcDbLine
 10
204.369134
 20
633.580767
 30
0.0
 11
204.369134
 21
624.580768
 31
0.0
  0
LINE
  5
1BB
330
1F
100
AcDbEntity
  8
LC-001-100-D00-0
 62
     7
370
    15
100
AcDbLine
 10
206.569134
 20
633.580767
 30
0.0
 11
204.369134
 21
633.580767
 31
0.0
  0
LINE
  5
1BC
330
1F
100
AcDbEntity
  8
LC-001-100-D00-0
 62
     7
370
    15
100
AcDbLine
 10
206.569134
 20
632.080768
 30
0.0
 11
206.569134
 21
633.580767
 31
0.0
  0
LINE
  5
1BD
330
1F
100
AcDbEntity
  8
LC-001-100-D00-0
 62
     7
370
    15
100
AcDbLine
 10
206.869139
 20
632.080768
 30
0.0
 11
206.569134
 21
632.080768
 31
0.0
  0
LINE
  5
1BE
330
1F
100
AcDbEntity
  8
LC-001-100-D00-0
 62
     7
370
    15
100
AcDbLine
 10
206.869139
 20
619.580767
 30
0.0
 11
206.869139
 21
632.080768
 31
0.0
  0
ARC
  5
1BF
330
1F
100
AcDbEntity
  8
LC-001-100-D00-0
 62
     7
370
    15
100
AcDbCircle
 10
209.369135
 20
619.580767
 30
0.0
 40
2.5
100
AcDbArc
 50
180.0
 51
270.0
  0
LINE
  5
1C0
330
1F
100
AcDbEntity
  8
LC-001-100-D00-0
 62
     7
370
    15
100
AcDbLine
 10
229.869134
 20
617.080767
 30
0.0
 11
209.369137
 21
617.080767
 31
0.0
  0
LINE
  5
1C1
330
1F
100
AcDbEntity
  8
LC-001-100-D00-0
 62
     7
370
    15
100
AcDbLine
 10
229.869134
 20
617.080767
 30
0.0
 11
229.869134
 21
614.580767
 31
0.0
  0
LINE
  5
1C2
330
1F
100
AcDbEntity
  8
LC-001-100-D00-0
 62
     7
370
    15
100
AcDbLine
 10
224.369137
 20
614.580767
 30
0.0
 11
229.869134
 21
614.580767
 31
0.0
  0
LINE
  5
1C3
330
1F
100
AcDbEntity
  8
LC-001-100-D00-0
 62
     7
370
    15
100
AcDbLine
 10
224.369137
 20
614.580767
 30
0.0
 11
224.369137
 21
612.080768
 31
0.0
  0
LINE
  5
1C4
330
1F
100
AcDbEntity
  8
LC-001-100-D00-0
 62
     7
370
    15
100
AcDbLine
 10
224.369137
 20
612.080768
 30
0.0
 11
214.369132
 21
612.080768
 31
0.0
  0
LINE
  5
1C5
330
1F
100
AcDbEntity
  8
LC-001-100-D00-0
 62
     7
370
    15
100
AcDbLine
 10
214.369132
 20
612.080768
 30
0.0
 11
214.369132
 21
614.580767
 31
0.0
  0
LINE
  5
1C6
330
1F
100
AcDbEntity
  8
LC-001-100-D00-0
 62
     7
370
    15
100
AcDbLine
 10
237.869135
 20
614.580767
 30
0.0
 11
237.869135
 21
617.080767
 31
0.0
  0
LINE
  5
1C7
330
1F
100
AcDbEntity
  8
LC-001-100-D00-0
 62
     7
370
    15
100
AcDbLine
 10
244.369137
 20
617.080767
 30
0.0
 11
237.869135
 21
617.080767
 31
0.0
  0
LINE
  5
1C8
330
1F
100
AcDbEntity
  8
LC-001-100-D00-0
 62
     7
370
    15
100
AcDbLine
 10
244.369137
 20
614.580767
 30
0.0
 11
244.369137
 21
617.080767
 31
0.0
  0
LINE
  5
1C9
330
1F
100
AcDbEntity
  8
LC-001-100-D00-0
 62
     7
370
    15
100
AcDbLine
 10
237.869135
 20
614.580767
 30
0.0
 11
244.369137
 21
614.580767
 31
0.0
  0
LINE
  5
1CA
330
1F
100
AcDbEntity
  8
LC-001-100-D00-0
 62
     7
370
    15
100
AcDbLine
 10
206.869139
 20
632.080768
 30
0.0
 11
215.369134
 21
632.080768
 31
0.0
  0
LINE
  5
1CB
330
1F
100
AcDbEntity
  8
LC-001-100-D00-0
 62
     7
370
    15
100
AcDbLine
 10
348.369135
 20
632.080768
 30
0.0
 11
356.869138
 21
632.080768
 31
0.0
  0
LINE
  5
1CC
330
1F
100
AcDbEntity
  8
LC-001-100-D00-0
 62
     7
370
    15
100
AcDbLine
 10
206.569134
 20
633.580767
 30
0.0
 11
215.369134
 21
633.580767
 31
0.0
  0
LINE
  5
1CD
330
1F
100
AcDbEntity
  8
LC-001-100-D00-0
 62
     7
370
    15
100
AcDbLine
 10
348.369135
 20
633.580767
 30
0.0
 11
357.169135
 21
633.580767
 31
0.0
  0
LINE
  5
1CE
330
1F
100
AcDbEntity
  8
LC-001-100-D00-0
 62
     7
370
    15
100
AcDbLine
 10
229.869134
 20
617.080767
 30
0.0
 11
237.869135
 21
617.080767
 31
0.0
  0
LINE
  5
1CF
330
1F
100
AcDbEntity
  8
LC-001-100-D00-0
 62
     7
370
    15
100
AcDbLine
 10
229.869134
 20
614.580767
 30
0.0
 11
237.869135
 21
614.580767
 31
0.0
  0
LINE
  5
1D0
330
1F
100
AcDbEntity
  8
LC-001-100-D00-0
 62
     7
370
    15
100
AcDbLine
 10
347.619134
 20
682.280765
 30
0.0
 11
216.119132
 21
682.280765
 31
0.0
  0
LINE
  5
1D1
330
1F
100
AcDbEntity
  8
LC-001-100-D00-0
 62
     7
370
    15
100
AcDbLine
 10
347.619134
 20
682.280765
 30
0.0
 11
346.619135
 21
674.280771
 31
0.0
  0
LINE
  5
1D2
330
1F
100
AcDbEntity
  8
LC-001-100-D00-0
 62
     7
370
    15
100
AcDbLine
 10
217.119134
 20
674.280771
 30
0.0
 11
216.119132
 21
682.280765
 31
0.0
  0
LINE
  5
1D3
330
1F
100
AcDbEntity
  8
LC-001-100-D00-0
 62
     7
370
    15
100
AcDbLine
 10
346.619135
 20
674.280771
 30
0.0
 11
217.119134
 21
674.280771
 31
0.0
  0
LINE
  5
1D4
330
1F
100
AcDbEntity
  8
LC-001-100-D00-0
 62
     7
370
    15
100
AcDbLine
 10
358.119136
 20
682.280765
 30
0.0
 11
347.619134
 21
682.280765
 31
0.0
  0
LINE
  5
1D5
330
1F
100
AcDbEntity
  8
LC-001-100-D00-0
 62
     7
370
    15
100
AcDbLine
 10
358.119136
 20
681.28077
 30
0.0
 11
358.119136
 21
682.280765
 31
0.0
  0
LINE
  5
1D6
330
1F
100
AcDbEntity
  8
LC-001-100-D00-0
 62
     7
370
    15
100
AcDbLine
 10
359.119138
 20
681.28077
 30
0.0
 11
358.119136
 21
681.28077
 31
0.0
  0
LINE
  5
1D7
330
1F
100
AcDbEntity
  8
LC-001-100-D00-0
 62
     7
370
    15
100
AcDbLine
 10
359.119138
 20
677.780771
 30
0.0
 11
359.119138
 21
681.28077
 31
0.0
  0
LINE
  5
1D8
330
1F
100
AcDbEntity
  8
LC-001-100-D00-0
 62
     7
370
    15
100
AcDbLine
 10
358.119136
 20
676.780768
 30
0.0
 11
359.119138
 21
677.780771
 31
0.0
  0
LINE
  5
1D9
330
1F
100
AcDbEntity
  8
LC-001-100-D00-0
 62
     7
370
    15
100
AcDbLine
 10
355.119138
 20
676.780768
 30
0.0
 11
358.119136
 21
676.780768
 31
0.0
  0
LINE
  5
1DA
330
1F
100
AcDbEntity
  8
LC-001-100-D00-0
 62
     7
370
    15
100
AcDbLine
 10
355.119138
 20
678.780765
 30
0.0
 11
355.119138
 21
676.780768
 31
0.0
  0
LINE
  5
1DB
330
1F
100
AcDbEntity
  8
LC-001-100-D00-0
 62
     7
370
    15
100
AcDbLine
 10
350.619136
 20
678.780765
 30
0.0
 11
355.119138
 21
678.780765
 31
0.0
  0
LINE
  5
1DC
330
1F
100
AcDbEntity
  8
LC-001-100-D00-0
 62
     7
370
    15
100
AcDbLine
 10
350.619136
 20
674.280771
 30
0.0
 11
350.619136
 21
678.780765
 31
0.0
  0
LINE
  5
1DD
330
1F
100
AcDbEntity
  8
LC-001-100-D00-0
 62
     7
370
    15
100
AcDbLine
 10
346.619135
 20
674.280771
 30
0.0
 11
350.619136
 21
674.280771
 31
0.0
  0
LINE
  5
1DE
330
1F
100
AcDbEntity
  8
LC-001-100-D00-0
 62
     7
370
    15
100
AcDbLine
 10
208.619139
 20
678.780765
 30
0.0
 11
213.119133
 21
678.780765
 31
0.0
  0
LINE
  5
1DF
330
1F
100
AcDbEntity
  8
LC-001-100-D00-0
 62
     7
370
    15
100
AcDbLine
 10
208.619139
 20
676.780768
 30
0.0
 11
208.619139
 21
678.780765
 31
0.0
  0
LINE
  5
1E0
330
1F
100
AcDbEntity
  8
LC-001-100-D00-0
 62
     7
370
    15
100
AcDbLine
 10
204.619138
 20
677.780771
 30
0.0
 11
205.619133
 21
676.780768
 31
0.0
  0
LINE
  5
1E1
330
1F
100
AcDbEntity
  8
LC-001-100-D00-0
 62
     7
370
    15
100
AcDbLine
 10
204.619138
 20
681.28077
 30
0.0
 11
204.619138
 21
677.780771
 31
0.0
  0
LINE
  5
1E2
330
1F
100
AcDbEntity
  8
LC-001-100-D00-0
 62
     7
370
    15
100
AcDbLine
 10
205.619133
 20
681.28077
 30
0.0
 11
204.619138
 21
681.28077
 31
0.0
  0
LINE
  5
1E3
330
1F
100
AcDbEntity
  8
LC-001-100-D00-0
 62
     7
370
    15
100
AcDbLine
 10
205.619133
 20
682.280765
 30
0.0
 11
205.619133
 21
681.28077
 31
0.0
  0
LINE
  5
1E4
330
1F
100
AcDbEntity
  8
LC-001-100-D00-0
 62
     7
370
    15
100
AcDbLine
 10
216.119132
 20
682.280765
 30
0.0
 11
205.619133
 21
682.280765
 31
0.0
  0
LINE
  5
1E5
330
1F
100
AcDbEntity
  8
LC-001-100-D00-0
 62
     7
370
    15
100
AcDbLine
 10
213.119133
 20
678.780765
 30
0.0
 11
213.119133
 21
674.280771
 31
0.0
  0
LINE
  5
1E6
330
1F
100
AcDbEntity
  8
LC-001-100-D00-0
 62
     7
370
    15
100
AcDbLine
 10
205.619133
 20
676.780768
 30
0.0
 11
208.619139
 21
676.780768
 31
0.0
  0
LINE
  5
1E7
330
1F
100
AcDbEntity
  8
LC-001-100-D00-0
 62
     7
370
    15
100
AcDbLine
 10
213.119133
 20
674.280771
 30
0.0
 11
217.119134
 21
674.280771
 31
0.0
  0
LINE
  5
1E8
330
1F
100
AcDbEntity
  8
LC-001-100-D00-0
 62
     7
370
    15
100
AcDbLine
 10
117.869138
 20
710.33077
 30
0.0
 11
117.869138
 21
708.58077
 31
0.0
  0
LINE
  5
1E9
330
1F
100
AcDbEntity
  8
LC-001-100-D00-0
 62
     7
370
    15
100
AcDbLine
 10
117.869138
 20
708.58077
 30
0.0
 11
101.869135
 21
708.58077
 31
0.0
  0
LINE
  5
1EA
330
1F
100
AcDbEntity
  8
LC-001-100-D00-0
 62
     7
370
    15
100
AcDbLine
 10
101.869135
 20
708.58077
 30
0.0
 11
101.869135
 21
709.577487
 31
0.0
  0
ARC
  5
1EB
330
1F
100
AcDbEntity
  8
LC-001-100-D00-0
 62
     7
370
    15
100
AcDbCircle
 10
103.872414
 20
709.577489
 30
0.0
 40
2.003278571427359
100
AcDbArc
 50
90.0
 51
180.0
  0
LINE
  5
1EC
330
1F
100
AcDbEntity
  8
LC-001-100-D00-0
 62
     7
370
    15
100
AcDbLine
 10
116.619139
 20
711.580769
 30
0.0
 11
103.872417
 21
711.580769
 31
0.0
  0
LINE
  5
1ED
330
1F
100
AcDbEntity
  8
LC-001-100-D00-0
 62
     7
370
    15
100
AcDbLine
 10
117.869138
 20
710.33077
 30
0.0
 11
116.619139
 21
711.580769
 31
0.0
  0
LINE
  5
1EE
330
1F
100
AcDbEntity
  8
LC-001-100-D00-0
 62
     7
370
    15
100
AcDbLine
 10
123.869135
 20
708.58077
 30
0.0
 11
123.869135
 21
710.33077
 31
0.0
  0
LINE
  5
1EF
330
1F
100
AcDbEntity
  8
LC-001-100-D00-0
 62
     7
370
    15
100
AcDbLine
 10
123.869135
 20
708.58077
 30
0.0
 11
117.869138
 21
708.58077
 31
0.0
  0
LINE
  5
1F0
330
1F
100
AcDbEntity
  8
LC-001-100-D00-0
 62
     7
370
    15
100
AcDbLine
 10
123.869135
 20
710.33077
 30
0.0
 11
117.869138
 21
710.33077
 31
0.0
  0
LINE
  5
1F1
330
1F
100
AcDbEntity
  8
LC-001-100-D00-0
 62
     7
370
    15
100
AcDbLine
 10
461.869134
 20
709.577487
 30
0.0
 11
461.869134
 21
708.58077
 31
0.0
  0
ARC
  5
1F2
330
1F
100
AcDbEntity
  8
LC-001-100-D00-0
 62
     7
370
    15
100
AcDbCircle
 10
459.865857
 20
709.577489
 30
0.0
 40
2.003278571427302
100
AcDbArc
 50
0.0
 51
90.0
  0
LINE
  5
1F3
330
1F
100
AcDbEntity
  8
LC-001-100-D00-0
 62
     7
370
    15
100
AcDbLine
 10
200.369133
 20
707.580768
 30
0.0
 11
199.369139
 21
708.58077
 31
0.0
  0
LINE
  5
1F4
330
1F
100
AcDbEntity
  8
LC-001-100-D00-0
 62
     7
370
    15
100
AcDbLine
 10
125.119134
 20
711.580769
 30
0.0
 11
123.869135
 21
710.33077
 31
0.0
  0
LINE
  5
1F5
330
1F
100
AcDbEntity
  8
LC-001-100-D00-0
 62
     7
370
    15
100
AcDbLine
 10
202.119133
 20
711.580769
 30
0.0
 11
125.119134
 21
711.580769
 31
0.0
  0
ARC
  5
1F6
330
1F
100
AcDbEntity
  8
LC-001-100-D00-0
 62
     7
370
    15
100
AcDbCircle
 10
202.119135
 20
710.580767
 30
0.0
 40
0.9999999999999432
100
AcDbArc
 50
0.0
 51
90.0
  0
LINE
  5
1F7
330
1F
100
AcDbEntity
  8
LC-001-100-D00-0
 62
     7
370
    15
100
AcDbLine
 10
203.119135
 20
694.880769
 30
0.0
 11
203.119135
 21
710.580767
 31
0.0
  0
LINE
  5
1F8
330
1F
100
AcDbEntity
  8
LC-001-100-D00-0
 62
     7
370
    15
100
AcDbLine
 10
203.119135
 20
694.880769
 30
0.0
 11
207.119136
 21
687.952564
 31
0.0
  0
LINE
  5
1F9
330
1F
100
AcDbEntity
  8
LC-001-100-D00-0
 62
     7
370
    15
100
AcDbLine
 10
207.119136
 20
687.952564
 30
0.0
 11
207.119136
 21
687.302456
 31
0.0
  0
ARC
  5
1FA
330
1F
100
AcDbEntity
  8
LC-001-100-D00-0
 62
     7
370
    15
100
AcDbCircle
 10
206.619135
 20
687.302455
 30
0.0
 40
0.5000000000000694
100
AcDbArc
 50
300.0
 51
360.0
  0
LINE
  5
1FB
330
1F
100
AcDbEntity
  8
LC-001-100-D00-0
 62
     7
370
    15
100
AcDbLine
 10
206.369138
 20
686.58077
 30
0.0
 11
206.869139
 21
686.869443
 31
0.0
  0
LINE
  5
1FC
330
1F
100
AcDbEntity
  8
LC-001-100-D00-0
 62
     7
370
    15
100
AcDbLine
 10
206.369138
 20
686.58077
 30
0.0
 11
206.369138
 21
682.380766
 31
0.0
  0
LINE
  5
1FD
330
1F
100
AcDbEntity
  8
LC-001-100-D00-0
 62
     7
370
    15
100
AcDbLine
 10
206.369138
 20
682.380766
 30
0.0
 11
205.369136
 21
681.380764
 31
0.0
  0
LINE
  5
1FE
330
1F
100
AcDbEntity
  8
LC-001-100-D00-0
 62
     7
370
    15
100
AcDbLine
 10
205.369136
 20
676.780768
 30
0.0
 11
205.369136
 21
681.380764
 31
0.0
  0
LINE
  5
1FF
330
1F
100
AcDbEntity
  8
LC-001-100-D00-0
 62
     7
370
    15
100
AcDbLine
 10
212.369135
 20
676.780768
 30
0.0
 11
205.369136
 21
676.780768
 31
0.0
  0
LINE
  5
200
330
1F
100
AcDbEntity
  8
LC-001-100-D00-0
 62
     7
370
    15
100
AcDbLine
 10
212.369135
 20
676.780768
 30
0.0
 11
212.369135
 21
664.780767
 31
0.0
  0
ARC
  5
201
330
1F
100
AcDbEntity
  8
LC-001-100-D00-0
 62
     7
370
    15
100
AcDbCircle
 10
213.369135
 20
664.780767
 30
0.0
 40
1.000000000000114
100
AcDbArc
 50
180.0
 51
270.0
  0
LINE
  5
202
330
1F
100
AcDbEntity
  8
LC-001-100-D00-0
 62
     7
370
    15
100
AcDbLine
 10
217.369138
 20
663.780768
 30
0.0
 11
213.369137
 21
663.780768
 31
0.0
  0
ARC
  5
203
330
1F
100
AcDbEntity
  8
LC-001-100-D00-0
 62
     7
370
    15
100
AcDbCircle
 10
217.369135
 20
662.780767
 30
0.0
 40
1.0
100
AcDbArc
 50
0.0
 51
90.0
  0
LINE
  5
204
330
1F
100
AcDbEntity
  8
LC-001-100-D00-0
 62
     7
370
    15
100
AcDbLine
 10
218.369133
 20
662.780766
 30
0.0
 11
218.369133
 21
627.580768
 31
0.0
  0
LINE
  5
205
330
1F
100
AcDbEntity
  8
LC-001-100-D00-0
 62
     7
370
    15
100
AcDbLine
 10
247.869136
 20
627.580768
 30
0.0
 11
218.369133
 21
627.580768
 31
0.0
  0
LINE
  5
206
330
1F
100
AcDbEntity
  8
LC-001-100-D00-0
 62
     7
370
    15
100
AcDbLine
 10
247.869136
 20
495.08077
 30
0.0
 11
247.869136
 21
627.580768
 31
0.0
  0
LINE
  5
207
330
1F
100
AcDbEntity
  8
LC-001-100-D00-0
 62
     7
370
    15
100
AcDbLine
 10
245.708882
 20
495.08077
 30
0.0
 11
247.869136
 21
495.08077
 31
0.0
  0
LINE
  5
208
330
1F
100
AcDbEntity
  8
LC-001-100-D00-0
 62
     7
370
    15
100
AcDbLine
 10
245.708882
 20
495.08077
 30
0.0
 11
244.369137
 21
500.080765
 31
0.0
  0
LINE
  5
209
330
1F
100
AcDbEntity
  8
LC-001-100-D00-0
 62
     7
370
    15
100
AcDbLine
 10
244.369137
 20
500.080765
 30
0.0
 11
244.369137
 21
624.317462
 31
0.0
  0
LINE
  5
20A
330
1F
100
AcDbEntity
  8
LC-001-100-D00-0
 62
     7
370
    15
100
AcDbLine
 10
244.369137
 20
624.317462
 30
0.0
 11
242.369137
 21
624.580768
 31
0.0
  0
LINE
  5
20B
330
1F
100
AcDbEntity
  8
LC-001-100-D00-0
 62
     7
370
    15
100
AcDbLine
 10
242.369137
 20
624.580768
 30
0.0
 11
215.369134
 21
624.580768
 31
0.0
  0
LINE
  5
20C
330
1F
100
AcDbEntity
  8
LC-001-100-D00-0
 62
     7
370
    15
100
AcDbLine
 10
215.369134
 20
624.580768
 30
0.0
 11
215.369134
 21
659.280767
 31
0.0
  0
ARC
  5
20D
330
1F
100
AcDbEntity
  8
LC-001-100-D00-0
 62
     7
370
    15
100
AcDbCircle
 10
214.369135
 20
659.280767
 30
0.0
 40
1.0
100
AcDbArc
 50
0.0
 51
90.0
  0
LINE
  5
20E
330
1F
100
AcDbEntity
  8
LC-001-100-D00-0
 62
     7
370
    15
100
AcDbLine
 10
214.369132
 20
660.280769
 30
0.0
 11
212.069138
 21
660.280769
 31
0.0
  0
ARC
  5
20F
330
1F
100
AcDbEntity
  8
LC-001-100-D00-0
 62
     7
370
    15
100
AcDbCircle
 10
212.069135
 20
662.780767
 30
0.0
 40
2.500000000000028
100
AcDbArc
 50
180.0
 51
270.0
  0
LINE
  5
210
330
1F
100
AcDbEntity
  8
LC-001-100-D00-0
 62
     7
370
    15
100
AcDbLine
 10
209.569133
 20
673.180767
 30
0.0
 11
209.569133
 21
662.780766
 31
0.0
  0
ARC
  5
211
330
1F
100
AcDbEntity
  8
LC-001-100-D00-0
 62
     7
370
    15
100
AcDbCircle
 10
208.569135
 20
673.180767
 30
0.0
 40
1.000000000000114
100
AcDbArc
 50
0.0
 51
90.0
  0
LINE
  5
212
330
1F
100
AcDbEntity
  8
LC-001-100-D00-0
 62
     7
370
    15
100
AcDbLine
 10
208.569138
 20
674.180769
 30
0.0
 11
206.01604
 21
674.180769
 31
0.0
  0
ARC
  5
213
330
1F
100
AcDbEntity
  8
LC-001-100-D00-0
 62
     7
370
    15
100
AcDbCircle
 10
206.016038
 20
673.180767
 30
0.0
 40
1.000000000000114
100
AcDbArc
 50
90.0
 51
179.65
  0
LINE
  5
214
330
1F
100
AcDbEntity
  8
LC-001-100-D00-0
 62
     7
370
    15
100
AcDbLine
 10
205.01606
 20
673.186877
 30
0.0
 11
204.719132
 21
624.580768
 31
0.0
  0
LINE
  5
215
330
1F
100
AcDbEntity
  8
LC-001-100-D00-0
 62
     7
370
    15
100
AcDbLine
 10
204.719132
 20
624.580768
 30
0.0
 11
201.869136
 21
624.580768
 31
0.0
  0
LINE
  5
216
330
1F
100
AcDbEntity
  8
LC-001-100-D00-0
 62
     7
370
    15
100
AcDbLine
 10
201.869136
 20
624.580768
 30
0.0
 11
201.869136
 21
691.045829
 31
0.0
  0
LINE
  5
217
330
1F
100
AcDbEntity
  8
LC-001-100-D00-0
 62
     7
370
    15
100
AcDbLine
 10
200.369133
 20
693.643906
 30
0.0
 11
201.869136
 21
691.045829
 31
0.0
  0
LINE
  5
218
330
1F
100
AcDbEntity
  8
LC-001-100-D00-0
 62
     7
370
    15
100
AcDbLine
 10
200.369133
 20
693.643906
 30
0.0
 11
200.369133
 21
707.580768
 31
0.0
  0
LINE
  5
219
330
1F
100
AcDbEntity
  8
LC-001-100-D00-0
 62
     7
370
    15
100
AcDbLine
 10
199.369139
 20
708.58077
 30
0.0
 11
123.869135
 21
708.58077
 31
0.0
  0
LINE
  5
21A
330
1F
100
AcDbEntity
  8
LC-001-100-D00-0
 62
     7
370
    15
100
AcDbLine
 10
363.369136
 20
707.580768
 30
0.0
 11
363.369136
 21
693.643906
 31
0.0
  0
LINE
  5
21B
330
1F
100
AcDbEntity
  8
LC-001-100-D00-0
 62
     7
370
    15
100
AcDbLine
 10
364.369138
 20
708.58077
 30
0.0
 11
363.369136
 21
707.580768
 31
0.0
  0
LINE
  5
21C
330
1F
100
AcDbEntity
  8
LC-001-100-D00-0
 62
     7
370
    15
100
AcDbLine
 10
361.869133
 20
691.045829
 30
0.0
 11
361.869133
 21
624.580768
 31
0.0
  0
LINE
  5
21D
330
1F
100
AcDbEntity
  8
LC-001-100-D00-0
 62
     7
370
    15
100
AcDbLine
 10
207.119136
 20
687.952564
 30
0.0
 11
207.969135
 21
687.952564
 31
0.0
  0
LINE
  5
21E
330
1F
100
AcDbEntity
  8
LC-001-100-D00-0
 62
     7
370
    15
100
AcDbLine
 10
211.85658
 20
687.952564
 30
0.0
 11
270.069153
 21
687.952564
 31
0.0
  0
LINE
  5
21F
330
1F
100
AcDbEntity
  8
LC-001-100-D00-0
 62
     7
370
    15
100
AcDbLine
 10
293.669232
 20
687.952564
 30
0.0
 11
351.881708
 21
687.952564
 31
0.0
  0
LINE
  5
220
330
1F
100
AcDbEntity
  8
LC-001-100-D00-0
 62
     7
370
    15
100
AcDbLine
 10
355.769134
 20
687.952564
 30
0.0
 11
356.619133
 21
687.952564
 31
0.0
  0
LINE
  5
221
330
1F
100
AcDbEntity
  8
LC-001-100-D00-0
 62
     7
370
    15
100
AcDbLine
 10
356.619133
 20
687.302456
 30
0.0
 11
356.619133
 21
687.952564
 31
0.0
  0
LINE
  5
222
330
1F
100
AcDbEntity
  8
LC-001-100-D00-0
 62
     7
370
    15
100
AcDbLine
 10
203.119135
 20
694.880769
 30
0.0
 11
205.851054
 21
694.880769
 31
0.0
  0
LINE
  5
223
330
1F
100
AcDbEntity
  8
LC-001-100-D00-0
 62
     7
370
    15
100
AcDbLine
 10
268.069152
 20
694.880769
 30
0.0
 11
270.069153
 21
694.880769
 31
0.0
  0
LINE
  5
224
330
1F
100
AcDbEntity
  8
LC-001-100-D00-0
 62
     7
370
    15
100
AcDbLine
 10
293.669232
 20
694.880769
 30
0.0
 11
295.669232
 21
694.880769
 31
0.0
  0
LINE
  5
225
330
1F
100
AcDbEntity
  8
LC-001-100-D00-0
 62
     7
370
    15
100
AcDbLine
 10
357.887215
 20
694.880769
 30
0.0
 11
360.619134
 21
694.880769
 31
0.0
  0
LINE
  5
226
330
1F
100
AcDbEntity
  8
LC-001-100-D00-0
 62
     7
370
    15
100
AcDbLine
 10
360.619134
 20
710.580767
 30
0.0
 11
360.619134
 21
694.880769
 31
0.0
  0
LINE
  5
227
330
1F
100
AcDbEntity
  8
LC-001-100-D00-0
 62
     7
370
    15
100
AcDbLine
 10
319.369136
 20
500.080765
 30
0.0
 11
318.029389
 21
495.08077
 31
0.0
  0
LINE
  5
228
330
1F
100
AcDbEntity
  8
LC-001-100-D00-0
 62
     7
370
    15
100
AcDbLine
 10
212.369135
 20
676.780768
 30
0.0
 11
213.119133
 21
676.780768
 31
0.0
  0
LINE
  5
229
330
1F
100
AcDbEntity
  8
LC-001-100-D00-0
 62
     7
370
    15
100
AcDbLine
 10
350.619136
 20
676.780768
 30
0.0
 11
351.369134
 21
676.780768
 31
0.0
  0
LINE
  5
22A
330
1F
100
AcDbEntity
  8
LC-001-100-D00-0
 62
     7
370
    15
100
AcDbLine
 10
351.369134
 20
664.780767
 30
0.0
 11
351.369134
 21
676.780768
 31
0.0
  0
LINE
  5
22B
330
1F
100
AcDbEntity
  8
LC-001-100-D00-0
 62
     7
370
    15
100
AcDbLine
 10
212.369135
 20
664.780767
 30
0.0
 11
351.369134
 21
664.780767
 31
0.0
  0
LINE
  5
22C
330
1F
100
AcDbEntity
  8
LC-001-100-D00-0
 62
     7
370
    15
100
AcDbLine
 10
205.369136
 20
681.380764
 30
0.0
 11
205.619133
 21
681.380764
 31
0.0
  0
LINE
  5
22D
330
1F
100
AcDbEntity
  8
LC-001-100-D00-0
 62
     7
370
    15
100
AcDbLine
 10
358.119136
 20
681.380764
 30
0.0
 11
358.369133
 21
681.380764
 31
0.0
  0
LINE
  5
22E
330
1F
100
AcDbEntity
  8
LC-001-100-D00-0
 62
     7
370
    15
100
AcDbLine
 10
358.369133
 20
681.380764
 30
0.0
 11
358.369133
 21
676.780768
 31
0.0
  0
LINE
  5
22F
330
1F
100
AcDbEntity
  8
LC-001-100-D00-0
 62
     7
370
    15
100
AcDbLine
 10
206.369138
 20
682.380766
 30
0.0
 11
357.369139
 21
682.380766
 31
0.0
  0
LINE
  5
230
330
1F
100
AcDbEntity
  8
LC-001-100-D00-0
 62
     7
370
    15
100
AcDbLine
 10
358.369133
 20
681.380764
 30
0.0
 11
357.369139
 21
682.380766
 31
0.0
  0
LINE
  5
231
330
1F
100
AcDbEntity
  8
LC-001-100-D00-0
 62
     7
370
    15
100
AcDbLine
 10
206.369138
 20
686.58077
 30
0.0
 11
207.969135
 21
686.58077
 31
0.0
  0
LINE
  5
232
330
1F
100
AcDbEntity
  8
LC-001-100-D00-0
 62
     7
370
    15
100
AcDbLine
 10
211.85658
 20
686.58077
 30
0.0
 11
270.069153
 21
686.58077
 31
0.0
  0
LINE
  5
233
330
1F
100
AcDbEntity
  8
LC-001-100-D00-0
 62
     7
370
    15
100
AcDbLine
 10
293.669232
 20
686.58077
 30
0.0
 11
351.881708
 21
686.58077
 31
0.0
  0
LINE
  5
234
330
1F
100
AcDbEntity
  8
LC-001-100-D00-0
 62
     7
370
    15
100
AcDbLine
 10
355.769134
 20
686.58077
 30
0.0
 11
357.369139
 21
686.58077
 31
0.0
  0
LINE
  5
235
330
1F
100
AcDbEntity
  8
LC-001-100-D00-0
 62
     7
370
    15
100
AcDbLine
 10
357.369139
 20
682.380766
 30
0.0
 11
357.369139
 21
686.58077
 31
0.0
  0
ARC
  5
236
330
1F
100
AcDbEntity
  8
LC-001-100-D00-0
 62
     7
370
    15
100
AcDbCircle
 10
349.369135
 20
659.280767
 30
0.0
 40
1.000000000000114
100
AcDbArc
 50
90.0
 51
180.0
  0
ARC
  5
237
330
1F
100
AcDbEntity
  8
LC-001-100-D00-0
 62
     7
370
    15
100
AcDbCircle
 10
357.119135
 20
687.302455
 30
0.0
 40
0.5000000000000568
100
AcDbArc
 50
180.0
 51
240.0
  0
LINE
  5
238
330
1F
100
AcDbEntity
  8
LC-001-100-D00-0
 62
     7
370
    15
100
AcDbLine
 10
348.369135
 20
659.280767
 30
0.0
 11
348.369135
 21
624.580768
 31
0.0
  0
LINE
  5
239
330
1F
100
AcDbEntity
  8
LC-001-100-D00-0
 62
     7
370
    15
100
AcDbLine
 10
354.169137
 20
662.780766
 30
0.0
 11
354.169137
 21
673.180767
 31
0.0
  0
ARC
  5
23A
330
1F
100
AcDbEntity
  8
LC-001-100-D00-0
 62
     7
370
    15
100
AcDbCircle
 10
350.369135
 20
664.780767
 30
0.0
 40
1.000000000000114
100
AcDbArc
 50
270.0
 51
0.0
  0
LINE
  5
23B
330
1F
100
AcDbEntity
  8
LC-001-100-D00-0
 62
     7
370
    15
100
AcDbLine
 10
319.369136
 20
624.317462
 30
0.0
 11
319.369136
 21
500.080765
 31
0.0
  0
LINE
  5
23C
330
1F
100
AcDbEntity
  8
LC-001-100-D00-0
 62
     7
370
    15
100
AcDbLine
 10
247.869136
 20
627.580768
 30
0.0
 11
315.869135
 21
627.580768
 31
0.0
  0
LINE
  5
23D
330
1F
100
AcDbEntity
  8
LC-001-100-D00-0
 62
     7
370
    15
100
AcDbLine
 10
315.869135
 20
627.580768
 30
0.0
 11
315.869135
 21
495.08077
 31
0.0
  0
LINE
  5
23E
330
1F
100
AcDbEntity
  8
LC-001-100-D00-0
 62
     7
370
    15
100
AcDbLine
 10
247.869136
 20
495.08077
 30
0.0
 11
315.869135
 21
495.08077
 31
0.0
  0
LINE
  5
23F
330
1F
100
AcDbEntity
  8
LC-001-100-D00-0
 62
     7
370
    15
100
AcDbLine
 10
356.619133
 20
687.952564
 30
0.0
 11
360.619134
 21
694.880769
 31
0.0
  0
LINE
  5
240
330
1F
100
AcDbEntity
  8
LC-001-100-D00-0
 62
     7
370
    15
100
AcDbLine
 10
321.369135
 20
624.580768
 30
0.0
 11
319.369136
 21
624.317462
 31
0.0
  0
LINE
  5
241
330
1F
100
AcDbEntity
  8
LC-001-100-D00-0
 62
     7
370
    15
100
AcDbLine
 10
361.869133
 20
691.045829
 30
0.0
 11
363.369136
 21
693.643906
 31
0.0
  0
ARC
  5
242
330
1F
100
AcDbEntity
  8
LC-001-100-D00-0
 62
     7
370
    15
100
AcDbCircle
 10
355.169135
 20
673.180767
 30
0.0
 40
1.000000000000114
100
AcDbArc
 50
90.0
 51
180.0
  0
LINE
  5
243
330
1F
100
AcDbEntity
  8
LC-001-100-D00-0
 62
     7
370
    15
100
AcDbLine
 10
361.869133
 20
624.580768
 30
0.0
 11
359.019137
 21
624.580768
 31
0.0
  0
LINE
  5
244
330
1F
100
AcDbEntity
  8
LC-001-100-D00-0
 62
     7
370
    15
100
AcDbLine
 10
359.019137
 20
624.580768
 30
0.0
 11
358.722216
 21
673.186877
 31
0.0
  0
ARC
  5
245
330
1F
100
AcDbEntity
  8
LC-001-100-D00-0
 62
     7
370
    15
100
AcDbCircle
 10
357.722233
 20
673.180767
 30
0.0
 40
1.000000000000142
100
AcDbArc
 50
0.35
 51
90.0
  0
LINE
  5
246
330
1F
100
AcDbEntity
  8
LC-001-100-D00-0
 62
     7
370
    15
100
AcDbLine
 10
357.722229
 20
674.180769
 30
0.0
 11
355.169139
 21
674.180769
 31
0.0
  0
ARC
  5
247
330
1F
100
AcDbEntity
  8
LC-001-100-D00-0
 62
     7
370
    15
100
AcDbCircle
 10
351.669135
 20
662.780767
 30
0.0
 40
2.5
100
AcDbArc
 50
270.0
 51
0.0
  0
LINE
  5
248
330
1F
100
AcDbEntity
  8
LC-001-100-D00-0
 62
     7
370
    15
100
AcDbLine
 10
351.669135
 20
660.280769
 30
0.0
 11
349.369134
 21
660.280769
 31
0.0
  0
LINE
  5
249
330
1F
100
AcDbEntity
  8
LC-001-100-D00-0
 62
     7
370
    15
100
AcDbLine
 10
348.369135
 20
624.580768
 30
0.0
 11
321.369135
 21
624.580768
 31
0.0
  0
LINE
  5
24A
330
1F
100
AcDbEntity
  8
LC-001-100-D00-0
 62
     7
370
    15
100
AcDbLine
 10
345.369137
 20
627.580768
 30
0.0
 11
315.869135
 21
627.580768
 31
0.0
  0
LINE
  5
24B
330
1F
100
AcDbEntity
  8
LC-001-100-D00-0
 62
     7
370
    15
100
AcDbLine
 10
345.369137
 20
627.580768
 30
0.0
 11
345.369137
 21
662.780766
 31
0.0
  0
ARC
  5
24C
330
1F
100
AcDbEntity
  8
LC-001-100-D00-0
 62
     7
370
    15
100
AcDbCircle
 10
346.369135
 20
662.780767
 30
0.0
 40
0.9999999999998863
100
AcDbArc
 50
90.0
 51
180.0
  0
LINE
  5
24D
330
1F
100
AcDbEntity
  8
LC-001-100-D00-0
 62
     7
370
    15
100
AcDbLine
 10
350.369136
 20
663.780768
 30
0.0
 11
346.369135
 21
663.780768
 31
0.0
  0
LINE
  5
24E
330
1F
100
AcDbEntity
  8
LC-001-100-D00-0
 62
     7
370
    15
100
AcDbLine
 10
356.869138
 20
686.869443
 30
0.0
 11
357.369139
 21
686.58077
 31
0.0
  0
ARC
  5
24F
330
1F
100
AcDbEntity
  8
LC-001-100-D00-0
 62
     7
370
    15
100
AcDbCircle
 10
361.619135
 20
710.580767
 30
0.0
 40
0.9999999999998863
100
AcDbArc
 50
90.0
 51
180.0
  0
LINE
  5
250
330
1F
100
AcDbEntity
  8
LC-001-100-D00-0
 62
     7
370
    15
100
AcDbLine
 10
438.619136
 20
711.580769
 30
0.0
 11
361.619136
 21
711.580769
 31
0.0
  0
LINE
  5
251
330
1F
100
AcDbEntity
  8
LC-001-100-D00-0
 62
     7
370
    15
100
AcDbLine
 10
439.869134
 20
710.33077
 30
0.0
 11
438.619136
 21
711.580769
 31
0.0
  0
LINE
  5
252
330
1F
100
AcDbEntity
  8
LC-001-100-D00-0
 62
     7
370
    15
100
AcDbLine
 10
439.869134
 20
710.33077
 30
0.0
 11
439.869134
 21
708.58077
 31
0.0
  0
LINE
  5
253
330
1F
100
AcDbEntity
  8
LC-001-100-D00-0
 62
     7
370
    15
100
AcDbLine
 10
315.869135
 20
495.08077
 30
0.0
 11
318.029389
 21
495.08077
 31
0.0
  0
LINE
  5
254
330
1F
100
AcDbEntity
  8
LC-001-100-D00-0
 62
     7
370
    15
100
AcDbLine
 10
358.369133
 20
676.780768
 30
0.0
 11
351.369134
 21
676.780768
 31
0.0
  0
LINE
  5
255
330
1F
100
AcDbEntity
  8
LC-001-100-D00-0
 62
     7
370
    15
100
AcDbLine
 10
439.869134
 20
708.58077
 30
0.0
 11
364.369138
 21
708.58077
 31
0.0
  0
LINE
  5
256
330
1F
100
AcDbEntity
  8
LC-001-100-D00-0
 62
     7
370
    15
100
AcDbLine
 10
445.869132
 20
708.58077
 30
0.0
 11
445.869132
 21
710.33077
 31
0.0
  0
LINE
  5
257
330
1F
100
AcDbEntity
  8
LC-001-100-D00-0
 62
     7
370
    15
100
AcDbLine
 10
447.11913
 20
711.580769
 30
0.0
 11
445.869132
 21
710.33077
 31
0.0
  0
LINE
  5
258
330
1F
100
AcDbEntity
  8
LC-001-100-D00-0
 62
     7
370
    15
100
AcDbLine
 10
459.865852
 20
711.580769
 30
0.0
 11
447.11913
 21
711.580769
 31
0.0
  0
LINE
  5
259
330
1F
100
AcDbEntity
  8
LC-001-100-D00-0
 62
     7
370
    15
100
AcDbLine
 10
461.869134
 20
708.58077
 30
0.0
 11
445.869132
 21
708.58077
 31
0.0
  0
LINE
  5
25A
330
1F
100
AcDbEntity
  8
LC-001-100-D00-0
 62
     7
370
    15
100
AcDbLine
 10
445.869132
 20
710.33077
 30
0.0
 11
439.869134
 21
710.33077
 31
0.0
  0
LINE
  5
25B
330
1F
100
AcDbEntity
  8
LC-001-100-D00-0
 62
     7
370
    15
100
AcDbLine
 10
445.869132
 20
708.58077
 30
0.0
 11
439.869134
 21
708.58077
 31
0.0
  0
LINE
  5
25C
330
1F
100
AcDbEntity
  8
LC-001-100-D00-0
 62
     7
370
    15
100
AcDbLine
 10
218.369133
 20
662.780766
 30
0.0
 11
345.369137
 21
662.780766
 31
0.0
  0
LINE
  5
25D
330
1F
100
AcDbEntity
  8
LC-001-100-D00-0
 62
     7
370
    15
100
AcDbLine
 10
217.369138
 20
663.780768
 30
0.0
 11
346.369135
 21
663.780768
 31
0.0
  0
LINE
  5
25E
330
1F
100
AcDbEntity
  8
LC-001-100-D00-0
 62
     7
370
    15
100
AcDbLine
 10
116.619139
 20
711.580769
 30
0.0
 11
125.119134
 21
711.580769
 31
0.0
  0
LINE
  5
25F
330
1F
100
AcDbEntity
  8
LC-001-100-D00-0
 62
     7
370
    15
100
AcDbLine
 10
438.619136
 20
711.580769
 30
0.0
 11
447.11913
 21
711.580769
 31
0.0
  0
LINE
  5
260
330
1F
100
AcDbEntity
  8
LC-001-100-D00-0
 62
     7
370
    15
100
AcDbLine
 10
270.069153
 20
692.528658
 30
0.0
 11
269.151765
 21
692.081221
 31
0.0
  0
INSERT
  5
272
330
1F
100
AcDbEntity
  8
LC-001-100-D00-0
 62
     7
370
    15
100
AcDbBlockReference
  2
POLY9
 10
0.0
 20
0.0
 30
0.0
  0
LINE
  5
273
330
1F
100
AcDbEntity
  8
LC-001-100-D00-0
 62
     7
370
    15
100
AcDbLine
 10
269.11369
 20
691.97064
 30
0.0
 11
270.069153
 21
690.011644
 31
0.0
  0
LINE
  5
274
330
1F
100
AcDbEntity
  8
LC-001-100-D00-0
 62
     7
370
    15
100
AcDbLine
 10
270.069153
 20
689.639733
 30
0.0
 11
268.895684
 21
692.045704
 31
0.0
  0
INSERT
  5
286
330
1F
100
AcDbEntity
  8
LC-001-100-D00-0
 62
     7
370
    15
100
AcDbBlockReference
  2
POLY10
 10
0.0
 20
0.0
 30
0.0
  0
LINE
  5
287
330
1F
100
AcDbEntity
  8
LC-001-100-D00-0
 62
     7
370
    15
100
AcDbLine
 10
268.933763
 20
692.156286
 30
0.0
 11
270.069153
 21
692.71005
 31
0.0
  0
LINE
  5
288
330
1F
100
AcDbEntity
  8
LC-001-100-D00-0
 62
     7
370
    15
100
AcDbLine
 10
270.069153
 20
690.755465
 30
0.0
 11
269.62065
 21
691.675038
 31
0.0
  0
LINE
  5
289
330
1F
100
AcDbEntity
  8
LC-001-100-D00-0
 62
     7
370
    15
100
AcDbLine
 10
270.069153
 20
690.383554
 30
0.0
 11
269.474116
 21
691.603564
 31
0.0
  0
INSERT
  5
2A7
330
1F
100
AcDbEntity
  8
LC-001-100-D00-0
 62
     7
370
    15
100
AcDbBlockReference
  2
POLY11
 10
0.0
 20
0.0
 30
0.0
  0
LINE
  5
2A8
330
1F
100
AcDbEntity
  8
LC-001-100-D00-0
 62
     7
370
    15
100
AcDbLine
 10
269.92799
 20
691.416801
 30
0.0
 11
270.069153
 21
691.127376
 31
0.0
  0
ARC
  5
2A9
330
1F
100
AcDbEntity
  8
LC-001-100-D00-0
 62
     7
370
    15
100
AcDbCircle
 10
270.001132
 20
691.452592
 30
0.0
 40
0.0814290770760492
100
AcDbArc
 50
33.348707
 51
206.074597
  0
LINE
  5
2AA
330
1F
100
AcDbEntity
  8
LC-001-100-D00-0
 62
     7
370
    15
100
AcDbLine
 10
270.069153
 20
692.347267
 30
0.0
 11
269.661777
 21
692.148574
 31
0.0
  0
LINE
  5
2AB
330
1F
100
AcDbEntity
  8
LC-001-100-D00-0
 62
     7
370
    15
100
AcDbLine
 10
270.069153
 20
692.165875
 30
0.0
 11
269.733247
 21
692.002044
 31
0.0
  0
INSERT
  5
2C9
330
1F
100
AcDbEntity
  8
LC-001-100-D00-0
 62
     7
370
    15
100
AcDbBlockReference
  2
POLY12
 10
0.0
 20
0.0
 30
0.0
  0
LINE
  5
2CA
330
1F
100
AcDbEntity
  8
LC-001-100-D00-0
 62
     8
370
    15
100
AcDbLine
 10
212.223193
 20
702.880771
 30
0.0
 11
211.85658
 21
702.880771
 31
0.0
  0
LINE
  5
2CB
330
1F
100
AcDbEntity
  8
LC-001-100-D00-0
 62
     8
370
    15
100
AcDbLine
 10
351.881708
 20
702.880771
 30
0.0
 11
351.515102
 21
702.880771
 31
0.0
  0
LINE
  5
2CC
330
1F
100
AcDbEntity
  8
LC-001-100-D00-0
 62
     8
370
    15
100
AcDbLine
 10
207.119136
 20
687.302456
 30
0.0
 11
207.969135
 21
687.302456
 31
0.0
  0
LINE
  5
2CD
330
1F
100
AcDbEntity
  8
LC-001-100-D00-0
 62
     8
370
    15
100
AcDbLine
 10
211.85658
 20
687.302456
 30
0.0
 11
270.069153
 21
687.302456
 31
0.0
  0
LINE
  5
2CE
330
1F
100
AcDbEntity
  8
LC-001-100-D00-0
 62
     8
370
    15
100
AcDbLine
 10
293.669232
 20
687.302456
 30
0.0
 11
351.881708
 21
687.302456
 31
0.0
  0
LINE
  5
2CF
330
1F
100
AcDbEntity
  8
LC-001-100-D00-0
 62
     8
370
    15
100
AcDbLine
 10
355.769134
 20
687.302456
 30
0.0
 11
356.619133
 21
687.302456
 31
0.0
  0
LINE
  5
2D0
330
1F
100
AcDbEntity
  8
LC-001-100-D00-0
 62
     8
370
    15
100
AcDbLine
 10
203.119135
 20
710.580767
 30
0.0
 11
205.851054
 21
710.580767
 31
0.0
  0
LINE
  5
2D1
330
1F
100
AcDbEntity
  8
LC-001-100-D00-0
 62
     8
370
    15
100
AcDbLine
 10
357.887215
 20
710.580767
 30
0.0
 11
360.619134
 21
710.580767
 31
0.0
  0
LINE
  5
2D2
330
1F
100
AcDbEntity
  8
LC-001-100-D00-0
 62
     8
370
    15
100
AcDbLine
 10
206.869139
 20
686.869443
 30
0.0
 11
207.969135
 21
686.869443
 31
0.0
  0
LINE
  5
2D3
330
1F
100
AcDbEntity
  8
LC-001-100-D00-0
 62
     8
370
    15
100
AcDbLine
 10
211.85658
 20
686.869443
 30
0.0
 11
270.069153
 21
686.869443
 31
0.0
  0
LINE
  5
2D4
330
1F
100
AcDbEntity
  8
LC-001-100-D00-0
 62
     8
370
    15
100
AcDbLine
 10
293.669232
 20
686.869443
 30
0.0
 11
351.881708
 21
686.869443
 31
0.0
  0
LINE
  5
2D5
330
1F
100
AcDbEntity
  8
LC-001-100-D00-0
 62
     8
370
    15
100
AcDbLine
 10
355.769134
 20
686.869443
 30
0.0
 11
356.869138
 21
686.869443
 31
0.0
  0
LINE
  5
2D6
330
1F
100
AcDbEntity
  8
LC-001-100-D00-0
 62
     8
370
    15
100
AcDbLine
 10
205.01606
 20
673.186877
 30
0.0
 11
209.569118
 21
673.186877
 31
0.0
  0
LINE
  5
2D7
330
1F
100
AcDbEntity
  8
LC-001-100-D00-0
 62
     8
370
    15
100
AcDbLine
 10
354.169151
 20
673.186877
 30
0.0
 11
358.722216
 21
673.186877
 31
0.0
  0
INSERT
  5
2DF
330
1F
100
AcDbEntity
  8
LC-001-100-D00-0
 62
     7
370
    -2
100
AcDbBlockReference
  2
KLON1
 10
0.0
 20
0.0
 30
0.0
  0
INSERT
  5
339
330
1F
100
AcDbEntity
  8
LC-001-100-D00-0
 62
     7
370
    -2
100
AcDbBlockReference
  2
KLON2
 10
0.0
 20
0.0
 30
0.0
  0
INSERT
  5
393
330
1F
100
AcDbEntity
  8
LC-001-100-D00-0
 62
     7
370
    -2
100
AcDbBlockReference
  2
KLON3
 10
0.0
 20
0.0
 30
0.0
  0
INSERT
  5
39B
330
1F
100
AcDbEntity
  8
LC-001-100-D00-0
 62
     7
370
    -2
100
AcDbBlockReference
  2
KLON4
 10
0.0
 20
0.0
 30
0.0
  0
INSERT
  5
3A4
330
1F
100
AcDbEntity
  8
LC-001-100-D00-0
 62
     7
370
    -2
100
AcDbBlockReference
  2
KLON5
 10
0.0
 20
0.0
 30
0.0
  0
INSERT
  5
3AE
330
1F
100
AcDbEntity
  8
LC-001-100-D00-0
 62
     7
370
    -2
100
AcDbBlockReference
  2
KLON6
 10
0.0
 20
0.0
 30
0.0
  0
INSERT
  5
3D8
330
1F
100
AcDbEntity
  8
LC-001-100-D00-0
 62
     7
370
    -2
100
AcDbBlockReference
  2
KLON7
 10
0.0
 20
0.0
 30
0.0
  0
INSERT
  5
3E4
330
1F
100
AcDbEntity
  8
LC-001-100-D00-0
 62
     7
370
    -2
100
AcDbBlockReference
  2
KLON8
 10
0.0
 20
0.0
 30
0.0
  0
INSERT
  5
420
330
1F
100
AcDbEntity
  8
LC-001-100-D00-0
 62
     7
370
    -2
100
AcDbBlockReference
  2
KLON9
 10
0.0
 20
0.0
 30
0.0
  0
INSERT
  5
469
330
1F
100
AcDbEntity
  8
LC-001-100-D00-0
 62
     7
370
    -2
100
AcDbBlockReference
  2
KLON10
 10
0.0
 20
0.0
 30
0.0
  0
LINE
  5
46B
330
1F
100
AcDbEntity
  8
LC-001-100-D00-0
  6
DASHDOT
 62
     7
370
    -2
100
AcDbLine
 10
281.869135
 20
493.243323
 30
0.0
 11
281.869135
 21
666.374912
 31
0.0
  0
DIMENSION
  5
46F
330
1F
100
AcDbEntity
  8
LC-002-003-----0
 62
     7
370
    25
100
AcDbDimension
  2
*D23
 10
461.869134
 20
809.238138
 30
0.0
 11
280.732324
 21
840.038138
 31
0.0
 70
   160
  1
%%c<>
 71
     5
 42
359.999999
  3
LC-DIM-L-0140-02-02
100
AcDbAlignedDimension
 13
101.869135
 23
708.58077
 33
0.0
 14
461.869134
 24
708.58077
 34
0.0
100
AcDbRotatedDimension
  0
DIMENSION
  5
47D
330
1F
100
AcDbEntity
  8
LC-002-003-----0
 62
     7
370
    25
100
AcDbDimension
  2
*D24
 10
361.869133
 20
389.874138
 30
0.0
 11
275.425977
 21
420.674138
 31
0.0
 70
   160
  1
%%c<>
 71
     5
 42
159.999996
  3
LC-DIM-L-0140-02-02
100
AcDbAlignedDimension
 13
201.869136
 23
624.580768
 33
0.0
 14
361.869133
 24
624.580768
 34
0.0
100
AcDbRotatedDimension
  0
DIMENSION
  5
48A
330
1F
100
AcDbEntity
  8
LC-002-003-----0
 62
     7
370
    25
100
AcDbDimension
  2
*D25
 10
319.369136
 20
455.214138
 30
0.0
 11
283.385497
 21
486.014138
 31
0.0
 70
   160
  1
DN70
 71
     5
 42
75.000001
  3
LC-DIM-L-0140-02-02
100
AcDbAlignedDimension
 13
244.369135
 23
500.306435
 33
0.0
 14
319.369136
 24
500.080765
 34
0.0
100
AcDbRotatedDimension
  0
DIMENSION
  5
497
330
1F
100
AcDbEntity
  8
LC-002-003-----0
 62
     7
370
    25
100
AcDbDimension
  2
*D26
 10
117.119974
 20
614.580767
 30
0.0
 11
86.319974
 21
666.084138
 31
0.0
 70
   160
 71
     5
 42
94.000003
 53
90.0
  3
LC-DIM-L-0140-02-02
100
AcDbAlignedDimension
 13
101.869135
 23
708.58077
 33
0.0
 14
209.869138
 24
614.580767
 34
0.0
 50
90.0
100
AcDbRotatedDimension
  0
DIMENSION
  5
4A4
330
1F
100
AcDbEntity
  8
LC-002-003-----0
 62
     7
370
    25
100
AcDbDimension
  2
*D27
 10
117.318819
 20
495.08077
 30
0.0
 11
86.518819
 21
566.892906
 31
0.0
 70
   160
  1
119,5
 71
     5
 42
119.517501
 53
90.0
  3
LC-DIM-L-0140-02-02
100
AcDbAlignedDimension
 13
209.340229
 23
614.59827
 33
0.0
 14
245.708882
 24
495.08077
 34
0.0
 50
90.0
100
AcDbRotatedDimension
  0
ENDSEC
  0
SECTION
  2
OBJECTS
  0
DICTIONARY
  5
C
330
0
100
AcDbDictionary
281
     1
  3
ACAD_GROUP
350
D
  3
ACAD_LAYOUT
350
1A
  3
ACAD_MLINESTYLE
350
17
  3
ACAD_PLOTSETTINGS
350
19
  3
ACAD_PLOTSTYLENAME
350
E
  0
DICTIONARY
  5
D
102
{ACAD_REACTORS
330
C
102
}
330
C
100
AcDbDictionary
281
     1
  0
DICTIONARY
  5
1A
102
{ACAD_REACTORS
330
C
102
}
330
C
100
AcDbDictionary
281
     1
  3
Layout1
350
1E
  3
Layout2
350
26
  3
Model
350
22
  0
DICTIONARY
  5
17
102
{ACAD_REACTORS
330
C
102
}
330
C
100
AcDbDictionary
281
     1
  3
Standard
350
18
  0
DICTIONARY
  5
19
102
{ACAD_REACTORS
330
C
102
}
330
C
100
AcDbDictionary
281
     1
  0
ACDBDICTIONARYWDFLT
  5
E
102
{ACAD_REACTORS
330
C
102
}
330
C
100
AcDbDictionary
281
     1
  3
Normal
350
F
100
AcDbDictionaryWithDefault
340
F
  0
LAYOUT
  5
1E
102
{ACAD_REACTORS
330
1A
102
}
330
1A
100
AcDbPlotSettings
  1

  2

  4

  6

 40
0.0
 41
0.0
 42
0.0
 43
0.0
 44
0.0
 45
0.0
 46
0.0
 47
0.0
 48
0.0
 49
0.0
140
0.0
141
0.0
142
1.0
143
1.0
 70
   688
 72
     0
 73
     0
 74
     5
  7

 75
    16
147
1.0
148
0.0
149
0.0
100
AcDbLayout
  1
Layout1
 70
     1
 71
     1
 10
-0.418277
 20
273.450138
 11
839.581723
 21
867.450138
 12
0.0
 22
0.0
 32
0.0
 14
-0.418277
 24
273.450138
 34
0.0
 15
839.581723
 25
867.450138
 35
0.0
146
0.0
 13
0.0
 23
0.0
 33
0.0
 16
1.0
 26
0.0
 36
0.0
 17
0.0
 27
1.0
 37
0.0
 76
     0
330
1B
  0
LAYOUT
  5
26
102
{ACAD_REACTORS
330
1A
102
}
330
1A
100
AcDbPlotSettings
  1

  2

  4

  6

 40
0.0
 41
0.0
 42
0.0
 43
0.0
 44
0.0
 45
0.0
 46
0.0
 47
0.0
 48
0.0
 49
0.0
140
0.0
141
0.0
142
1.0
143
1.0
 70
   688
 72
     0
 73
     0
 74
     5
  7

 75
    16
147
1.0
148
0.0
149
0.0
100
AcDbLayout
  1
Layout2
 70
     1
 71
     2
 10
0.0
 20
0.0
 11
0.0
 21
0.0
 12
0.0
 22
0.0
 32
0.0
 14
0.0
 24
0.0
 34
0.0
 15
0.0
 25
0.0
 35
0.0
146
0.0
 13
0.0
 23
0.0
 33
0.0
 16
1.0
 26
0.0
 36
0.0
 17
0.0
 27
1.0
 37
0.0
 76
     0
330
23
  0
LAYOUT
  5
22
102
{ACAD_REACTORS
330
1A
102
}
330
1A
100
AcDbPlotSettings
  1

  2

  4

  6

 40
0.0
 41
0.0
 42
0.0
 43
0.0
 44
0.0
 45
0.0
 46
0.0
 47
0.0
 48
0.0
 49
0.0
140
0.0
141
0.0
142
1.0
143
1.0
 70
  1776
 72
     0
 73
     0
 74
     0
  7

 75
     0
147
1.0
148
0.0
149
0.0
100
AcDbLayout
  1
Model
 70
     1
 71
     0
 10
-0.418277
 20
273.450138
 11
839.581723
 21
867.450138
 12
-0.418277
 22
273.450138
 32
0.0
 14
-0.418277
 24
273.450138
 34
0.0
 15
839.581723
 25
867.450138
 35
0.0
146
0.0
 13
0.0
 23
0.0
 33
0.0
 16
1.0
 26
0.0
 36
0.0
 17
0.0
 27
1.0
 37
0.0
 76
     0
330
1F
  0
MLINESTYLE
  5
18
102
{ACAD_REACTORS
330
17
102
}
330
17
100
AcDbMlineStyle
  2
Standard
 70
     0
  3

 62
   256
 51
90.0
 52
90.0
 71
     2
 49
0.5
 62
   256
  6
BYLAYER
 49
-0.5
 62
   256
  6
BYLAYER
  0
ACDBPLACEHOLDER
  5
F
102
{ACAD_REACTORS
330
E
102
}
330
E
  0
ENDSEC
  0
EOF
