  0
SECTION
  2
HEADER
  9
$ACADVER
  1
AC1009
  9
$INSBASE
 10
0.0
 20
0.0
 30
0.0
  9
$EXTMIN
 10
0.0
 20
0.0
 30
0.0
  9
$EXTMAX
 10
840.0
 20
594.0
 30
0.0
  9
$LIMMIN
 10
0.0
 20
0.0
  9
$LIMMAX
 10
840.0
 20
594.0
  9
$ORTHOMODE
 70
     0
  9
$REGENMODE
 70
     1
  9
$FILLMODE
 70
     1
  9
$QTEXTMODE
 70
     0
  9
$MIRRTEXT
 70
     1
  9
$DRAGMODE
 70
     2
  9
$LTSCALE
 40
2.0
  9
$OSMODE
 70
     0
  9
$ATTMODE
 70
     1
  9
$TEXTSIZE
 40
0.2
  9
$TRACEWID
 40
0.05
  9
$TEXTSTYLE
  7
STANDARD
  9
$CLAYER
  8
0
  9
$CELTYPE
  6
BYLAYER
  9
$CECOLOR
 62
     7
  9
$DIMSCALE
 40
2.0
  9
$DIMASZ
 40
3.5
  9
$DIMEXO
 40
0.0625
  9
$DIMDLI
 40
0.38
  9
$DIMRND
 40
0.0
  9
$DIMDLE
 40
0.0
  9
$DIMEXE
 40
0.18
  9
$DIMTP
 40
0.0
  9
$DIMTM
 40
0.0
  9
$DIMTXT
 40
3.5
  9
$DIMCEN
 40
0.09
  9
$DIMTSZ
 40
0.0
  9
$DIMTOL
 70
     0
  9
$DIMLIM
 70
     0
  9
$DIMTIH
 70
     1
  9
$DIMTOH
 70
     1
  9
$DIMSE1
 70
     0
  9
$DIMSE2
 70
     0
  9
$DIMTAD
 70
     1
  9
$DIMZIN
 70
     0
  9
$DIMBLK
  1

  9
$DIMASO
 70
     1
  9
$DIMSHO
 70
     1
  9
$DIMPOST
  1

  9
$DIMAPOST
  1

  9
$DIMALT
 70
     0
  9
$DIMALTD
 70
     2
  9
$DIMALTF
 40
25.4
  9
$DIMLFAC
 40
1.0
  9
$DIMTOFL
 70
     0
  9
$DIMTVP
 40
0.0
  9
$DIMTIX
 70
     0
  9
$DIMSOXD
 70
     0
  9
$DIMSAH
 70
     0
  9
$DIMBLK1
  1

  9
$DIMBLK2
  1

  9
$DIMSTYLE
  2
STANDARD
  9
$DIMCLRD
 70
     0
  9
$DIMCLRE
 70
     0
  9
$DIMCLRT
 70
     0
  9
$DIMTFAC
 40
1.0
  9
$DIMGAP
 40
0.09
  9
$LUNITS
 70
     2
  9
$LUPREC
 70
     2
  9
$AXISMODE
 70
     0
  9
$AXISUNIT
 10
0.0
 20
0.0
  9
$SKETCHINC
 40
0.1
  9
$FILLETRAD
 40
0.0
  9
$AUNITS
 70
     0
  9
$AUPREC
 70
     0
  9
$MENU
  1
acad
  9
$ELEVATION
 40
0.0
  9
$PELEVATION
 40
0.0
  9
$THICKNESS
 40
0.0
  9
$LIMCHECK
 70
     0
  9
$BLIPMODE
 70
     1
  9
$CHAMFERA
 40
0.0
  9
$CHAMFERB
 40
0.0
  9
$SKPOLY
 70
     0
  9
$TDCREATE
 40
0.000000000
  9
$TDUPDATE
 40
0.000000000
  9
$TDINDWG
 40
0.0000000000
  9
$TDUSRTIMER
 40
0.0000000000
  9
$USRTIMER
 70
     1
  9
$ANGBASE
 50
0.0
  9
$ANGDIR
 70
     0
  9
$PDMODE
 70
     0
  9
$PDSIZE
 40
0.0
  9
$PLINEWID
 40
0.0
  9
$COORDS
 70
     0
  9
$SPLFRAME
 70
     0
  9
$SPLINETYPE
 70
     6
  9
$SPLINESEGS
 70
     8
  9
$ATTDIA
 70
     0
  9
$ATTREQ
 70
     1
  9
$HANDLING
 70
     1
  9
$HANDSEED
  5
B2
  9
$SURFTAB1
 70
     6
  9
$SURFTAB2
 70
     6
  9
$SURFTYPE
 70
     6
  9
$SURFU
 70
     6
  9
$SURFV
 70
     6
  9
$UCSNAME
  2

  9
$UCSORG
 10
0.0
 20
0.0
 30
0.0
  9
$UCSXDIR
 10
1.0
 20
0.0
 30
0.0
  9
$UCSYDIR
 10
0.0
 20
1.0
 30
0.0
  9
$PUCSNAME
  2

  9
$PUCSORG
 10
0.0
 20
0.0
 30
0.0
  9
$PUCSXDIR
 10
1.0
 20
0.0
 30
0.0
  9
$PUCSYDIR
 10
0.0
 20
1.0
 30
0.0
  9
$USERI1
 70
     0
  9
$USERI2
 70
     0
  9
$USERI3
 70
     0
  9
$USERI4
 70
     0
  9
$USERI5
 70
     0
  9
$USERR1
 40
0.0
  9
$USERR2
 40
0.0
  9
$USERR3
 40
0.0
  9
$USERR4
 40
0.0
  9
$USERR5
 40
0.0
  9
$WORLDVIEW
 70
     1
  9
$SHADEDGE
 70
     3
  9
$SHADEDIF
 70
    70
  9
$TILEMODE
 70
     1
  9
$MAXACTVP
 70
    16
  9
$PINSBASE
 10
0.0
 20
0.0
 30
0.0
  9
$PLIMCHECK
 70
     0
  9
$PEXTMIN
 10
1.000000E+20
 20
1.000000E+20
 30
1.000000E+20
  9
$PEXTMAX
 10
-1.000000E+20
 20
-1.000000E+20
 30
-1.000000E+20
  9
$PLIMMIN
 10
0.0
 20
0.0
  9
$PLIMMAX
 10
840.0
 20
594.0
  9
$UNITMODE
 70
     0
  9
$VISRETAIN
 70
     0
  9
$PLINEGEN
 70
     1
  9
$PSLTSCALE
 70
     0
  9
$TREEDEPTH
 70
  3020
  9
$DWGCODEPAGE
  3
dos850
  0
ENDSEC
  0
SECTION
  2
TABLES
  0
TABLE
  2
VPORT
 70
     1
  0
VPORT
  2
*ACTIVE
 70
     0
 10
0.0
 20
0.0
 11
1.0
 21
1.0
 12
420.0
 22
297.0
 13
0.0
 23
0.0
 14
1.0
 24
1.0
 15
0.0
 25
0.0
 16
0.0
 26
0.0
 36
1.0
 17
0.0
 27
0.0
 37
0.0
 40
594.0
 41
1.604229
 42
50.0
 43
0.0
 44
0.0
 50
0.0
 51
0.0
 71
     0
 72
   100
 73
     1
 74
     1
 75
     0
 76
     0
 77
     0
 78
     0
  0
ENDTAB
  0
TABLE
  2
LTYPE
 70
     1
  0
LTYPE
  2
CONTINUOUS
 70
    64
  3
Solid line
 72
    65
 73
     0
 40
0.0
  0
ENDTAB
  0
TABLE
  2
LAYER
 70
     8
  0
LAYER
  2
0
 70
     0
 62
     7
  6
CONTINUOUS
  0
LAYER
  2
LC-INFO-1-2-MM-A3-0
 70
     1
 62
    -1
  6
CONTINUOUS
  0
LAYER
  2
LC-004-003-MTH-0
 70
     0
 62
     2
  6
CONTINUOUS
  0
LAYER
  2
LC-005-003-MTG-0
 70
     0
 62
     2
  6
CONTINUOUS
  0
LAYER
  2
LC-003-003-----0
 70
     0
 62
     2
  6
CONTINUOUS
  0
LAYER
  2
LC-002-000-----0
 70
     0
 62
     7
  6
CONTINUOUS
  0
LAYER
  2
LC-001-002-----0
 70
     0
 62
     1
  6
CONTINUOUS
  0
LAYER
  2
LC-000
 70
     0
 62
     7
  6
CONTINUOUS
  0
ENDTAB
  0
TABLE
  2
STYLE
 70
     4
  0
STYLE
  2
STANDARD
 70
     0
 40
0.0
 41
1.0
 50
0.0
 71
     0
 42
0.0
  3
txt
  4

  0
STYLE
  2
LC-STANDARD
 70
    64
 40
0.0
 41
1.0
 50
0.0
 71
     0
 42
3.5
  3
MONOTXT
  4

  0
STYLE
  2
LC-TXTSTYLE-150-400-0-0-D2
 70
    64
 40
0.0
 41
1.0
 50
15.0
 71
     0
 42
3.5
  3
MONOTXT
  4

  0
STYLE
  2
LC-TXTSTYLE-150-400-0-0-D3
 70
    64
 40
0.0
 41
1.0
 50
15.0
 71
     0
 42
3.5
  3
LC-STANDARD
  4

  0
ENDTAB
  0
TABLE
  2
VIEW
 70
     0
  0
ENDTAB
  0
TABLE
  2
UCS
 70
     0
  0
ENDTAB
  0
TABLE
  2
APPID
 70
     1
  0
APPID
  2
ACAD
 70
     0
  0
ENDTAB
  0
TABLE
  2
DIMSTYLE
 70
     3
  0
DIMSTYLE
  2
STANDARD
 70
     0
  3

  4

  5

  6

  7

 40
1.0
 41
0.18
 42
0.0625
 43
0.38
 44
0.18
 45
0.0
 46
0.0
 47
0.0
 48
0.0
 71
     0
 72
     0
 73
     1
 74
     1
 75
     0
 76
     0
 77
     0
 78
     0
140
0.18
141
0.09
142
0.0
143
25.4
144
1.0
145
0.0
146
1.0
147
0.09
170
     0
171
     2
172
     0
173
     0
174
     0
175
     0
176
     0
177
     0
178
     0
  0
DIMSTYLE
  2
LC-STANDARD
 70
     0
  3

  4

  5

  6

  7

 40
1.0
 41
3.5
 42
0.0
 43
7.5
 44
1.8
 45
0.0
 46
0.0
 47
0.0
 48
0.0
 71
     0
 72
     0
 73
     0
 74
     0
 75
     0
 76
     0
 77
     1
 78
     8
140
3.5
141
0.0
142
0.0
143
25.4
144
1.0
145
0.0
146
0.71
147
1.5
170
     0
171
     2
172
     1
173
     0
174
     0
175
     0
176
     0
177
     0
178
     3
  0
DIMSTYLE
  2
LC-DIM-L-0090-02-02
 70
     0
  3

  4

  5

  6

  7

 40
2.0
 41
3.5
 42
0.0
 43
7.5
 44
1.8
 45
0.0
 46
0.0
 47
0.0
 48
0.0
 71
     0
 72
     0
 73
     0
 74
     0
 75
     0
 76
     0
 77
     1
 78
     8
140
9.0
141
0.0
142
0.0
143
25.4
144
1.0
145
0.0
146
0.71
147
1.5
170
     0
171
     2
172
     0
173
     0
174
     0
175
     0
176
     2
177
     2
178
     6
  0
ENDTAB
  0
ENDSEC
  0
SECTION
  2
BLOCKS
  0
BLOCK
  8
0
  5
23
  2
BLK1
 70
    64
 10
0.0
 20
0.0
 30
0.0
  3
BLK1
  0
ENDBLK
  8
0
  5
24
  0
BLOCK
  8
0
  5
26
  2
BLK2
 70
    64
 10
0.0
 20
0.0
 30
0.0
  3
BLK2
  0
ENDBLK
  8
0
  5
27
  0
BLOCK
  8
0
  5
29
  2
BLK3
 70
    64
 10
0.0
 20
0.0
 30
0.0
  3
BLK3
  0
ENDBLK
  8
0
  5
2A
  0
BLOCK
  8
0
  5
2C
  2
*D3
 70
    65
 10
0.0
 20
0.0
 30
0.0
  3
*D3
  0
LINE
  8
LC-004-003-MTH-0
  6
CONTINUOUS
  5
2E
 10
276.386475
 20
376.541371
 30
0.0
 11
276.386475
 21
420.8
 31
0.0
  0
LINE
  8
LC-004-003-MTH-0
  6
CONTINUOUS
  5
2F
 10
501.386667
 20
376.541491
 30
0.0
 11
501.386667
 21
420.8
 31
0.0
  0
LINE
  8
LC-005-003-MTG-0
  6
CONTINUOUS
  5
31
 10
276.386475
 20
410.0
 30
0.0
 11
501.386667
 21
410.0
 31
0.0
  0
LINE
  8
LC-003-003-----0
  6
CONTINUOUS
  5
33
 10
294.232482
 20
412.349471
 30
0.0
 11
276.386475
 21
410.0
 31
0.0
  0
LINE
  8
LC-003-003-----0
  6
CONTINUOUS
  5
34
 10
276.386475
 20
410.0
 30
0.0
 11
294.232482
 21
407.650529
 31
0.0
  0
LINE
  8
LC-003-003-----0
  6
CONTINUOUS
  5
35
 10
294.232482
 20
407.650529
 30
0.0
 11
294.232482
 21
412.349471
 31
0.0
  0
LINE
  8
LC-003-003-----0
  6
CONTINUOUS
  5
36
 10
294.27252
 20
411.738609
 30
0.0
 11
281.066475
 21
410.0
 31
0.0
  0
LINE
  8
LC-003-003-----0
  6
CONTINUOUS
  5
37
 10
281.066475
 20
410.0
 30
0.0
 11
294.27252
 21
408.261391
 31
0.0
  0
LINE
  8
LC-003-003-----0
  6
CONTINUOUS
  5
38
 10
294.312558
 20
411.127746
 30
0.0
 11
285.746475
 21
410.0
 31
0.0
  0
LINE
  8
LC-003-003-----0
  6
CONTINUOUS
  5
39
 10
285.746475
 20
410.0
 30
0.0
 11
294.312558
 21
408.872254
 31
0.0
  0
LINE
  8
LC-003-003-----0
  6
CONTINUOUS
  5
3A
 10
294.352596
 20
410.516884
 30
0.0
 11
290.426475
 21
410.0
 31
0.0
  0
LINE
  8
LC-003-003-----0
  6
CONTINUOUS
  5
3B
 10
290.426475
 20
410.0
 30
0.0
 11
294.352596
 21
409.483116
 31
0.0
  0
LINE
  8
LC-003-003-----0
  6
CONTINUOUS
  5
3C
 10
483.540659
 20
407.650529
 30
0.0
 11
501.386667
 21
410.0
 31
0.0
  0
LINE
  8
LC-003-003-----0
  6
CONTINUOUS
  5
3D
 10
501.386667
 20
410.0
 30
0.0
 11
483.540659
 21
412.349471
 31
0.0
  0
LINE
  8
LC-003-003-----0
  6
CONTINUOUS
  5
3E
 10
483.540659
 20
412.349471
 30
0.0
 11
483.540659
 21
407.650529
 31
0.0
  0
LINE
  8
LC-003-003-----0
  6
CONTINUOUS
  5
3F
 10
483.500621
 20
408.261391
 30
0.0
 11
496.706667
 21
410.0
 31
0.0
  0
LINE
  8
LC-003-003-----0
  6
CONTINUOUS
  5
40
 10
496.706667
 20
410.0
 30
0.0
 11
483.500621
 21
411.738609
 31
0.0
  0
LINE
  8
LC-003-003-----0
  6
CONTINUOUS
  5
41
 10
483.460583
 20
408.872254
 30
0.0
 11
492.026667
 21
410.0
 31
0.0
  0
LINE
  8
LC-003-003-----0
  6
CONTINUOUS
  5
42
 10
492.026667
 20
410.0
 30
0.0
 11
483.460583
 21
411.127746
 31
0.0
  0
LINE
  8
LC-003-003-----0
  6
CONTINUOUS
  5
43
 10
483.420545
 20
409.483116
 30
0.0
 11
487.346667
 21
410.0
 31
0.0
  0
LINE
  8
LC-003-003-----0
  6
CONTINUOUS
  5
44
 10
487.346667
 20
410.0
 30
0.0
 11
483.420545
 21
410.516884
 31
0.0
  0
TEXT
  8
LC-003-003-----0
  6
CONTINUOUS
 62
     6
  5
46
 10
370.376952
 20
420.431999
 30
0.0
 40
18.0
  1
225
 41
0.9
 51
15.0
  7
LC-TXTSTYLE-150-400-0-0-D0
 72
     1
 11
389.51081
 21
420.431999
 31
0.0
  0
ENDBLK
  8
0
  5
47
  0
BLOCK
  8
0
  5
49
  2
*D4
 70
    65
 10
0.0
 20
0.0
 30
0.0
  3
*D4
  0
LINE
  8
LC-004-003-MTH-0
  6
CONTINUOUS
  5
4A
 10
501.386565
 20
221.541491
 30
0.0
 11
570.8
 21
221.541491
 31
0.0
  0
LINE
  8
LC-004-003-MTH-0
  6
CONTINUOUS
  5
4B
 10
501.386667
 20
376.541491
 30
0.0
 11
570.8
 21
376.541491
 31
0.0
  0
LINE
  8
LC-005-003-MTG-0
  6
CONTINUOUS
  5
4C
 10
560.0
 20
221.541491
 30
0.0
 11
560.0
 21
376.541491
 31
0.0
  0
LINE
  8
LC-003-003-----0
  6
CONTINUOUS
  5
4D
 10
557.650529
 20
239.387499
 30
0.0
 11
560.0
 21
221.541491
 31
0.0
  0
LINE
  8
LC-003-003-----0
  6
CONTINUOUS
  5
4E
 10
560.0
 20
221.541491
 30
0.0
 11
562.349471
 21
239.387499
 31
0.0
  0
LINE
  8
LC-003-003-----0
  6
CONTINUOUS
  5
4F
 10
562.349471
 20
239.387499
 30
0.0
 11
557.650529
 21
239.387499
 31
0.0
  0
LINE
  8
LC-003-003-----0
  6
CONTINUOUS
  5
50
 10
558.261391
 20
239.427537
 30
0.0
 11
560.0
 21
226.221491
 31
0.0
  0
LINE
  8
LC-003-003-----0
  6
CONTINUOUS
  5
51
 10
560.0
 20
226.221491
 30
0.0
 11
561.738609
 21
239.427537
 31
0.0
  0
LINE
  8
LC-003-003-----0
  6
CONTINUOUS
  5
52
 10
558.872254
 20
239.467575
 30
0.0
 11
560.0
 21
230.901491
 31
0.0
  0
LINE
  8
LC-003-003-----0
  6
CONTINUOUS
  5
53
 10
560.0
 20
230.901491
 30
0.0
 11
561.127746
 21
239.467575
 31
0.0
  0
LINE
  8
LC-003-003-----0
  6
CONTINUOUS
  5
54
 10
559.483116
 20
239.507613
 30
0.0
 11
560.0
 21
235.581491
 31
0.0
  0
LINE
  8
LC-003-003-----0
  6
CONTINUOUS
  5
55
 10
560.0
 20
235.581491
 30
0.0
 11
560.516884
 21
239.507613
 31
0.0
  0
LINE
  8
LC-003-003-----0
  6
CONTINUOUS
  5
56
 10
562.349471
 20
358.695484
 30
0.0
 11
560.0
 21
376.541491
 31
0.0
  0
LINE
  8
LC-003-003-----0
  6
CONTINUOUS
  5
57
 10
560.0
 20
376.541491
 30
0.0
 11
557.650529
 21
358.695484
 31
0.0
  0
LINE
  8
LC-003-003-----0
  6
CONTINUOUS
  5
58
 10
557.650529
 20
358.695484
 30
0.0
 11
562.349471
 21
358.695484
 31
0.0
  0
LINE
  8
LC-003-003-----0
  6
CONTINUOUS
  5
59
 10
561.738609
 20
358.655446
 30
0.0
 11
560.0
 21
371.861491
 31
0.0
  0
LINE
  8
LC-003-003-----0
  6
CONTINUOUS
  5
5A
 10
560.0
 20
371.861491
 30
0.0
 11
558.261391
 21
358.655446
 31
0.0
  0
LINE
  8
LC-003-003-----0
  6
CONTINUOUS
  5
5B
 10
561.127746
 20
358.615408
 30
0.0
 11
560.0
 21
367.181491
 31
0.0
  0
LINE
  8
LC-003-003-----0
  6
CONTINUOUS
  5
5C
 10
560.0
 20
367.181491
 30
0.0
 11
558.872254
 21
358.615408
 31
0.0
  0
LINE
  8
LC-003-003-----0
  6
CONTINUOUS
  5
5D
 10
560.516884
 20
358.575369
 30
0.0
 11
560.0
 21
362.501491
 31
0.0
  0
LINE
  8
LC-003-003-----0
  6
CONTINUOUS
  5
5E
 10
560.0
 20
362.501491
 30
0.0
 11
559.483116
 21
358.575369
 31
0.0
  0
TEXT
  8
LC-003-003-----0
  6
CONTINUOUS
 62
     6
  5
5F
 10
549.568001
 20
284.175991
 30
0.0
 40
18.0
  1
155
 50
90.0
 51
15.0
  7
LC-TXTSTYLE-150-400-0-0-D0
 72
     1
 11
549.568001
 21
303.309849
 31
0.0
  0
ENDBLK
  8
0
  5
60
  0
ENDSEC
  0
SECTION
  2
ENTITIES
  0
VIEWPORT
  8
LC-000
  5
AB
 67
     1
 68
     1
 10
420.0
 20
297.0
 30
0.0
 40
840.0
 41
594.0
 69
     1
1001
ACAD
1000
MVIEW
1002
{
1070
    16
1010
0.0
1020
0.0
1030
0.0
1010
0.0
1020
0.0
1030
1.0
1040
0.0
1040
594.0
1040
420.0
1040
297.0
1040
50.0
1040
0.0
1040
0.0
1070
     0
1070
   100
1070
     1
1070
     1
1070
     0
1070
     0
1070
     0
1070
     0
1040
0.0
1040
0.0
1040
0.0
1040
1.0
1040
1.0
1040
0.0
1040
0.0
1070
     0
1002
{
1002
}
1002
}
  0
VIEWPORT
  8
0
  5
AC
 67
     1
 68
     1
 10
0.0
 20
0.0
 30
0.0
 40
0.0
 41
0.0
 69
     1
1001
ACAD
1000
MVIEW
1002
{
1070
    16
1010
0.0
1020
0.0
1030
0.0
1010
0.0
1020
0.0
1030
1.0
1040
0.0
1040
594.0
1040
0.0
1040
0.0
1040
50.0
1040
0.0
1040
0.0
1070
     0
1070
   100
1070
     0
1070
     1
1070
     0
1070
     0
1070
     0
1070
     0
1040
0.0
1040
0.0
1040
0.0
1040
0.5
1040
0.5
1040
0.5
1040
0.5
1070
     0
1002
{
1002
}
1002
}
  0
INSERT
  8
0
  5
62
  2
BLK1
 10
0.0
 20
0.0
 30
0.0
  0
INSERT
  8
0
  5
63
  2
BLK2
 10
0.0
 20
0.0
 30
0.0
  0
INSERT
  8
0
  5
64
  2
BLK3
 10
0.0
 20
0.0
 30
0.0
  0
DIMENSION
  8
0
  5
65
  2
*D3
 10
386.715565
 20
410.0
 30
0.0
 11
386.715565
 21
410.0
 31
0.0
 13
276.386475
 23
376.541371
 33
0.0
 14
501.386667
 24
376.541491
 34
0.0
  3
LC-DIM-L-0090-02-02
  0
DIMENSION
  8
0
  5
66
  2
*D4
 10
560.0
 20
300.514603
 30
0.0
 11
560.0
 21
300.514603
 31
0.0
 13
501.386667
 23
376.541491
 33
0.0
 14
501.386565
 24
221.541491
 34
0.0
 50
90.0
  3
LC-DIM-L-0090-02-02
  0
LINE
  8
LC-001-002-----0
  6
CONTINUOUS
  5
68
 10
276.386475
 20
376.541371
 30
0.0
 11
388.886475
 21
376.541371
 31
0.0
  0
LINE
  8
LC-001-002-----0
  6
CONTINUOUS
  5
69
 10
276.386475
 20
376.541371
 30
0.0
 11
276.386475
 21
221.541371
 31
0.0
  0
LINE
  8
LC-001-002-----0
  6
CONTINUOUS
  5
6A
 10
276.386475
 20
221.541371
 30
0.0
 11
388.886475
 21
221.541371
 31
0.0
  0
LINE
  8
LC-001-002-----0
  6
CONTINUOUS
  5
6B
 10
293.886475
 20
357.541371
 30
0.0
 11
293.886475
 21
349.541371
 31
0.0
  0
LINE
  8
LC-001-002-----0
  6
CONTINUOUS
  5
6C
 10
293.886475
 20
335.459335
 30
0.0
 11
293.886475
 21
327.541371
 31
0.0
  0
LINE
  8
LC-001-002-----0
  6
CONTINUOUS
  5
6D
 10
293.886475
 20
313.541371
 30
0.0
 11
293.886475
 21
305.541371
 31
0.0
  0
LINE
  8
LC-001-002-----0
  6
CONTINUOUS
  5
6E
 10
293.886475
 20
357.541371
 30
0.0
 11
343.886475
 21
357.541371
 31
0.0
  0
LINE
  8
LC-001-002-----0
  6
CONTINUOUS
  5
6F
 10
293.886475
 20
349.541371
 30
0.0
 11
343.886475
 21
349.541371
 31
0.0
  0
LINE
  8
LC-001-002-----0
  6
CONTINUOUS
  5
70
 10
343.886475
 20
357.541371
 30
0.0
 11
343.886475
 21
349.541371
 31
0.0
  0
LINE
  8
LC-001-002-----0
  6
CONTINUOUS
  5
71
 10
353.886475
 20
357.541371
 30
0.0
 11
388.886475
 21
357.541371
 31
0.0
  0
LINE
  8
LC-001-002-----0
  6
CONTINUOUS
  5
72
 10
353.886475
 20
349.541371
 30
0.0
 11
388.886475
 21
349.541371
 31
0.0
  0
LINE
  8
LC-001-002-----0
  6
CONTINUOUS
  5
73
 10
353.886475
 20
357.541371
 30
0.0
 11
353.886475
 21
349.541371
 31
0.0
  0
LINE
  8
LC-001-002-----0
  6
CONTINUOUS
  5
74
 10
293.886475
 20
335.541371
 30
0.0
 11
381.886475
 21
335.541371
 31
0.0
  0
LINE
  8
LC-001-002-----0
  6
CONTINUOUS
  5
75
 10
293.886475
 20
327.541371
 30
0.0
 11
381.886475
 21
327.541371
 31
0.0
  0
LINE
  8
LC-001-002-----0
  6
CONTINUOUS
  5
76
 10
381.886475
 20
335.541371
 30
0.0
 11
381.886475
 21
327.541371
 31
0.0
  0
LINE
  8
LC-001-002-----0
  6
CONTINUOUS
  5
77
 10
293.886475
 20
313.541371
 30
0.0
 11
381.886475
 21
313.541371
 31
0.0
  0
LINE
  8
LC-001-002-----0
  6
CONTINUOUS
  5
78
 10
381.886475
 20
313.541371
 30
0.0
 11
381.886475
 21
305.541371
 31
0.0
  0
LINE
  8
LC-001-002-----0
  6
CONTINUOUS
  5
79
 10
293.886475
 20
305.541371
 30
0.0
 11
381.886475
 21
305.541371
 31
0.0
  0
LINE
  8
LC-001-002-----0
  6
CONTINUOUS
  5
7A
 10
293.885016
 20
240.540304
 30
0.0
 11
293.885058
 21
248.540304
 31
0.0
  0
LINE
  8
LC-001-002-----0
  6
CONTINUOUS
  5
7B
 10
293.885133
 20
262.62234
 30
0.0
 11
293.885175
 21
270.540304
 31
0.0
  0
LINE
  8
LC-001-002-----0
  6
CONTINUOUS
  5
7C
 10
293.885249
 20
284.540304
 30
0.0
 11
293.885292
 21
292.540304
 31
0.0
  0
LINE
  8
LC-001-002-----0
  6
CONTINUOUS
  5
7D
 10
293.885016
 20
240.540304
 30
0.0
 11
343.885016
 21
240.540038
 31
0.0
  0
LINE
  8
LC-001-002-----0
  6
CONTINUOUS
  5
7E
 10
293.885058
 20
248.540304
 30
0.0
 11
343.885058
 21
248.540038
 31
0.0
  0
LINE
  8
LC-001-002-----0
  6
CONTINUOUS
  5
7F
 10
343.885016
 20
240.540038
 30
0.0
 11
343.885058
 21
248.540038
 31
0.0
  0
LINE
  8
LC-001-002-----0
  6
CONTINUOUS
  5
80
 10
353.885016
 20
240.539985
 30
0.0
 11
388.885016
 21
240.5398
 31
0.0
  0
LINE
  8
LC-001-002-----0
  6
CONTINUOUS
  5
81
 10
353.885058
 20
248.539985
 30
0.0
 11
388.885058
 21
248.5398
 31
0.0
  0
LINE
  8
LC-001-002-----0
  6
CONTINUOUS
  5
82
 10
353.885016
 20
240.539985
 30
0.0
 11
353.885058
 21
248.539985
 31
0.0
  0
LINE
  8
LC-001-002-----0
  6
CONTINUOUS
  5
83
 10
293.885133
 20
262.540304
 30
0.0
 11
381.885133
 21
262.539837
 31
0.0
  0
LINE
  8
LC-001-002-----0
  6
CONTINUOUS
  5
84
 10
293.885175
 20
270.540304
 30
0.0
 11
381.885175
 21
270.539837
 31
0.0
  0
LINE
  8
LC-001-002-----0
  6
CONTINUOUS
  5
85
 10
381.885133
 20
262.539837
 30
0.0
 11
381.885175
 21
270.539837
 31
0.0
  0
LINE
  8
LC-001-002-----0
  6
CONTINUOUS
  5
86
 10
293.885249
 20
284.540304
 30
0.0
 11
381.885249
 21
284.539837
 31
0.0
  0
LINE
  8
LC-001-002-----0
  6
CONTINUOUS
  5
87
 10
381.885249
 20
284.539837
 30
0.0
 11
381.885292
 21
292.539837
 31
0.0
  0
LINE
  8
LC-001-002-----0
  6
CONTINUOUS
  5
88
 10
293.885292
 20
292.540304
 30
0.0
 11
381.885292
 21
292.539837
 31
0.0
  0
LINE
  8
LC-001-002-----0
  6
CONTINUOUS
  5
89
 10
501.386667
 20
376.541491
 30
0.0
 11
388.886667
 21
376.541565
 31
0.0
  0
LINE
  8
LC-001-002-----0
  6
CONTINUOUS
  5
8A
 10
501.386667
 20
376.541491
 30
0.0
 11
501.386565
 21
221.541491
 31
0.0
  0
LINE
  8
LC-001-002-----0
  6
CONTINUOUS
  5
8B
 10
501.386565
 20
221.541491
 30
0.0
 11
388.886565
 21
221.541565
 31
0.0
  0
LINE
  8
LC-001-002-----0
  6
CONTINUOUS
  5
8C
 10
483.886654
 20
357.541503
 30
0.0
 11
483.886649
 21
349.541503
 31
0.0
  0
LINE
  8
LC-001-002-----0
  6
CONTINUOUS
  5
8D
 10
483.88664
 20
335.459466
 30
0.0
 11
483.886635
 21
327.541503
 31
0.0
  0
LINE
  8
LC-001-002-----0
  6
CONTINUOUS
  5
8E
 10
483.886625
 20
313.541503
 30
0.0
 11
483.88662
 21
305.541503
 31
0.0
  0
LINE
  8
LC-001-002-----0
  6
CONTINUOUS
  5
8F
 10
483.886654
 20
357.541503
 30
0.0
 11
433.886654
 21
357.541535
 31
0.0
  0
LINE
  8
LC-001-002-----0
  6
CONTINUOUS
  5
90
 10
483.886649
 20
349.541503
 30
0.0
 11
433.886649
 21
349.541535
 31
0.0
  0
LINE
  8
LC-001-002-----0
  6
CONTINUOUS
  5
91
 10
433.886654
 20
357.541535
 30
0.0
 11
433.886649
 21
349.541535
 31
0.0
  0
LINE
  8
LC-001-002-----0
  6
CONTINUOUS
  5
92
 10
423.886654
 20
357.541542
 30
0.0
 11
388.886654
 21
357.541565
 31
0.0
  0
LINE
  8
LC-001-002-----0
  6
CONTINUOUS
  5
93
 10
423.886649
 20
349.541542
 30
0.0
 11
388.886649
 21
349.541565
 31
0.0
  0
LINE
  8
LC-001-002-----0
  6
CONTINUOUS
  5
94
 10
423.886654
 20
357.541542
 30
0.0
 11
423.886649
 21
349.541542
 31
0.0
  0
LINE
  8
LC-001-002-----0
  6
CONTINUOUS
  5
95
 10
483.88664
 20
335.541503
 30
0.0
 11
395.88664
 21
335.54156
 31
0.0
  0
LINE
  8
LC-001-002-----0
  6
CONTINUOUS
  5
96
 10
483.886635
 20
327.541503
 30
0.0
 11
395.886635
 21
327.54156
 31
0.0
  0
LINE
  8
LC-001-002-----0
  6
CONTINUOUS
  5
97
 10
395.88664
 20
335.54156
 30
0.0
 11
395.886635
 21
327.54156
 31
0.0
  0
LINE
  8
LC-001-002-----0
  6
CONTINUOUS
  5
98
 10
483.886625
 20
313.541503
 30
0.0
 11
395.886625
 21
313.54156
 31
0.0
  0
LINE
  8
LC-001-002-----0
  6
CONTINUOUS
  5
99
 10
395.886625
 20
313.54156
 30
0.0
 11
395.88662
 21
305.54156
 31
0.0
  0
LINE
  8
LC-001-002-----0
  6
CONTINUOUS
  5
9A
 10
483.88662
 20
305.541503
 30
0.0
 11
395.88662
 21
305.54156
 31
0.0
  0
LINE
  8
LC-001-002-----0
  6
CONTINUOUS
  5
9B
 10
483.888037
 20
240.540435
 30
0.0
 11
483.887999
 21
248.540435
 31
0.0
  0
LINE
  8
LC-001-002-----0
  6
CONTINUOUS
  5
9C
 10
483.887934
 20
262.622471
 30
0.0
 11
483.887897
 21
270.540435
 31
0.0
  0
LINE
  8
LC-001-002-----0
  6
CONTINUOUS
  5
9D
 10
483.887832
 20
284.540435
 30
0.0
 11
483.887795
 21
292.540435
 31
0.0
  0
LINE
  8
LC-001-002-----0
  6
CONTINUOUS
  5
9E
 10
483.888037
 20
240.540435
 30
0.0
 11
433.888037
 21
240.540203
 31
0.0
  0
LINE
  8
LC-001-002-----0
  6
CONTINUOUS
  5
9F
 10
483.887999
 20
248.540435
 30
0.0
 11
433.887999
 21
248.540203
 31
0.0
  0
LINE
  8
LC-001-002-----0
  6
CONTINUOUS
  5
A0
 10
433.888037
 20
240.540203
 30
0.0
 11
433.887999
 21
248.540203
 31
0.0
  0
LINE
  8
LC-001-002-----0
  6
CONTINUOUS
  5
A1
 10
423.888037
 20
240.540156
 30
0.0
 11
388.888037
 21
240.539993
 31
0.0
  0
LINE
  8
LC-001-002-----0
  6
CONTINUOUS
  5
A2
 10
423.887999
 20
248.540156
 30
0.0
 11
388.887999
 21
248.539993
 31
0.0
  0
LINE
  8
LC-001-002-----0
  6
CONTINUOUS
  5
A3
 10
423.888037
 20
240.540156
 30
0.0
 11
423.887999
 21
248.540156
 31
0.0
  0
LINE
  8
LC-001-002-----0
  6
CONTINUOUS
  5
A4
 10
483.887934
 20
262.540435
 30
0.0
 11
395.887934
 21
262.540026
 31
0.0
  0
LINE
  8
LC-001-002-----0
  6
CONTINUOUS
  5
A5
 10
483.887897
 20
270.540435
 30
0.0
 11
395.887897
 21
270.540026
 31
0.0
  0
LINE
  8
LC-001-002-----0
  6
CONTINUOUS
  5
A6
 10
395.887934
 20
262.540026
 30
0.0
 11
395.887897
 21
270.540026
 31
0.0
  0
LINE
  8
LC-001-002-----0
  6
CONTINUOUS
  5
A7
 10
483.887832
 20
284.540435
 30
0.0
 11
395.887832
 21
284.540026
 31
0.0
  0
LINE
  8
LC-001-002-----0
  6
CONTINUOUS
  5
A8
 10
395.887832
 20
284.540026
 30
0.0
 11
395.887795
 21
292.540026
 31
0.0
  0
LINE
  8
LC-001-002-----0
  6
CONTINUOUS
  5
A9
 10
483.887795
 20
292.540435
 30
0.0
 11
395.887795
 21
292.540026
 31
0.0
  0
ENDSEC
  0
EOF
