  0
SECTION
  2
HEADER
  9
$ACADVER
  1
AC1009
  9
$INSBASE
 10
0.0
 20
0.0
 30
0.0
  9
$EXTMIN
 10
0.0
 20
0.0
 30
0.0
  9
$EXTMAX
 10
840.0
 20
594.0
 30
0.0
  9
$LIMMIN
 10
0.0
 20
0.0
  9
$LIMMAX
 10
840.0
 20
594.0
  9
$ORTHOMODE
 70
     0
  9
$REGENMODE
 70
     1
  9
$FILLMODE
 70
     1
  9
$QTEXTMODE
 70
     0
  9
$MIRRTEXT
 70
     1
  9
$DRAGMODE
 70
     2
  9
$LTSCALE
 40
2.0
  9
$OSMODE
 70
     0
  9
$ATTMODE
 70
     1
  9
$TEXTSIZE
 40
0.2
  9
$TRACEWID
 40
0.05
  9
$TEXTSTYLE
  7
STANDARD
  9
$CLAYER
  8
0
  9
$CELTYPE
  6
BYLAYER
  9
$CECOLOR
 62
     7
  9
$DIMSCALE
 40
2.0
  9
$DIMASZ
 40
3.5
  9
$DIMEXO
 40
0.0625
  9
$DIMDLI
 40
0.38
  9
$DIMRND
 40
0.0
  9
$DIMDLE
 40
0.0
  9
$DIMEXE
 40
0.18
  9
$DIMTP
 40
0.0
  9
$DIMTM
 40
0.0
  9
$DIMTXT
 40
3.5
  9
$DIMCEN
 40
0.09
  9
$DIMTSZ
 40
0.0
  9
$DIMTOL
 70
     0
  9
$DIMLIM
 70
     0
  9
$DIMTIH
 70
     1
  9
$DIMTOH
 70
     1
  9
$DIMSE1
 70
     0
  9
$DIMSE2
 70
     0
  9
$DIMTAD
 70
     1
  9
$DIMZIN
 70
     0
  9
$DIMBLK
  1

  9
$DIMASO
 70
     1
  9
$DIMSHO
 70
     1
  9
$DIMPOST
  1

  9
$DIMAPOST
  1

  9
$DIMALT
 70
     0
  9
$DIMALTD
 70
     2
  9
$DIMALTF
 40
25.4
  9
$DIMLFAC
 40
1.0
  9
$DIMTOFL
 70
     0
  9
$DIMTVP
 40
0.0
  9
$DIMTIX
 70
     0
  9
$DIMSOXD
 70
     0
  9
$DIMSAH
 70
     0
  9
$DIMBLK1
  1

  9
$DIMBLK2
  1

  9
$DIMSTYLE
  2
STANDARD
  9
$DIMCLRD
 70
     0
  9
$DIMCLRE
 70
     0
  9
$DIMCLRT
 70
     0
  9
$DIMTFAC
 40
1.0
  9
$DIMGAP
 40
0.09
  9
$LUNITS
 70
     2
  9
$LUPREC
 70
     2
  9
$AXISMODE
 70
     0
  9
$AXISUNIT
 10
0.0
 20
0.0
  9
$SKETCHINC
 40
0.1
  9
$FILLETRAD
 40
0.0
  9
$AUNITS
 70
     0
  9
$AUPREC
 70
     0
  9
$MENU
  1
acad
  9
$ELEVATION
 40
0.0
  9
$PELEVATION
 40
0.0
  9
$THICKNESS
 40
0.0
  9
$LIMCHECK
 70
     0
  9
$BLIPMODE
 70
     1
  9
$CHAMFERA
 40
0.0
  9
$CHAMFERB
 40
0.0
  9
$SKPOLY
 70
     0
  9
$TDCREATE
 40
0.000000000
  9
$TDUPDATE
 40
0.000000000
  9
$TDINDWG
 40
0.0000000000
  9
$TDUSRTIMER
 40
0.0000000000
  9
$USRTIMER
 70
     1
  9
$ANGBASE
 50
0.0
  9
$ANGDIR
 70
     0
  9
$PDMODE
 70
     0
  9
$PDSIZE
 40
0.0
  9
$PLINEWID
 40
0.0
  9
$COORDS
 70
     0
  9
$SPLFRAME
 70
     0
  9
$SPLINETYPE
 70
     6
  9
$SPLINESEGS
 70
     8
  9
$ATTDIA
 70
     0
  9
$ATTREQ
 70
     1
  9
$HANDLING
 70
     1
  9
$HANDSEED
  5
EF
  9
$SURFTAB1
 70
     6
  9
$SURFTAB2
 70
     6
  9
$SURFTYPE
 70
     6
  9
$SURFU
 70
     6
  9
$SURFV
 70
     6
  9
$UCSNAME
  2

  9
$UCSORG
 10
0.0
 20
0.0
 30
0.0
  9
$UCSXDIR
 10
1.0
 20
0.0
 30
0.0
  9
$UCSYDIR
 10
0.0
 20
1.0
 30
0.0
  9
$PUCSNAME
  2

  9
$PUCSORG
 10
0.0
 20
0.0
 30
0.0
  9
$PUCSXDIR
 10
1.0
 20
0.0
 30
0.0
  9
$PUCSYDIR
 10
0.0
 20
1.0
 30
0.0
  9
$USERI1
 70
     0
  9
$USERI2
 70
     0
  9
$USERI3
 70
     0
  9
$USERI4
 70
     0
  9
$USERI5
 70
     0
  9
$USERR1
 40
0.0
  9
$USERR2
 40
0.0
  9
$USERR3
 40
0.0
  9
$USERR4
 40
0.0
  9
$USERR5
 40
0.0
  9
$WORLDVIEW
 70
     1
  9
$SHADEDGE
 70
     3
  9
$SHADEDIF
 70
    70
  9
$TILEMODE
 70
     1
  9
$MAXACTVP
 70
    16
  9
$PINSBASE
 10
0.0
 20
0.0
 30
0.0
  9
$PLIMCHECK
 70
     0
  9
$PEXTMIN
 10
1.000000E+20
 20
1.000000E+20
 30
1.000000E+20
  9
$PEXTMAX
 10
-1.000000E+20
 20
-1.000000E+20
 30
-1.000000E+20
  9
$PLIMMIN
 10
0.0
 20
0.0
  9
$PLIMMAX
 10
840.0
 20
594.0
  9
$UNITMODE
 70
     0
  9
$VISRETAIN
 70
     0
  9
$PLINEGEN
 70
     1
  9
$PSLTSCALE
 70
     0
  9
$TREEDEPTH
 70
  3020
  9
$DWGCODEPAGE
  3
dos850
  0
ENDSEC
  0
SECTION
  2
TABLES
  0
TABLE
  2
VPORT
 70
     1
  0
VPORT
  2
*ACTIVE
 70
     0
 10
0.0
 20
0.0
 11
1.0
 21
1.0
 12
420.0
 22
297.0
 13
0.0
 23
0.0
 14
1.0
 24
1.0
 15
0.0
 25
0.0
 16
0.0
 26
0.0
 36
1.0
 17
0.0
 27
0.0
 37
0.0
 40
594.0
 41
1.604229
 42
50.0
 43
0.0
 44
0.0
 50
0.0
 51
0.0
 71
     0
 72
   100
 73
     1
 74
     1
 75
     0
 76
     0
 77
     0
 78
     0
  0
ENDTAB
  0
TABLE
  2
LTYPE
 70
     2
  0
LTYPE
  2
CONTINUOUS
 70
    64
  3
Solid line
 72
    65
 73
     0
 40
0.0
  0
LTYPE
  2
DASHDOT
 70
    64
  3
__ . __ . __ . __ . __
 72
    65
 73
     4
 40
7.5
 49
5.0
 49
-1.25
 49
0.0
 49
-1.25
  0
ENDTAB
  0
TABLE
  2
LAYER
 70
     8
  0
LAYER
  2
0
 70
     0
 62
     7
  6
CONTINUOUS
  0
LAYER
  2
LC-INFO-1-2-MM-A3-0
 70
     1
 62
    -1
  6
CONTINUOUS
  0
LAYER
  2
LC-002-005-----0
 70
     0
 62
     2
  6
CONTINUOUS
  0
LAYER
  2
LC-004-003-MTH-0
 70
     0
 62
     2
  6
CONTINUOUS
  0
LAYER
  2
LC-005-003-MTG-0
 70
     0
 62
     2
  6
CONTINUOUS
  0
LAYER
  2
LC-003-003-----0
 70
     0
 62
     2
  6
CONTINUOUS
  0
LAYER
  2
LC-001-002-----0
 70
     0
 62
     1
  6
CONTINUOUS
  0
LAYER
  2
LC-000
 70
     0
 62
     7
  6
CONTINUOUS
  0
ENDTAB
  0
TABLE
  2
STYLE
 70
     4
  0
STYLE
  2
STANDARD
 70
     0
 40
0.0
 41
1.0
 50
0.0
 71
     0
 42
0.0
  3
txt
  4

  0
STYLE
  2
LC-STANDARD
 70
    64
 40
0.0
 41
1.0
 50
0.0
 71
     0
 42
3.5
  3
MONOTXT
  4

  0
STYLE
  2
LC-TXTSTYLE-150-400-0-0-D2
 70
    64
 40
0.0
 41
1.0
 50
15.0
 71
     0
 42
3.5
  3
MONOTXT
  4

  0
STYLE
  2
LC-TXTSTYLE-150-400-0-0-D3
 70
    64
 40
0.0
 41
1.0
 50
15.0
 71
     0
 42
3.5
  3
LC-STANDARD
  4

  0
ENDTAB
  0
TABLE
  2
VIEW
 70
     0
  0
ENDTAB
  0
TABLE
  2
UCS
 70
     0
  0
ENDTAB
  0
TABLE
  2
APPID
 70
     1
  0
APPID
  2
ACAD
 70
     0
  0
ENDTAB
  0
TABLE
  2
DIMSTYLE
 70
     3
  0
DIMSTYLE
  2
STANDARD
 70
     0
  3

  4

  5

  6

  7

 40
1.0
 41
0.18
 42
0.0625
 43
0.38
 44
0.18
 45
0.0
 46
0.0
 47
0.0
 48
0.0
 71
     0
 72
     0
 73
     1
 74
     1
 75
     0
 76
     0
 77
     0
 78
     0
140
0.18
141
0.09
142
0.0
143
25.4
144
1.0
145
0.0
146
1.0
147
0.09
170
     0
171
     2
172
     0
173
     0
174
     0
175
     0
176
     0
177
     0
178
     0
  0
DIMSTYLE
  2
LC-STANDARD
 70
     0
  3

  4

  5

  6

  7

 40
1.0
 41
3.5
 42
0.0
 43
7.5
 44
1.8
 45
0.0
 46
0.0
 47
0.0
 48
0.0
 71
     0
 72
     0
 73
     0
 74
     0
 75
     0
 76
     0
 77
     1
 78
     8
140
3.5
141
0.0
142
0.0
143
25.4
144
1.0
145
0.0
146
0.71
147
1.5
170
     0
171
     2
172
     1
173
     0
174
     0
175
     0
176
     0
177
     0
178
     3
  0
DIMSTYLE
  2
LC-DIM-L-0090-02-02
 70
     0
  3

  4

  5

  6

  7

 40
2.0
 41
3.5
 42
0.0
 43
7.5
 44
1.8
 45
0.0
 46
0.0
 47
0.0
 48
0.0
 71
     0
 72
     0
 73
     0
 74
     0
 75
     0
 76
     0
 77
     1
 78
     8
140
9.0
141
0.0
142
0.0
143
25.4
144
1.0
145
0.0
146
0.71
147
1.5
170
     0
171
     2
172
     0
173
     0
174
     0
175
     0
176
     2
177
     2
178
     6
  0
ENDTAB
  0
ENDSEC
  0
SECTION
  2
BLOCKS
  0
BLOCK
  8
0
  5
23
  2
*X0
 70
    65
 10
489.583603
 20
328.195524
 30
0.0
  3
*X0
  0
LINE
  8
LC-002-005-----0
  6
CONTINUOUS
  5
25
 10
495.072725
 20
328.195524
 30
0.0
 11
495.583603
 21
328.706403
 31
0.0
  0
LINE
  8
LC-002-005-----0
  6
CONTINUOUS
  5
26
 10
492.244297
 20
328.195524
 30
0.0
 11
495.583603
 21
331.53483
 31
0.0
  0
LINE
  8
LC-002-005-----0
  6
CONTINUOUS
  5
27
 10
489.583603
 20
328.363257
 30
0.0
 11
495.583603
 21
334.363257
 31
0.0
  0
LINE
  8
LC-002-005-----0
  6
CONTINUOUS
  5
28
 10
489.583603
 20
331.191684
 30
0.0
 11
495.583603
 21
337.191684
 31
0.0
  0
LINE
  8
LC-002-005-----0
  6
CONTINUOUS
  5
29
 10
489.583603
 20
334.020111
 30
0.0
 11
495.583603
 21
340.020111
 31
0.0
  0
LINE
  8
LC-002-005-----0
  6
CONTINUOUS
  5
2A
 10
489.583603
 20
336.848539
 30
0.0
 11
495.583603
 21
342.848539
 31
0.0
  0
LINE
  8
LC-002-005-----0
  6
CONTINUOUS
  5
2B
 10
489.583603
 20
339.676966
 30
0.0
 11
495.583603
 21
345.676966
 31
0.0
  0
LINE
  8
LC-002-005-----0
  6
CONTINUOUS
  5
2C
 10
489.583603
 20
342.505393
 30
0.0
 11
495.583603
 21
348.505393
 31
0.0
  0
LINE
  8
LC-002-005-----0
  6
CONTINUOUS
  5
2D
 10
489.583603
 20
345.33382
 30
0.0
 11
495.583603
 21
351.33382
 31
0.0
  0
LINE
  8
LC-002-005-----0
  6
CONTINUOUS
  5
2E
 10
498.445308
 20
354.195524
 30
0.0
 11
500.583603
 21
356.33382
 31
0.0
  0
LINE
  8
LC-002-005-----0
  6
CONTINUOUS
  5
2F
 10
489.583603
 20
348.162247
 30
0.0
 11
495.583603
 21
354.162247
 31
0.0
  0
LINE
  8
LC-002-005-----0
  6
CONTINUOUS
  5
30
 10
495.61688
 20
354.195524
 30
0.0
 11
499.485121
 21
358.063764
 31
0.0
  0
LINE
  8
LC-002-005-----0
  6
CONTINUOUS
  5
31
 10
489.583603
 20
350.990674
 30
0.0
 11
497.103403
 21
358.510474
 31
0.0
  0
LINE
  8
LC-002-005-----0
  6
CONTINUOUS
  5
32
 10
489.583603
 20
353.819101
 30
0.0
 11
495.583603
 21
359.819101
 31
0.0
  0
LINE
  8
LC-002-005-----0
  6
CONTINUOUS
  5
33
 10
489.583603
 20
356.647528
 30
0.0
 11
495.583603
 21
362.647528
 31
0.0
  0
LINE
  8
LC-002-005-----0
  6
CONTINUOUS
  5
34
 10
489.583603
 20
359.475955
 30
0.0
 11
495.583603
 21
365.475955
 31
0.0
  0
LINE
  8
LC-002-005-----0
  6
CONTINUOUS
  5
35
 10
489.583603
 20
362.304383
 30
0.0
 11
495.583603
 21
368.304383
 31
0.0
  0
LINE
  8
LC-002-005-----0
  6
CONTINUOUS
  5
36
 10
489.583603
 20
365.13281
 30
0.0
 11
495.583603
 21
371.13281
 31
0.0
  0
LINE
  8
LC-002-005-----0
  6
CONTINUOUS
  5
37
 10
489.583603
 20
367.961237
 30
0.0
 11
495.583603
 21
373.961237
 31
0.0
  0
LINE
  8
LC-002-005-----0
  6
CONTINUOUS
  5
38
 10
489.583603
 20
370.789664
 30
0.0
 11
495.583603
 21
376.789664
 31
0.0
  0
LINE
  8
LC-002-005-----0
  6
CONTINUOUS
  5
39
 10
489.583603
 20
373.618091
 30
0.0
 11
495.583603
 21
379.618091
 31
0.0
  0
LINE
  8
LC-002-005-----0
  6
CONTINUOUS
  5
3A
 10
489.583603
 20
376.446518
 30
0.0
 11
495.583603
 21
382.446518
 31
0.0
  0
LINE
  8
LC-002-005-----0
  6
CONTINUOUS
  5
3B
 10
489.583603
 20
379.274945
 30
0.0
 11
495.583603
 21
385.274945
 31
0.0
  0
LINE
  8
LC-002-005-----0
  6
CONTINUOUS
  5
3C
 10
489.583603
 20
382.103372
 30
0.0
 11
495.583603
 21
388.103372
 31
0.0
  0
LINE
  8
LC-002-005-----0
  6
CONTINUOUS
  5
3D
 10
489.583603
 20
384.9318
 30
0.0
 11
495.583603
 21
390.9318
 31
0.0
  0
LINE
  8
LC-002-005-----0
  6
CONTINUOUS
  5
3E
 10
489.583603
 20
387.760227
 30
0.0
 11
495.583603
 21
393.760227
 31
0.0
  0
LINE
  8
LC-002-005-----0
  6
CONTINUOUS
  5
3F
 10
489.583603
 20
390.588654
 30
0.0
 11
495.583603
 21
396.588654
 31
0.0
  0
LINE
  8
LC-002-005-----0
  6
CONTINUOUS
  5
40
 10
489.583603
 20
393.417081
 30
0.0
 11
495.583603
 21
399.417081
 31
0.0
  0
LINE
  8
LC-002-005-----0
  6
CONTINUOUS
  5
41
 10
489.583603
 20
396.245508
 30
0.0
 11
495.583603
 21
402.245508
 31
0.0
  0
LINE
  8
LC-002-005-----0
  6
CONTINUOUS
  5
42
 10
489.583603
 20
399.073935
 30
0.0
 11
495.583603
 21
405.073935
 31
0.0
  0
LINE
  8
LC-002-005-----0
  6
CONTINUOUS
  5
43
 10
489.583603
 20
401.902362
 30
0.0
 11
495.583603
 21
407.902362
 31
0.0
  0
LINE
  8
LC-002-005-----0
  6
CONTINUOUS
  5
44
 10
489.583603
 20
404.730789
 30
0.0
 11
495.583603
 21
410.730789
 31
0.0
  0
LINE
  8
LC-002-005-----0
  6
CONTINUOUS
  5
45
 10
509.86459
 20
425.011776
 30
0.0
 11
510.583603
 21
425.730789
 31
0.0
  0
LINE
  8
LC-002-005-----0
  6
CONTINUOUS
  5
46
 10
489.583603
 20
407.559217
 30
0.0
 11
495.583603
 21
413.559217
 31
0.0
  0
LINE
  8
LC-002-005-----0
  6
CONTINUOUS
  5
47
 10
506.06521
 20
424.040824
 30
0.0
 11
510.583603
 21
428.559217
 31
0.0
  0
LINE
  8
LC-002-005-----0
  6
CONTINUOUS
  5
48
 10
489.583603
 20
410.387644
 30
0.0
 11
495.583603
 21
416.387644
 31
0.0
  0
LINE
  8
LC-002-005-----0
  6
CONTINUOUS
  5
49
 10
502.265831
 20
423.069871
 30
0.0
 11
510.391484
 21
431.195524
 31
0.0
  0
LINE
  8
LC-002-005-----0
  6
CONTINUOUS
  5
4A
 10
489.583603
 20
413.216071
 30
0.0
 11
507.563057
 21
431.195524
 31
0.0
  0
LINE
  8
LC-002-005-----0
  6
CONTINUOUS
  5
4B
 10
489.583603
 20
416.044498
 30
0.0
 11
504.734629
 21
431.195524
 31
0.0
  0
LINE
  8
LC-002-005-----0
  6
CONTINUOUS
  5
4C
 10
489.583603
 20
418.872925
 30
0.0
 11
503.583603
 21
432.872925
 31
0.0
  0
LINE
  8
LC-002-005-----0
  6
CONTINUOUS
  5
4D
 10
489.583603
 20
421.701352
 30
0.0
 11
503.583603
 21
435.701352
 31
0.0
  0
LINE
  8
LC-002-005-----0
  6
CONTINUOUS
  5
4E
 10
489.583603
 20
424.529779
 30
0.0
 11
494.249348
 21
429.195524
 31
0.0
  0
LINE
  8
LC-002-005-----0
  6
CONTINUOUS
  5
4F
 10
496.583603
 20
431.529779
 30
0.0
 11
503.583603
 21
438.529779
 31
0.0
  0
LINE
  8
LC-002-005-----0
  6
CONTINUOUS
  5
50
 10
489.583603
 20
427.358206
 30
0.0
 11
491.420921
 21
429.195524
 31
0.0
  0
LINE
  8
LC-002-005-----0
  6
CONTINUOUS
  5
51
 10
496.583603
 20
434.358206
 30
0.0
 11
503.583603
 21
441.358206
 31
0.0
  0
LINE
  8
LC-002-005-----0
  6
CONTINUOUS
  5
52
 10
496.583603
 20
437.186634
 30
0.0
 11
503.583603
 21
444.186634
 31
0.0
  0
LINE
  8
LC-002-005-----0
  6
CONTINUOUS
  5
53
 10
496.583603
 20
440.015061
 30
0.0
 11
503.583603
 21
447.015061
 31
0.0
  0
LINE
  8
LC-002-005-----0
  6
CONTINUOUS
  5
54
 10
496.583603
 20
442.843488
 30
0.0
 11
503.583603
 21
449.843488
 31
0.0
  0
LINE
  8
LC-002-005-----0
  6
CONTINUOUS
  5
55
 10
496.583603
 20
445.671915
 30
0.0
 11
503.583603
 21
452.671915
 31
0.0
  0
LINE
  8
LC-002-005-----0
  6
CONTINUOUS
  5
56
 10
496.583603
 20
448.500342
 30
0.0
 11
502.278785
 21
454.195524
 31
0.0
  0
LINE
  8
LC-002-005-----0
  6
CONTINUOUS
  5
57
 10
496.583603
 20
451.328769
 30
0.0
 11
499.450358
 21
454.195524
 31
0.0
  0
LINE
  8
LC-002-005-----0
  6
CONTINUOUS
  5
58
 10
496.583603
 20
454.157196
 30
0.0
 11
496.621931
 21
454.195524
 31
0.0
  0
ENDBLK
  8
0
  5
59
  0
BLOCK
  8
0
  5
5B
  2
*X1
 70
    65
 10
258.583603
 20
328.195524
 30
0.0
  3
*X1
  0
LINE
  8
LC-002-005-----0
  6
CONTINUOUS
  5
5C
 10
277.283836
 20
328.195524
 30
0.0
 11
279.583603
 21
330.495291
 31
0.0
  0
LINE
  8
LC-002-005-----0
  6
CONTINUOUS
  5
5D
 10
274.455409
 20
328.195524
 30
0.0
 11
279.583603
 21
333.323719
 31
0.0
  0
LINE
  8
LC-002-005-----0
  6
CONTINUOUS
  5
5E
 10
273.583603
 20
330.152146
 30
0.0
 11
279.583603
 21
336.152146
 31
0.0
  0
LINE
  8
LC-002-005-----0
  6
CONTINUOUS
  5
5F
 10
273.583603
 20
332.980573
 30
0.0
 11
279.583603
 21
338.980573
 31
0.0
  0
LINE
  8
LC-002-005-----0
  6
CONTINUOUS
  5
60
 10
273.583603
 20
335.809
 30
0.0
 11
279.583603
 21
341.809
 31
0.0
  0
LINE
  8
LC-002-005-----0
  6
CONTINUOUS
  5
61
 10
273.583603
 20
338.637427
 30
0.0
 11
279.583603
 21
344.637427
 31
0.0
  0
LINE
  8
LC-002-005-----0
  6
CONTINUOUS
  5
62
 10
273.583603
 20
341.465854
 30
0.0
 11
279.583603
 21
347.465854
 31
0.0
  0
LINE
  8
LC-002-005-----0
  6
CONTINUOUS
  5
63
 10
273.583603
 20
344.294281
 30
0.0
 11
279.583603
 21
350.294281
 31
0.0
  0
LINE
  8
LC-002-005-----0
  6
CONTINUOUS
  5
64
 10
273.583603
 20
347.122708
 30
0.0
 11
279.583603
 21
353.122708
 31
0.0
  0
LINE
  8
LC-002-005-----0
  6
CONTINUOUS
  5
65
 10
273.583603
 20
349.951136
 30
0.0
 11
279.583603
 21
355.951136
 31
0.0
  0
LINE
  8
LC-002-005-----0
  6
CONTINUOUS
  5
66
 10
273.583603
 20
352.779563
 30
0.0
 11
279.583603
 21
358.779563
 31
0.0
  0
LINE
  8
LC-002-005-----0
  6
CONTINUOUS
  5
67
 10
272.171138
 20
354.195524
 30
0.0
 11
279.583603
 21
361.60799
 31
0.0
  0
LINE
  8
LC-002-005-----0
  6
CONTINUOUS
  5
68
 10
269.34271
 20
354.195524
 30
0.0
 11
279.583603
 21
364.436417
 31
0.0
  0
LINE
  8
LC-002-005-----0
  6
CONTINUOUS
  5
69
 10
268.583603
 20
356.264844
 30
0.0
 11
270.544224
 21
358.225465
 31
0.0
  0
LINE
  8
LC-002-005-----0
  6
CONTINUOUS
  5
6A
 10
273.583603
 20
361.264844
 30
0.0
 11
279.583603
 21
367.264844
 31
0.0
  0
LINE
  8
LC-002-005-----0
  6
CONTINUOUS
  5
6B
 10
273.583603
 20
364.093271
 30
0.0
 11
279.583603
 21
370.093271
 31
0.0
  0
LINE
  8
LC-002-005-----0
  6
CONTINUOUS
  5
6C
 10
273.583603
 20
366.921698
 30
0.0
 11
279.583603
 21
372.921698
 31
0.0
  0
LINE
  8
LC-002-005-----0
  6
CONTINUOUS
  5
6D
 10
273.583603
 20
369.750125
 30
0.0
 11
279.583603
 21
375.750125
 31
0.0
  0
LINE
  8
LC-002-005-----0
  6
CONTINUOUS
  5
6E
 10
273.583603
 20
372.578553
 30
0.0
 11
279.583603
 21
378.578553
 31
0.0
  0
LINE
  8
LC-002-005-----0
  6
CONTINUOUS
  5
6F
 10
273.583603
 20
375.40698
 30
0.0
 11
279.583603
 21
381.40698
 31
0.0
  0
LINE
  8
LC-002-005-----0
  6
CONTINUOUS
  5
70
 10
273.583603
 20
378.235407
 30
0.0
 11
279.583603
 21
384.235407
 31
0.0
  0
LINE
  8
LC-002-005-----0
  6
CONTINUOUS
  5
71
 10
273.583603
 20
381.063834
 30
0.0
 11
279.583603
 21
387.063834
 31
0.0
  0
LINE
  8
LC-002-005-----0
  6
CONTINUOUS
  5
72
 10
273.583603
 20
383.892261
 30
0.0
 11
279.583603
 21
389.892261
 31
0.0
  0
LINE
  8
LC-002-005-----0
  6
CONTINUOUS
  5
73
 10
273.583603
 20
386.720688
 30
0.0
 11
279.583603
 21
392.720688
 31
0.0
  0
LINE
  8
LC-002-005-----0
  6
CONTINUOUS
  5
74
 10
273.583603
 20
389.549115
 30
0.0
 11
279.583603
 21
395.549115
 31
0.0
  0
LINE
  8
LC-002-005-----0
  6
CONTINUOUS
  5
75
 10
273.583603
 20
392.377542
 30
0.0
 11
279.583603
 21
398.377542
 31
0.0
  0
LINE
  8
LC-002-005-----0
  6
CONTINUOUS
  5
76
 10
273.583603
 20
395.20597
 30
0.0
 11
279.583603
 21
401.20597
 31
0.0
  0
LINE
  8
LC-002-005-----0
  6
CONTINUOUS
  5
77
 10
273.583603
 20
398.034397
 30
0.0
 11
279.583603
 21
404.034397
 31
0.0
  0
LINE
  8
LC-002-005-----0
  6
CONTINUOUS
  5
78
 10
273.583603
 20
400.862824
 30
0.0
 11
279.583603
 21
406.862824
 31
0.0
  0
LINE
  8
LC-002-005-----0
  6
CONTINUOUS
  5
79
 10
273.583603
 20
403.691251
 30
0.0
 11
279.583603
 21
409.691251
 31
0.0
  0
LINE
  8
LC-002-005-----0
  6
CONTINUOUS
  5
7A
 10
273.583603
 20
406.519678
 30
0.0
 11
279.583603
 21
412.519678
 31
0.0
  0
LINE
  8
LC-002-005-----0
  6
CONTINUOUS
  5
7B
 10
273.583603
 20
409.348105
 30
0.0
 11
279.583603
 21
415.348105
 31
0.0
  0
LINE
  8
LC-002-005-----0
  6
CONTINUOUS
  5
7C
 10
273.583603
 20
412.176532
 30
0.0
 11
279.583603
 21
418.176532
 31
0.0
  0
LINE
  8
LC-002-005-----0
  6
CONTINUOUS
  5
7D
 10
273.583603
 20
415.004959
 30
0.0
 11
279.583603
 21
421.004959
 31
0.0
  0
LINE
  8
LC-002-005-----0
  6
CONTINUOUS
  5
7E
 10
273.256494
 20
417.506278
 30
0.0
 11
279.583603
 21
423.833387
 31
0.0
  0
LINE
  8
LC-002-005-----0
  6
CONTINUOUS
  5
7F
 10
271.806019
 20
418.884229
 30
0.0
 11
279.583603
 21
426.661814
 31
0.0
  0
LINE
  8
LC-002-005-----0
  6
CONTINUOUS
  5
80
 10
270.355543
 20
420.262181
 30
0.0
 11
279.288887
 21
429.195524
 31
0.0
  0
LINE
  8
LC-002-005-----0
  6
CONTINUOUS
  5
81
 10
268.905068
 20
421.640133
 30
0.0
 11
276.460459
 21
429.195524
 31
0.0
  0
LINE
  8
LC-002-005-----0
  6
CONTINUOUS
  5
82
 10
267.383237
 20
422.946729
 30
0.0
 11
273.632032
 21
429.195524
 31
0.0
  0
LINE
  8
LC-002-005-----0
  6
CONTINUOUS
  5
83
 10
265.130507
 20
423.522426
 30
0.0
 11
272.583603
 21
430.975522
 31
0.0
  0
LINE
  8
LC-002-005-----0
  6
CONTINUOUS
  5
84
 10
262.877778
 20
424.098124
 30
0.0
 11
272.583603
 21
433.803949
 31
0.0
  0
LINE
  8
LC-002-005-----0
  6
CONTINUOUS
  5
85
 10
260.625048
 20
424.673822
 30
0.0
 11
272.583603
 21
436.632376
 31
0.0
  0
LINE
  8
LC-002-005-----0
  6
CONTINUOUS
  5
86
 10
258.583603
 20
425.460804
 30
0.0
 11
264.318324
 21
431.195524
 31
0.0
  0
LINE
  8
LC-002-005-----0
  6
CONTINUOUS
  5
87
 10
265.583603
 20
432.460804
 30
0.0
 11
272.583603
 21
439.460804
 31
0.0
  0
LINE
  8
LC-002-005-----0
  6
CONTINUOUS
  5
88
 10
258.583603
 20
428.289231
 30
0.0
 11
261.489897
 21
431.195524
 31
0.0
  0
LINE
  8
LC-002-005-----0
  6
CONTINUOUS
  5
89
 10
265.583603
 20
435.289231
 30
0.0
 11
272.583603
 21
442.289231
 31
0.0
  0
LINE
  8
LC-002-005-----0
  6
CONTINUOUS
  5
8A
 10
258.583603
 20
431.117658
 30
0.0
 11
258.66147
 21
431.195524
 31
0.0
  0
LINE
  8
LC-002-005-----0
  6
CONTINUOUS
  5
8B
 10
265.583603
 20
438.117658
 30
0.0
 11
272.583603
 21
445.117658
 31
0.0
  0
LINE
  8
LC-002-005-----0
  6
CONTINUOUS
  5
8C
 10
265.583603
 20
440.946085
 30
0.0
 11
272.583603
 21
447.946085
 31
0.0
  0
LINE
  8
LC-002-005-----0
  6
CONTINUOUS
  5
8D
 10
265.583603
 20
443.774512
 30
0.0
 11
272.583603
 21
450.774512
 31
0.0
  0
LINE
  8
LC-002-005-----0
  6
CONTINUOUS
  5
8E
 10
265.583603
 20
446.602939
 30
0.0
 11
272.583603
 21
453.602939
 31
0.0
  0
LINE
  8
LC-002-005-----0
  6
CONTINUOUS
  5
8F
 10
265.583603
 20
449.431366
 30
0.0
 11
270.347761
 21
454.195524
 31
0.0
  0
LINE
  8
LC-002-005-----0
  6
CONTINUOUS
  5
90
 10
265.583603
 20
452.259793
 30
0.0
 11
267.519334
 21
454.195524
 31
0.0
  0
ENDBLK
  8
0
  5
91
  0
BLOCK
  8
0
  5
93
  2
*D2
 70
    65
 10
0.0
 20
0.0
 30
0.0
  3
*D2
  0
LINE
  8
LC-004-003-MTH-0
  6
CONTINUOUS
  5
95
 10
500.583603
 20
354.195524
 30
0.0
 11
555.8
 21
354.195524
 31
0.0
  0
LINE
  8
LC-004-003-MTH-0
  6
CONTINUOUS
  5
96
 10
503.583603
 20
454.195524
 30
0.0
 11
555.8
 21
454.195524
 31
0.0
  0
LINE
  8
LC-005-003-MTG-0
  6
CONTINUOUS
  5
98
 10
545.0
 20
354.195524
 30
0.0
 11
545.0
 21
454.195524
 31
0.0
  0
LINE
  8
LC-003-003-----0
  6
CONTINUOUS
  5
9A
 10
542.650529
 20
372.041532
 30
0.0
 11
545.0
 21
354.195524
 31
0.0
  0
LINE
  8
LC-003-003-----0
  6
CONTINUOUS
  5
9B
 10
545.0
 20
354.195524
 30
0.0
 11
547.349471
 21
372.041532
 31
0.0
  0
LINE
  8
LC-003-003-----0
  6
CONTINUOUS
  5
9C
 10
547.349471
 20
372.041532
 30
0.0
 11
542.650529
 21
372.041532
 31
0.0
  0
LINE
  8
LC-003-003-----0
  6
CONTINUOUS
  5
9D
 10
543.261391
 20
372.08157
 30
0.0
 11
545.0
 21
358.875524
 31
0.0
  0
LINE
  8
LC-003-003-----0
  6
CONTINUOUS
  5
9E
 10
545.0
 20
358.875524
 30
0.0
 11
546.738609
 21
372.08157
 31
0.0
  0
LINE
  8
LC-003-003-----0
  6
CONTINUOUS
  5
9F
 10
543.872254
 20
372.121608
 30
0.0
 11
545.0
 21
363.555524
 31
0.0
  0
LINE
  8
LC-003-003-----0
  6
CONTINUOUS
  5
A0
 10
545.0
 20
363.555524
 30
0.0
 11
546.127746
 21
372.121608
 31
0.0
  0
LINE
  8
LC-003-003-----0
  6
CONTINUOUS
  5
A1
 10
544.483116
 20
372.161646
 30
0.0
 11
545.0
 21
368.235524
 31
0.0
  0
LINE
  8
LC-003-003-----0
  6
CONTINUOUS
  5
A2
 10
545.0
 20
368.235524
 30
0.0
 11
545.516884
 21
372.161646
 31
0.0
  0
LINE
  8
LC-003-003-----0
  6
CONTINUOUS
  5
A3
 10
547.349471
 20
436.349517
 30
0.0
 11
545.0
 21
454.195524
 31
0.0
  0
LINE
  8
LC-003-003-----0
  6
CONTINUOUS
  5
A4
 10
545.0
 20
454.195524
 30
0.0
 11
542.650529
 21
436.349517
 31
0.0
  0
LINE
  8
LC-003-003-----0
  6
CONTINUOUS
  5
A5
 10
542.650529
 20
436.349517
 30
0.0
 11
547.349471
 21
436.349517
 31
0.0
  0
LINE
  8
LC-003-003-----0
  6
CONTINUOUS
  5
A6
 10
546.738609
 20
436.309479
 30
0.0
 11
545.0
 21
449.515524
 31
0.0
  0
LINE
  8
LC-003-003-----0
  6
CONTINUOUS
  5
A7
 10
545.0
 20
449.515524
 30
0.0
 11
543.261391
 21
436.309479
 31
0.0
  0
LINE
  8
LC-003-003-----0
  6
CONTINUOUS
  5
A8
 10
546.127746
 20
436.269441
 30
0.0
 11
545.0
 21
444.835524
 31
0.0
  0
LINE
  8
LC-003-003-----0
  6
CONTINUOUS
  5
A9
 10
545.0
 20
444.835524
 30
0.0
 11
543.872254
 21
436.269441
 31
0.0
  0
LINE
  8
LC-003-003-----0
  6
CONTINUOUS
  5
AA
 10
545.516884
 20
436.229403
 30
0.0
 11
545.0
 21
440.155524
 31
0.0
  0
LINE
  8
LC-003-003-----0
  6
CONTINUOUS
  5
AB
 10
545.0
 20
440.155524
 30
0.0
 11
544.483116
 21
436.229403
 31
0.0
  0
TEXT
  8
LC-003-003-----0
  6
CONTINUOUS
 62
     6
  5
AD
 10
539.968001
 20
387.856912
 30
0.0
 40
18.0
  1
100
 50
90.0
 41
0.9
 51
15.0
  7
LC-TXTSTYLE-150-400-0-0-D0
 72
     1
 11
539.968001
 21
406.99077
 31
0.0
  0
ENDBLK
  8
0
  5
AE
  0
BLOCK
  8
0
  5
B0
  2
*D3
 70
    65
 10
0.0
 20
0.0
 30
0.0
  3
*D3
  0
LINE
  8
LC-004-003-MTH-0
  6
CONTINUOUS
  5
B1
 10
272.583603
 20
454.195524
 30
0.0
 11
272.583603
 21
490.8
 31
0.0
  0
LINE
  8
LC-004-003-MTH-0
  6
CONTINUOUS
  5
B2
 10
496.583603
 20
454.195524
 30
0.0
 11
496.583603
 21
490.8
 31
0.0
  0
LINE
  8
LC-005-003-MTG-0
  6
CONTINUOUS
  5
B3
 10
272.583603
 20
480.0
 30
0.0
 11
496.583603
 21
480.0
 31
0.0
  0
LINE
  8
LC-003-003-----0
  6
CONTINUOUS
  5
B4
 10
290.429611
 20
482.349471
 30
0.0
 11
272.583603
 21
480.0
 31
0.0
  0
LINE
  8
LC-003-003-----0
  6
CONTINUOUS
  5
B5
 10
272.583603
 20
480.0
 30
0.0
 11
290.429611
 21
477.650529
 31
0.0
  0
LINE
  8
LC-003-003-----0
  6
CONTINUOUS
  5
B6
 10
290.429611
 20
477.650529
 30
0.0
 11
290.429611
 21
482.349471
 31
0.0
  0
LINE
  8
LC-003-003-----0
  6
CONTINUOUS
  5
B7
 10
290.469649
 20
481.738609
 30
0.0
 11
277.263603
 21
480.0
 31
0.0
  0
LINE
  8
LC-003-003-----0
  6
CONTINUOUS
  5
B8
 10
277.263603
 20
480.0
 30
0.0
 11
290.469649
 21
478.261391
 31
0.0
  0
LINE
  8
LC-003-003-----0
  6
CONTINUOUS
  5
B9
 10
290.509687
 20
481.127746
 30
0.0
 11
281.943603
 21
480.0
 31
0.0
  0
LINE
  8
LC-003-003-----0
  6
CONTINUOUS
  5
BA
 10
281.943603
 20
480.0
 30
0.0
 11
290.509687
 21
478.872254
 31
0.0
  0
LINE
  8
LC-003-003-----0
  6
CONTINUOUS
  5
BB
 10
290.549725
 20
480.516884
 30
0.0
 11
286.623603
 21
480.0
 31
0.0
  0
LINE
  8
LC-003-003-----0
  6
CONTINUOUS
  5
BC
 10
286.623603
 20
480.0
 30
0.0
 11
290.549725
 21
479.483116
 31
0.0
  0
LINE
  8
LC-003-003-----0
  6
CONTINUOUS
  5
BD
 10
478.737596
 20
477.650529
 30
0.0
 11
496.583603
 21
480.0
 31
0.0
  0
LINE
  8
LC-003-003-----0
  6
CONTINUOUS
  5
BE
 10
496.583603
 20
480.0
 30
0.0
 11
478.737596
 21
482.349471
 31
0.0
  0
LINE
  8
LC-003-003-----0
  6
CONTINUOUS
  5
BF
 10
478.737596
 20
482.349471
 30
0.0
 11
478.737596
 21
477.650529
 31
0.0
  0
LINE
  8
LC-003-003-----0
  6
CONTINUOUS
  5
C0
 10
478.697558
 20
478.261391
 30
0.0
 11
491.903603
 21
480.0
 31
0.0
  0
LINE
  8
LC-003-003-----0
  6
CONTINUOUS
  5
C1
 10
491.903603
 20
480.0
 30
0.0
 11
478.697558
 21
481.738609
 31
0.0
  0
LINE
  8
LC-003-003-----0
  6
CONTINUOUS
  5
C2
 10
478.65752
 20
478.872254
 30
0.0
 11
487.223603
 21
480.0
 31
0.0
  0
LINE
  8
LC-003-003-----0
  6
CONTINUOUS
  5
C3
 10
487.223603
 20
480.0
 30
0.0
 11
478.65752
 21
481.127746
 31
0.0
  0
LINE
  8
LC-003-003-----0
  6
CONTINUOUS
  5
C4
 10
478.617482
 20
479.483116
 30
0.0
 11
482.543603
 21
480.0
 31
0.0
  0
LINE
  8
LC-003-003-----0
  6
CONTINUOUS
  5
C5
 10
482.543603
 20
480.0
 30
0.0
 11
478.617482
 21
480.516884
 31
0.0
  0
TEXT
  8
LC-003-003-----0
  6
CONTINUOUS
 62
     6
  5
C6
 10
340.500896
 20
490.431999
 30
0.0
 40
18.0
  1
225*155
 51
15.0
  7
LC-TXTSTYLE-150-400-0-0-D0
 72
     1
 11
387.378849
 21
490.431999
 31
0.0
  0
ENDBLK
  8
0
  5
C7
  0
ENDSEC
  0
SECTION
  2
ENTITIES
  0
VIEWPORT
  8
LC-000
  5
EB
 67
     1
 68
     1
 10
420.0
 20
297.0
 30
0.0
 40
840.0
 41
594.0
 69
     1
1001
ACAD
1000
MVIEW
1002
{
1070
    16
1010
0.0
1020
0.0
1030
0.0
1010
0.0
1020
0.0
1030
1.0
1040
0.0
1040
594.0
1040
420.0
1040
297.0
1040
50.0
1040
0.0
1040
0.0
1070
     0
1070
   100
1070
     1
1070
     1
1070
     0
1070
     0
1070
     0
1070
     0
1040
0.0
1040
0.0
1040
0.0
1040
1.0
1040
1.0
1040
0.0
1040
0.0
1070
     0
1002
{
1002
}
1002
}
  0
VIEWPORT
  8
0
  5
EC
 67
     1
 68
     1
 10
0.0
 20
0.0
 30
0.0
 40
0.0
 41
0.0
 69
     1
1001
ACAD
1000
MVIEW
1002
{
1070
    16
1010
0.0
1020
0.0
1030
0.0
1010
0.0
1020
0.0
1030
1.0
1040
0.0
1040
594.0
1040
0.0
1040
0.0
1040
50.0
1040
0.0
1040
0.0
1070
     0
1070
   100
1070
     0
1070
     1
1070
     0
1070
     0
1070
     0
1070
     0
1040
0.0
1040
0.0
1040
0.0
1040
0.5
1040
0.5
1040
0.5
1040
0.5
1070
     0
1002
{
1002
}
1002
}
  0
INSERT
  8
0
  5
C8
  2
*X0
 10
489.583603
 20
328.195524
 30
0.0
  0
INSERT
  8
0
  5
C9
  2
*X1
 10
258.583603
 20
328.195524
 30
0.0
  0
DIMENSION
  8
0
  5
CA
  2
*D2
 10
545.0
 20
404.195524
 30
0.0
 11
545.0
 21
404.195524
 31
0.0
 13
503.583603
 23
454.195524
 33
0.0
 14
500.583603
 24
354.195524
 34
0.0
 50
90.0
  3
LC-DIM-L-0090-02-02
  0
DIMENSION
  8
0
  5
CB
  2
*D3
 10
384.583603
 20
480.0
 30
0.0
 11
384.583603
 21
480.0
 31
0.0
  1
225*155
 13
272.583603
 23
454.195524
 33
0.0
 14
496.583603
 24
454.195524
 34
0.0
  3
LC-DIM-L-0090-02-02
  0
LINE
  8
LC-001-002-----0
  6
CONTINUOUS
  5
CD
 10
265.583603
 20
454.195524
 30
0.0
 11
503.583603
 21
454.195524
 31
0.0
  0
LINE
  8
LC-001-002-----0
  6
CONTINUOUS
  5
CE
 10
503.583603
 20
431.195524
 30
0.0
 11
510.583603
 21
431.195524
 31
0.0
  0
LINE
  8
LC-001-002-----0
  6
CONTINUOUS
  5
CF
 10
258.583603
 20
431.195524
 30
0.0
 11
265.583603
 21
431.195524
 31
0.0
  0
LINE
  8
LC-001-002-----0
  6
CONTINUOUS
  5
D0
 10
258.583603
 20
431.195524
 30
0.0
 11
258.583603
 21
425.195524
 31
0.0
  0
LINE
  8
LC-001-002-----0
  6
CONTINUOUS
  5
D1
 10
510.583603
 20
431.195524
 30
0.0
 11
510.583603
 21
425.195524
 31
0.0
  0
LINE
  8
LC-001-002-----0
  6
CONTINUOUS
  5
D2
 10
265.583603
 20
454.195524
 30
0.0
 11
265.583603
 21
431.195524
 31
0.0
  0
LINE
  8
LC-001-002-----0
  6
CONTINUOUS
  5
D3
 10
272.583603
 20
454.195524
 30
0.0
 11
272.583603
 21
429.195524
 31
0.0
  0
LINE
  8
LC-001-002-----0
  6
CONTINUOUS
  5
D4
 10
258.583603
 20
425.195524
 30
0.0
 11
267.583603
 21
422.895524
 31
0.0
  0
LINE
  8
LC-001-002-----0
  6
CONTINUOUS
  5
D5
 10
267.583603
 20
422.895524
 30
0.0
 11
273.583603
 21
417.195524
 31
0.0
  0
LINE
  8
LC-001-002-----0
  6
CONTINUOUS
  5
D6
 10
268.583603
 20
354.195524
 30
0.0
 11
273.583603
 21
354.195524
 31
0.0
  0
LINE
  8
LC-001-002-----0
  6
CONTINUOUS
  5
D7
 10
273.583603
 20
417.195524
 30
0.0
 11
273.583603
 21
358.795524
 31
0.0
  0
LINE
  8
LC-001-002-----0
  6
CONTINUOUS
  5
D8
 10
273.583603
 20
354.195524
 30
0.0
 11
273.583603
 21
328.195524
 31
0.0
  0
LINE
  8
LC-001-002-----0
  6
CONTINUOUS
  5
D9
 10
279.583603
 20
429.195524
 30
0.0
 11
279.583603
 21
328.195524
 31
0.0
  0
LINE
  8
LC-001-002-----0
  6
CONTINUOUS
  5
DA
 10
273.583603
 20
358.795524
 30
0.0
 11
268.583603
 21
357.857735
 31
0.0
  0
LINE
  8
LC-001-002-----0
  6
CONTINUOUS
  5
DB
 10
268.583603
 20
357.857735
 30
0.0
 11
268.583603
 21
354.195524
 31
0.0
  0
LINE
  8
LC-001-002-----0
  6
CONTINUOUS
  5
DC
 10
510.583603
 20
425.195524
 30
0.0
 11
501.583603
 21
422.895524
 31
0.0
  0
LINE
  8
LC-001-002-----0
  6
CONTINUOUS
  5
DD
 10
501.583603
 20
422.895524
 30
0.0
 11
495.583603
 21
417.195524
 31
0.0
  0
LINE
  8
LC-001-002-----0
  6
CONTINUOUS
  5
DE
 10
495.583603
 20
417.195524
 30
0.0
 11
495.583603
 21
358.795524
 31
0.0
  0
LINE
  8
LC-001-002-----0
  6
CONTINUOUS
  5
DF
 10
495.583603
 20
358.795524
 30
0.0
 11
500.583603
 21
357.857735
 31
0.0
  0
LINE
  8
LC-001-002-----0
  6
CONTINUOUS
  5
E0
 10
500.583603
 20
357.857735
 30
0.0
 11
500.583603
 21
354.195524
 31
0.0
  0
LINE
  8
LC-001-002-----0
  6
CONTINUOUS
  5
E1
 10
500.583603
 20
354.195524
 30
0.0
 11
495.583603
 21
354.195524
 31
0.0
  0
LINE
  8
LC-001-002-----0
  6
CONTINUOUS
  5
E2
 10
495.583603
 20
354.195524
 30
0.0
 11
495.583603
 21
328.195524
 31
0.0
  0
LINE
  8
LC-001-002-----0
  6
CONTINUOUS
  5
E3
 10
489.583603
 20
429.195524
 30
0.0
 11
489.583603
 21
328.195524
 31
0.0
  0
LINE
  8
LC-001-002-----0
  6
DASHDOT
 62
     2
  5
E5
 10
384.583603
 20
454.195524
 30
0.0
 11
384.583603
 21
328.195524
 31
0.0
  0
LINE
  8
LC-001-002-----0
  6
CONTINUOUS
  5
E6
 10
503.583603
 20
454.195524
 30
0.0
 11
503.583603
 21
431.195524
 31
0.0
  0
LINE
  8
LC-001-002-----0
  6
CONTINUOUS
  5
E7
 10
272.583603
 20
429.195524
 30
0.0
 11
496.583603
 21
429.195524
 31
0.0
  0
LINE
  8
LC-001-002-----0
  6
CONTINUOUS
  5
E8
 10
273.583603
 20
328.195524
 30
0.0
 11
495.583603
 21
328.195524
 31
0.0
  0
LINE
  8
LC-001-002-----0
  6
CONTINUOUS
  5
E9
 10
496.583603
 20
454.195524
 30
0.0
 11
496.583603
 21
429.195524
 31
0.0
  0
ENDSEC
  0
EOF
