  0
SECTION
  2
HEADER
  9
$ACADVER
  1
AC1009
  9
$INSBASE
 10
0.0
 20
0.0
 30
0.0
  9
$EXTMIN
 10
0.0
 20
0.0
 30
0.0
  9
$EXTMAX
 10
840.0
 20
594.0
 30
0.0
  9
$LIMMIN
 10
0.0
 20
0.0
  9
$LIMMAX
 10
840.0
 20
594.0
  9
$ORTHOMODE
 70
     0
  9
$REGENMODE
 70
     1
  9
$FILLMODE
 70
     1
  9
$QTEXTMODE
 70
     0
  9
$MIRRTEXT
 70
     1
  9
$DRAGMODE
 70
     2
  9
$LTSCALE
 40
2.0
  9
$OSMODE
 70
     0
  9
$ATTMODE
 70
     1
  9
$TEXTSIZE
 40
0.2
  9
$TRACEWID
 40
0.05
  9
$TEXTSTYLE
  7
STANDARD
  9
$CLAYER
  8
0
  9
$CELTYPE
  6
BYLAYER
  9
$CECOLOR
 62
     7
  9
$DIMSCALE
 40
2.0
  9
$DIMASZ
 40
3.5
  9
$DIMEXO
 40
0.0625
  9
$DIMDLI
 40
0.38
  9
$DIMRND
 40
0.0
  9
$DIMDLE
 40
0.0
  9
$DIMEXE
 40
0.18
  9
$DIMTP
 40
0.0
  9
$DIMTM
 40
0.0
  9
$DIMTXT
 40
3.5
  9
$DIMCEN
 40
0.09
  9
$DIMTSZ
 40
0.0
  9
$DIMTOL
 70
     0
  9
$DIMLIM
 70
     0
  9
$DIMTIH
 70
     1
  9
$DIMTOH
 70
     1
  9
$DIMSE1
 70
     0
  9
$DIMSE2
 70
     0
  9
$DIMTAD
 70
     1
  9
$DIMZIN
 70
     0
  9
$DIMBLK
  1

  9
$DIMASO
 70
     1
  9
$DIMSHO
 70
     1
  9
$DIMPOST
  1

  9
$DIMAPOST
  1

  9
$DIMALT
 70
     0
  9
$DIMALTD
 70
     2
  9
$DIMALTF
 40
25.4
  9
$DIMLFAC
 40
1.0
  9
$DIMTOFL
 70
     0
  9
$DIMTVP
 40
0.0
  9
$DIMTIX
 70
     0
  9
$DIMSOXD
 70
     0
  9
$DIMSAH
 70
     0
  9
$DIMBLK1
  1

  9
$DIMBLK2
  1

  9
$DIMSTYLE
  2
STANDARD
  9
$DIMCLRD
 70
     0
  9
$DIMCLRE
 70
     0
  9
$DIMCLRT
 70
     0
  9
$DIMTFAC
 40
1.0
  9
$DIMGAP
 40
0.09
  9
$LUNITS
 70
     2
  9
$LUPREC
 70
     2
  9
$AXISMODE
 70
     0
  9
$AXISUNIT
 10
0.0
 20
0.0
  9
$SKETCHINC
 40
0.1
  9
$FILLETRAD
 40
0.0
  9
$AUNITS
 70
     0
  9
$AUPREC
 70
     0
  9
$MENU
  1
acad
  9
$ELEVATION
 40
0.0
  9
$PELEVATION
 40
0.0
  9
$THICKNESS
 40
0.0
  9
$LIMCHECK
 70
     0
  9
$BLIPMODE
 70
     1
  9
$CHAMFERA
 40
0.0
  9
$CHAMFERB
 40
0.0
  9
$SKPOLY
 70
     0
  9
$TDCREATE
 40
0.000000000
  9
$TDUPDATE
 40
0.000000000
  9
$TDINDWG
 40
0.0000000000
  9
$TDUSRTIMER
 40
0.0000000000
  9
$USRTIMER
 70
     1
  9
$ANGBASE
 50
0.0
  9
$ANGDIR
 70
     0
  9
$PDMODE
 70
     0
  9
$PDSIZE
 40
0.0
  9
$PLINEWID
 40
0.0
  9
$COORDS
 70
     0
  9
$SPLFRAME
 70
     0
  9
$SPLINETYPE
 70
     6
  9
$SPLINESEGS
 70
     8
  9
$ATTDIA
 70
     0
  9
$ATTREQ
 70
     1
  9
$HANDLING
 70
     1
  9
$HANDSEED
  5
1F5
  9
$SURFTAB1
 70
     6
  9
$SURFTAB2
 70
     6
  9
$SURFTYPE
 70
     6
  9
$SURFU
 70
     6
  9
$SURFV
 70
     6
  9
$UCSNAME
  2

  9
$UCSORG
 10
0.0
 20
0.0
 30
0.0
  9
$UCSXDIR
 10
1.0
 20
0.0
 30
0.0
  9
$UCSYDIR
 10
0.0
 20
1.0
 30
0.0
  9
$PUCSNAME
  2

  9
$PUCSORG
 10
0.0
 20
0.0
 30
0.0
  9
$PUCSXDIR
 10
1.0
 20
0.0
 30
0.0
  9
$PUCSYDIR
 10
0.0
 20
1.0
 30
0.0
  9
$USERI1
 70
     0
  9
$USERI2
 70
     0
  9
$USERI3
 70
     0
  9
$USERI4
 70
     0
  9
$USERI5
 70
     0
  9
$USERR1
 40
0.0
  9
$USERR2
 40
0.0
  9
$USERR3
 40
0.0
  9
$USERR4
 40
0.0
  9
$USERR5
 40
0.0
  9
$WORLDVIEW
 70
     1
  9
$SHADEDGE
 70
     3
  9
$SHADEDIF
 70
    70
  9
$TILEMODE
 70
     1
  9
$MAXACTVP
 70
    16
  9
$PINSBASE
 10
0.0
 20
0.0
 30
0.0
  9
$PLIMCHECK
 70
     0
  9
$PEXTMIN
 10
1.000000E+20
 20
1.000000E+20
 30
1.000000E+20
  9
$PEXTMAX
 10
-1.000000E+20
 20
-1.000000E+20
 30
-1.000000E+20
  9
$PLIMMIN
 10
0.0
 20
0.0
  9
$PLIMMAX
 10
840.0
 20
594.0
  9
$UNITMODE
 70
     0
  9
$VISRETAIN
 70
     0
  9
$PLINEGEN
 70
     1
  9
$PSLTSCALE
 70
     0
  9
$TREEDEPTH
 70
  3020
  9
$DWGCODEPAGE
  3
dos850
  0
ENDSEC
  0
SECTION
  2
TABLES
  0
TABLE
  2
VPORT
 70
     1
  0
VPORT
  2
*ACTIVE
 70
     0
 10
0.0
 20
0.0
 11
1.0
 21
1.0
 12
420.0
 22
297.0
 13
0.0
 23
0.0
 14
1.0
 24
1.0
 15
0.0
 25
0.0
 16
0.0
 26
0.0
 36
1.0
 17
0.0
 27
0.0
 37
0.0
 40
594.0
 41
1.604229
 42
50.0
 43
0.0
 44
0.0
 50
0.0
 51
0.0
 71
     0
 72
   100
 73
     1
 74
     1
 75
     0
 76
     0
 77
     0
 78
     0
  0
ENDTAB
  0
TABLE
  2
LTYPE
 70
     3
  0
LTYPE
  2
CONTINUOUS
 70
    64
  3
Solid line
 72
    65
 73
     0
 40
0.0
  0
LTYPE
  2
DASHDOT
 70
    64
  3
__ . __ . __ . __ . __
 72
    65
 73
     4
 40
7.5
 49
5.0
 49
-1.25
 49
0.0
 49
-1.25
  0
LTYPE
  2
CENTER
 70
    64
  3
__ . __ . __ . __ . __
 72
    65
 73
     4
 40
7.5
 49
5.0
 49
-1.25
 49
0.0
 49
-1.25
  0
ENDTAB
  0
TABLE
  2
LAYER
 70
    11
  0
LAYER
  2
0
 70
     0
 62
     7
  6
CONTINUOUS
  0
LAYER
  2
LC-INFO-1-2-MM-A3-0
 70
     1
 62
    -1
  6
CONTINUOUS
  0
LAYER
  2
LC-005-003-MTH-0
 70
     0
 62
     2
  6
CONTINUOUS
  0
LAYER
  2
LC-006-003-MTG-0
 70
     0
 62
     2
  6
CONTINUOUS
  0
LAYER
  2
LC-004-003-----0
 70
     0
 62
     2
  6
CONTINUOUS
  0
LAYER
  2
LC-001-000-----0
 70
     0
 62
     7
  6
CONTINUOUS
  0
LAYER
  2
LC-002-002-----0
 70
     0
 62
     1
  6
CONTINUOUS
  0
LAYER
  2
LC-003-005-----0
 70
     0
 62
     2
  6
CONTINUOUS
  0
LAYER
  2
LC-007-002-RND-0
 70
     0
 62
     1
  6
CONTINUOUS
  0
LAYER
  2
LC-008-006-MLN-0
 70
     0
 62
     2
  6
CENTER
  0
LAYER
  2
LC-000
 70
     0
 62
     7
  6
CONTINUOUS
  0
ENDTAB
  0
TABLE
  2
STYLE
 70
     4
  0
STYLE
  2
STANDARD
 70
     0
 40
0.0
 41
1.0
 50
0.0
 71
     0
 42
0.0
  3
txt
  4

  0
STYLE
  2
LC-STANDARD
 70
    64
 40
0.0
 41
1.0
 50
0.0
 71
     0
 42
3.5
  3
MONOTXT
  4

  0
STYLE
  2
LC-TXTSTYLE-150-400-0-0-D2
 70
    64
 40
0.0
 41
1.0
 50
15.0
 71
     0
 42
3.5
  3
MONOTXT
  4

  0
STYLE
  2
LC-TXTSTYLE-150-400-0-0-D3
 70
    64
 40
0.0
 41
1.0
 50
15.0
 71
     0
 42
3.5
  3
LC-STANDARD
  4

  0
ENDTAB
  0
TABLE
  2
VIEW
 70
     0
  0
ENDTAB
  0
TABLE
  2
UCS
 70
     0
  0
ENDTAB
  0
TABLE
  2
APPID
 70
     1
  0
APPID
  2
ACAD
 70
     0
  0
ENDTAB
  0
TABLE
  2
DIMSTYLE
 70
     3
  0
DIMSTYLE
  2
STANDARD
 70
     0
  3

  4

  5

  6

  7

 40
1.0
 41
0.18
 42
0.0625
 43
0.38
 44
0.18
 45
0.0
 46
0.0
 47
0.0
 48
0.0
 71
     0
 72
     0
 73
     1
 74
     1
 75
     0
 76
     0
 77
     0
 78
     0
140
0.18
141
0.09
142
0.0
143
25.4
144
1.0
145
0.0
146
1.0
147
0.09
170
     0
171
     2
172
     0
173
     0
174
     0
175
     0
176
     0
177
     0
178
     0
  0
DIMSTYLE
  2
LC-STANDARD
 70
     0
  3

  4

  5

  6

  7

 40
1.0
 41
3.5
 42
0.0
 43
7.5
 44
1.8
 45
0.0
 46
0.0
 47
0.0
 48
0.0
 71
     0
 72
     0
 73
     0
 74
     0
 75
     0
 76
     0
 77
     1
 78
     8
140
3.5
141
0.0
142
0.0
143
25.4
144
1.0
145
0.0
146
0.71
147
1.5
170
     0
171
     2
172
     1
173
     0
174
     0
175
     0
176
     0
177
     0
178
     3
  0
DIMSTYLE
  2
LC-DIM-L-0090-02-02
 70
     0
  3

  4

  5

  6

  7

 40
2.0
 41
3.5
 42
0.0
 43
7.5
 44
1.8
 45
0.0
 46
0.0
 47
0.0
 48
0.0
 71
     0
 72
     0
 73
     0
 74
     0
 75
     0
 76
     0
 77
     1
 78
     8
140
9.0
141
0.0
142
0.0
143
25.4
144
1.0
145
0.0
146
0.71
147
1.5
170
     0
171
     2
172
     0
173
     0
174
     0
175
     0
176
     2
177
     2
178
     6
  0
ENDTAB
  0
ENDSEC
  0
SECTION
  2
BLOCKS
  0
BLOCK
  8
0
  5
23
  2
BLK1
 70
    64
 10
0.0
 20
0.0
 30
0.0
  3
BLK1
  0
ENDBLK
  8
0
  5
24
  0
BLOCK
  8
0
  5
26
  2
*D1
 70
    65
 10
0.0
 20
0.0
 30
0.0
  3
*D1
  0
LINE
  8
LC-005-003-MTH-0
  6
CONTINUOUS
  5
28
 10
339.280529
 20
141.942737
 30
0.0
 11
339.280529
 21
97.2
 31
0.0
  0
LINE
  8
LC-005-003-MTH-0
  6
CONTINUOUS
  5
29
 10
449.280529
 20
141.942737
 30
0.0
 11
449.280529
 21
97.2
 31
0.0
  0
LINE
  8
LC-006-003-MTG-0
  6
CONTINUOUS
  5
2B
 10
339.280529
 20
108.0
 30
0.0
 11
449.280529
 21
108.0
 31
0.0
  0
LINE
  8
LC-004-003-----0
  6
CONTINUOUS
  5
2D
 10
357.126536
 20
110.349471
 30
0.0
 11
339.280529
 21
108.0
 31
0.0
  0
LINE
  8
LC-004-003-----0
  6
CONTINUOUS
  5
2E
 10
339.280529
 20
108.0
 30
0.0
 11
357.126536
 21
105.650529
 31
0.0
  0
LINE
  8
LC-004-003-----0
  6
CONTINUOUS
  5
2F
 10
357.126536
 20
105.650529
 30
0.0
 11
357.126536
 21
110.349471
 31
0.0
  0
LINE
  8
LC-004-003-----0
  6
CONTINUOUS
  5
30
 10
357.166574
 20
109.738609
 30
0.0
 11
343.960529
 21
108.0
 31
0.0
  0
LINE
  8
LC-004-003-----0
  6
CONTINUOUS
  5
31
 10
343.960529
 20
108.0
 30
0.0
 11
357.166574
 21
106.261391
 31
0.0
  0
LINE
  8
LC-004-003-----0
  6
CONTINUOUS
  5
32
 10
357.206612
 20
109.127746
 30
0.0
 11
348.640529
 21
108.0
 31
0.0
  0
LINE
  8
LC-004-003-----0
  6
CONTINUOUS
  5
33
 10
348.640529
 20
108.0
 30
0.0
 11
357.206612
 21
106.872254
 31
0.0
  0
LINE
  8
LC-004-003-----0
  6
CONTINUOUS
  5
34
 10
357.24665
 20
108.516884
 30
0.0
 11
353.320529
 21
108.0
 31
0.0
  0
LINE
  8
LC-004-003-----0
  6
CONTINUOUS
  5
35
 10
353.320529
 20
108.0
 30
0.0
 11
357.24665
 21
107.483116
 31
0.0
  0
LINE
  8
LC-004-003-----0
  6
CONTINUOUS
  5
36
 10
431.434521
 20
105.650529
 30
0.0
 11
449.280529
 21
108.0
 31
0.0
  0
LINE
  8
LC-004-003-----0
  6
CONTINUOUS
  5
37
 10
449.280529
 20
108.0
 30
0.0
 11
431.434521
 21
110.349471
 31
0.0
  0
LINE
  8
LC-004-003-----0
  6
CONTINUOUS
  5
38
 10
431.434521
 20
110.349471
 30
0.0
 11
431.434521
 21
105.650529
 31
0.0
  0
LINE
  8
LC-004-003-----0
  6
CONTINUOUS
  5
39
 10
431.394483
 20
106.261391
 30
0.0
 11
444.600529
 21
108.0
 31
0.0
  0
LINE
  8
LC-004-003-----0
  6
CONTINUOUS
  5
3A
 10
444.600529
 20
108.0
 30
0.0
 11
431.394483
 21
109.738609
 31
0.0
  0
LINE
  8
LC-004-003-----0
  6
CONTINUOUS
  5
3B
 10
431.354445
 20
106.872254
 30
0.0
 11
439.920529
 21
108.0
 31
0.0
  0
LINE
  8
LC-004-003-----0
  6
CONTINUOUS
  5
3C
 10
439.920529
 20
108.0
 30
0.0
 11
431.354445
 21
109.127746
 31
0.0
  0
LINE
  8
LC-004-003-----0
  6
CONTINUOUS
  5
3D
 10
431.314407
 20
107.483116
 30
0.0
 11
435.240529
 21
108.0
 31
0.0
  0
LINE
  8
LC-004-003-----0
  6
CONTINUOUS
  5
3E
 10
435.240529
 20
108.0
 30
0.0
 11
431.314407
 21
108.516884
 31
0.0
  0
TEXT
  8
LC-004-003-----0
  6
CONTINUOUS
 62
     6
  5
40
 10
359.405997
 20
113.031999
 30
0.0
 40
18.0
  1
DN100
 41
0.9
 51
15.0
  7
LC-TXTSTYLE-150-400-0-0-D0
 72
     1
 11
393.081587
 21
113.031999
 31
0.0
  0
ENDBLK
  8
0
  5
41
  0
BLOCK
  8
0
  5
43
  2
*D2
 70
    65
 10
0.0
 20
0.0
 30
0.0
  3
*D2
  0
LINE
  8
LC-005-003-MTH-0
  6
CONTINUOUS
  5
44
 10
448.074757
 20
137.442737
 30
0.0
 11
514.8
 21
137.442737
 31
0.0
  0
LINE
  8
LC-005-003-MTH-0
  6
CONTINUOUS
  5
45
 10
470.28105
 20
337.442737
 30
0.0
 11
514.8
 21
337.442737
 31
0.0
  0
LINE
  8
LC-006-003-MTG-0
  6
CONTINUOUS
  5
46
 10
504.0
 20
137.442737
 30
0.0
 11
504.0
 21
337.442737
 31
0.0
  0
LINE
  8
LC-004-003-----0
  6
CONTINUOUS
  5
47
 10
501.650529
 20
155.288745
 30
0.0
 11
504.0
 21
137.442737
 31
0.0
  0
LINE
  8
LC-004-003-----0
  6
CONTINUOUS
  5
48
 10
504.0
 20
137.442737
 30
0.0
 11
506.349471
 21
155.288745
 31
0.0
  0
LINE
  8
LC-004-003-----0
  6
CONTINUOUS
  5
49
 10
506.349471
 20
155.288745
 30
0.0
 11
501.650529
 21
155.288745
 31
0.0
  0
LINE
  8
LC-004-003-----0
  6
CONTINUOUS
  5
4A
 10
502.261391
 20
155.328783
 30
0.0
 11
504.0
 21
142.122737
 31
0.0
  0
LINE
  8
LC-004-003-----0
  6
CONTINUOUS
  5
4B
 10
504.0
 20
142.122737
 30
0.0
 11
505.738609
 21
155.328783
 31
0.0
  0
LINE
  8
LC-004-003-----0
  6
CONTINUOUS
  5
4C
 10
502.872254
 20
155.368821
 30
0.0
 11
504.0
 21
146.802737
 31
0.0
  0
LINE
  8
LC-004-003-----0
  6
CONTINUOUS
  5
4D
 10
504.0
 20
146.802737
 30
0.0
 11
505.127746
 21
155.368821
 31
0.0
  0
LINE
  8
LC-004-003-----0
  6
CONTINUOUS
  5
4E
 10
503.483116
 20
155.408859
 30
0.0
 11
504.0
 21
151.482737
 31
0.0
  0
LINE
  8
LC-004-003-----0
  6
CONTINUOUS
  5
4F
 10
504.0
 20
151.482737
 30
0.0
 11
504.516884
 21
155.408859
 31
0.0
  0
LINE
  8
LC-004-003-----0
  6
CONTINUOUS
  5
50
 10
506.349471
 20
319.59673
 30
0.0
 11
504.0
 21
337.442737
 31
0.0
  0
LINE
  8
LC-004-003-----0
  6
CONTINUOUS
  5
51
 10
504.0
 20
337.442737
 30
0.0
 11
501.650529
 21
319.59673
 31
0.0
  0
LINE
  8
LC-004-003-----0
  6
CONTINUOUS
  5
52
 10
501.650529
 20
319.59673
 30
0.0
 11
506.349471
 21
319.59673
 31
0.0
  0
LINE
  8
LC-004-003-----0
  6
CONTINUOUS
  5
53
 10
505.738609
 20
319.556691
 30
0.0
 11
504.0
 21
332.762737
 31
0.0
  0
LINE
  8
LC-004-003-----0
  6
CONTINUOUS
  5
54
 10
504.0
 20
332.762737
 30
0.0
 11
502.261391
 21
319.556691
 31
0.0
  0
LINE
  8
LC-004-003-----0
  6
CONTINUOUS
  5
55
 10
505.127746
 20
319.516653
 30
0.0
 11
504.0
 21
328.082737
 31
0.0
  0
LINE
  8
LC-004-003-----0
  6
CONTINUOUS
  5
56
 10
504.0
 20
328.082737
 30
0.0
 11
502.872254
 21
319.516653
 31
0.0
  0
LINE
  8
LC-004-003-----0
  6
CONTINUOUS
  5
57
 10
504.516884
 20
319.476615
 30
0.0
 11
504.0
 21
323.402737
 31
0.0
  0
LINE
  8
LC-004-003-----0
  6
CONTINUOUS
  5
58
 10
504.0
 20
323.402737
 30
0.0
 11
503.483116
 21
319.476615
 31
0.0
  0
TEXT
  8
LC-004-003-----0
  6
CONTINUOUS
 62
     6
  5
59
 10
493.568001
 20
219.479387
 30
0.0
 40
18.0
  1
200
 50
90.0
 51
15.0
  7
LC-TXTSTYLE-150-400-0-0-D0
 72
     1
 11
493.568001
 21
238.613246
 31
0.0
  0
ENDBLK
  8
0
  5
5A
  0
BLOCK
  8
0
  5
5C
  2
*D3
 70
    65
 10
0.0
 20
0.0
 30
0.0
  3
*D3
  0
LINE
  8
LC-005-003-MTH-0
  6
CONTINUOUS
  5
5D
 10
446.280529
 20
137.442737
 30
0.0
 11
550.8
 21
137.442737
 31
0.0
  0
LINE
  8
LC-005-003-MTH-0
  6
CONTINUOUS
  5
5E
 10
499.906179
 20
353.562704
 30
0.0
 11
550.8
 21
353.562704
 31
0.0
  0
LINE
  8
LC-006-003-MTG-0
  6
CONTINUOUS
  5
5F
 10
540.0
 20
137.442737
 30
0.0
 11
540.0
 21
353.562704
 31
0.0
  0
LINE
  8
LC-004-003-----0
  6
CONTINUOUS
  5
60
 10
537.650529
 20
155.288745
 30
0.0
 11
540.0
 21
137.442737
 31
0.0
  0
LINE
  8
LC-004-003-----0
  6
CONTINUOUS
  5
61
 10
540.0
 20
137.442737
 30
0.0
 11
542.349471
 21
155.288745
 31
0.0
  0
LINE
  8
LC-004-003-----0
  6
CONTINUOUS
  5
62
 10
542.349471
 20
155.288745
 30
0.0
 11
537.650529
 21
155.288745
 31
0.0
  0
LINE
  8
LC-004-003-----0
  6
CONTINUOUS
  5
63
 10
538.261391
 20
155.328783
 30
0.0
 11
540.0
 21
142.122737
 31
0.0
  0
LINE
  8
LC-004-003-----0
  6
CONTINUOUS
  5
64
 10
540.0
 20
142.122737
 30
0.0
 11
541.738609
 21
155.328783
 31
0.0
  0
LINE
  8
LC-004-003-----0
  6
CONTINUOUS
  5
65
 10
538.872254
 20
155.368821
 30
0.0
 11
540.0
 21
146.802737
 31
0.0
  0
LINE
  8
LC-004-003-----0
  6
CONTINUOUS
  5
66
 10
540.0
 20
146.802737
 30
0.0
 11
541.127746
 21
155.368821
 31
0.0
  0
LINE
  8
LC-004-003-----0
  6
CONTINUOUS
  5
67
 10
539.483116
 20
155.408859
 30
0.0
 11
540.0
 21
151.482737
 31
0.0
  0
LINE
  8
LC-004-003-----0
  6
CONTINUOUS
  5
68
 10
540.0
 20
151.482737
 30
0.0
 11
540.516884
 21
155.408859
 31
0.0
  0
LINE
  8
LC-004-003-----0
  6
CONTINUOUS
  5
69
 10
542.349471
 20
335.716696
 30
0.0
 11
540.0
 21
353.562704
 31
0.0
  0
LINE
  8
LC-004-003-----0
  6
CONTINUOUS
  5
6A
 10
540.0
 20
353.562704
 30
0.0
 11
537.650529
 21
335.716696
 31
0.0
  0
LINE
  8
LC-004-003-----0
  6
CONTINUOUS
  5
6B
 10
537.650529
 20
335.716696
 30
0.0
 11
542.349471
 21
335.716696
 31
0.0
  0
LINE
  8
LC-004-003-----0
  6
CONTINUOUS
  5
6C
 10
541.738609
 20
335.676658
 30
0.0
 11
540.0
 21
348.882704
 31
0.0
  0
LINE
  8
LC-004-003-----0
  6
CONTINUOUS
  5
6D
 10
540.0
 20
348.882704
 30
0.0
 11
538.261391
 21
335.676658
 31
0.0
  0
LINE
  8
LC-004-003-----0
  6
CONTINUOUS
  5
6E
 10
541.127746
 20
335.63662
 30
0.0
 11
540.0
 21
344.202704
 31
0.0
  0
LINE
  8
LC-004-003-----0
  6
CONTINUOUS
  5
6F
 10
540.0
 20
344.202704
 30
0.0
 11
538.872254
 21
335.63662
 31
0.0
  0
LINE
  8
LC-004-003-----0
  6
CONTINUOUS
  5
70
 10
540.516884
 20
335.596582
 30
0.0
 11
540.0
 21
339.522704
 31
0.0
  0
LINE
  8
LC-004-003-----0
  6
CONTINUOUS
  5
71
 10
540.0
 20
339.522704
 30
0.0
 11
539.483116
 21
335.596582
 31
0.0
  0
TEXT
  8
LC-004-003-----0
  6
CONTINUOUS
 62
     6
  5
72
 10
529.568001
 20
229.164108
 30
0.0
 40
18.0
  1
216
 50
90.0
 51
15.0
  7
LC-TXTSTYLE-150-400-0-0-D0
 72
     1
 11
529.568001
 21
248.297966
 31
0.0
  0
ENDBLK
  8
0
  5
73
  0
BLOCK
  8
0
  5
75
  2
BLK2
 70
    64
 10
0.0
 20
0.0
 30
0.0
  3
BLK2
  0
ENDBLK
  8
0
  5
76
  0
BLOCK
  8
0
  5
78
  2
BLK3
 70
    64
 10
0.0
 20
0.0
 30
0.0
  3
BLK3
  0
ENDBLK
  8
0
  5
79
  0
BLOCK
  8
0
  5
7B
  2
*D6
 70
    65
 10
0.0
 20
0.0
 30
0.0
  3
*D6
  0
LINE
  8
LC-005-003-MTH-0
  6
CONTINUOUS
  5
7C
 10
279.280529
 20
355.40046
 30
0.0
 11
279.280529
 21
406.8
 31
0.0
  0
LINE
  8
LC-005-003-MTH-0
  6
CONTINUOUS
  5
7D
 10
509.280529
 20
355.40046
 30
0.0
 11
509.280529
 21
406.8
 31
0.0
  0
LINE
  8
LC-006-003-MTG-0
  6
CONTINUOUS
  5
7E
 10
279.280529
 20
396.0
 30
0.0
 11
509.280529
 21
396.0
 31
0.0
  0
LINE
  8
LC-004-003-----0
  6
CONTINUOUS
  5
7F
 10
297.126536
 20
398.349471
 30
0.0
 11
279.280529
 21
396.0
 31
0.0
  0
LINE
  8
LC-004-003-----0
  6
CONTINUOUS
  5
80
 10
279.280529
 20
396.0
 30
0.0
 11
297.126536
 21
393.650529
 31
0.0
  0
LINE
  8
LC-004-003-----0
  6
CONTINUOUS
  5
81
 10
297.126536
 20
393.650529
 30
0.0
 11
297.126536
 21
398.349471
 31
0.0
  0
LINE
  8
LC-004-003-----0
  6
CONTINUOUS
  5
82
 10
297.166574
 20
397.738609
 30
0.0
 11
283.960529
 21
396.0
 31
0.0
  0
LINE
  8
LC-004-003-----0
  6
CONTINUOUS
  5
83
 10
283.960529
 20
396.0
 30
0.0
 11
297.166574
 21
394.261391
 31
0.0
  0
LINE
  8
LC-004-003-----0
  6
CONTINUOUS
  5
84
 10
297.206612
 20
397.127746
 30
0.0
 11
288.640529
 21
396.0
 31
0.0
  0
LINE
  8
LC-004-003-----0
  6
CONTINUOUS
  5
85
 10
288.640529
 20
396.0
 30
0.0
 11
297.206612
 21
394.872254
 31
0.0
  0
LINE
  8
LC-004-003-----0
  6
CONTINUOUS
  5
86
 10
297.24665
 20
396.516884
 30
0.0
 11
293.320529
 21
396.0
 31
0.0
  0
LINE
  8
LC-004-003-----0
  6
CONTINUOUS
  5
87
 10
293.320529
 20
396.0
 30
0.0
 11
297.24665
 21
395.483116
 31
0.0
  0
LINE
  8
LC-004-003-----0
  6
CONTINUOUS
  5
88
 10
491.434521
 20
393.650529
 30
0.0
 11
509.280529
 21
396.0
 31
0.0
  0
LINE
  8
LC-004-003-----0
  6
CONTINUOUS
  5
89
 10
509.280529
 20
396.0
 30
0.0
 11
491.434521
 21
398.349471
 31
0.0
  0
LINE
  8
LC-004-003-----0
  6
CONTINUOUS
  5
8A
 10
491.434521
 20
398.349471
 30
0.0
 11
491.434521
 21
393.650529
 31
0.0
  0
LINE
  8
LC-004-003-----0
  6
CONTINUOUS
  5
8B
 10
491.394483
 20
394.261391
 30
0.0
 11
504.600529
 21
396.0
 31
0.0
  0
LINE
  8
LC-004-003-----0
  6
CONTINUOUS
  5
8C
 10
504.600529
 20
396.0
 30
0.0
 11
491.394483
 21
397.738609
 31
0.0
  0
LINE
  8
LC-004-003-----0
  6
CONTINUOUS
  5
8D
 10
491.354445
 20
394.872254
 30
0.0
 11
499.920529
 21
396.0
 31
0.0
  0
LINE
  8
LC-004-003-----0
  6
CONTINUOUS
  5
8E
 10
499.920529
 20
396.0
 30
0.0
 11
491.354445
 21
397.127746
 31
0.0
  0
LINE
  8
LC-004-003-----0
  6
CONTINUOUS
  5
8F
 10
491.314407
 20
395.483116
 30
0.0
 11
495.240529
 21
396.0
 31
0.0
  0
LINE
  8
LC-004-003-----0
  6
CONTINUOUS
  5
90
 10
495.240529
 20
396.0
 30
0.0
 11
491.314407
 21
396.516884
 31
0.0
  0
TEXT
  8
LC-004-003-----0
  6
CONTINUOUS
 62
     6
  5
91
 10
366.467845
 20
406.431999
 30
0.0
 40
18.0
  1
Ø230
 51
15.0
  7
LC-TXTSTYLE-150-400-0-0-D0
 72
     1
 11
390.959183
 21
406.431999
 31
0.0
  0
ENDBLK
  8
0
  5
92
  0
BLOCK
  8
0
  5
94
  2
BLK4
 70
    64
 10
0.0
 20
0.0
 30
0.0
  3
BLK4
  0
ENDBLK
  8
0
  5
95
  0
BLOCK
  8
0
  5
97
  2
BLK5
 70
    64
 10
0.0
 20
0.0
 30
0.0
  3
BLK5
  0
ENDBLK
  8
0
  5
98
  0
BLOCK
  8
0
  5
9A
  2
BLK6
 70
    64
 10
0.0
 20
0.0
 30
0.0
  3
BLK6
  0
ENDBLK
  8
0
  5
9B
  0
BLOCK
  8
0
  5
9D
  2
BLK7
 70
    64
 10
0.0
 20
0.0
 30
0.0
  3
BLK7
  0
ENDBLK
  8
0
  5
9E
  0
BLOCK
  8
0
  5
A0
  2
BLK8
 70
    64
 10
0.0
 20
0.0
 30
0.0
  3
BLK8
  0
ENDBLK
  8
0
  5
A1
  0
ENDSEC
  0
SECTION
  2
ENTITIES
  0
VIEWPORT
  8
LC-000
  5
1E8
 67
     1
 68
     1
 10
420.0
 20
297.0
 30
0.0
 40
840.0
 41
594.0
 69
     1
1001
ACAD
1000
MVIEW
1002
{
1070
    16
1010
0.0
1020
0.0
1030
0.0
1010
0.0
1020
0.0
1030
1.0
1040
0.0
1040
594.0
1040
420.0
1040
297.0
1040
50.0
1040
0.0
1040
0.0
1070
     0
1070
   100
1070
     1
1070
     1
1070
     0
1070
     0
1070
     0
1070
     0
1040
0.0
1040
0.0
1040
0.0
1040
1.0
1040
1.0
1040
0.0
1040
0.0
1070
     0
1002
{
1002
}
1002
}
  0
VIEWPORT
  8
0
  5
1E9
 67
     1
 68
     1
 10
0.0
 20
0.0
 30
0.0
 40
0.0
 41
0.0
 69
     1
1001
ACAD
1000
MVIEW
1002
{
1070
    16
1010
0.0
1020
0.0
1030
0.0
1010
0.0
1020
0.0
1030
1.0
1040
0.0
1040
594.0
1040
0.0
1040
0.0
1040
50.0
1040
0.0
1040
0.0
1070
     0
1070
   100
1070
     0
1070
     1
1070
     0
1070
     0
1070
     0
1070
     0
1040
0.0
1040
0.0
1040
0.0
1040
0.5
1040
0.5
1040
0.5
1040
0.5
1070
     0
1002
{
1002
}
1002
}
  0
INSERT
  8
0
  5
A3
  2
BLK1
 10
0.0
 20
0.0
 30
0.0
  0
DIMENSION
  8
0
  5
A4
  2
*D1
 10
390.286342
 20
108.0
 30
0.0
 11
390.286342
 21
108.0
 31
0.0
  1
DN100
 13
339.280529
 23
141.942737
 33
0.0
 14
449.280529
 24
141.942737
 34
0.0
  3
LC-DIM-L-0090-02-02
  0
DIMENSION
  8
0
  5
A5
  2
*D2
 10
504.0
 20
235.818
 30
0.0
 11
504.0
 21
235.818
 31
0.0
 13
470.28105
 23
337.442737
 33
0.0
 14
448.074757
 24
137.442737
 34
0.0
 50
90.0
  3
LC-DIM-L-0090-02-02
  0
DIMENSION
  8
0
  5
A6
  2
*D3
 10
540.0
 20
245.50272
 30
0.0
 11
540.0
 21
245.50272
 31
0.0
  1
216
 13
446.280529
 23
137.442737
 33
0.0
 14
499.906179
 24
353.562704
 34
0.0
 50
90.0
  3
LC-DIM-L-0090-02-02
  0
INSERT
  8
0
  5
A7
  2
BLK2
 10
0.0
 20
0.0
 30
0.0
  0
INSERT
  8
0
  5
A8
  2
BLK3
 10
0.0
 20
0.0
 30
0.0
  0
DIMENSION
  8
0
  5
A9
  2
*D6
 10
388.163937
 20
396.0
 30
0.0
 11
388.163937
 21
396.0
 31
0.0
  1
%%c<>
 13
279.280529
 23
355.40046
 33
0.0
 14
509.280529
 24
355.40046
 34
0.0
  3
LC-DIM-L-0090-02-02
  0
INSERT
  8
0
  5
AA
  2
BLK4
 10
0.0
 20
0.0
 30
0.0
  0
INSERT
  8
0
  5
AB
  2
BLK5
 10
0.0
 20
0.0
 30
0.0
  0
INSERT
  8
0
  5
AC
  2
BLK6
 10
0.0
 20
0.0
 30
0.0
  0
INSERT
  8
0
  5
AD
  2
BLK7
 10
0.0
 20
0.0
 30
0.0
  0
INSERT
  8
0
  5
AE
  2
BLK8
 10
0.0
 20
0.0
 30
0.0
  0
LINE
  8
LC-002-002-----0
  6
CONTINUOUS
  5
B0
 10
320.280039
 20
350.944118
 30
0.0
 11
320.280039
 21
352.443427
 31
0.0
  0
LINE
  8
LC-002-002-----0
  6
CONTINUOUS
  5
B1
 10
468.281018
 20
350.944118
 30
0.0
 11
468.281018
 21
352.443427
 31
0.0
  0
LINE
  8
LC-002-002-----0
  6
DASHDOT
 62
     2
  5
B3
 10
464.281018
 20
352.443427
 30
0.0
 11
464.281018
 21
337.941724
 31
0.0
  0
LINE
  8
LC-003-005-----0
  6
CONTINUOUS
  5
B5
 10
340.404344
 20
137.748601
 30
0.0
 11
342.280529
 21
139.624786
 31
0.0
  0
LINE
  8
LC-002-002-----0
  6
CONTINUOUS
  5
B6
 10
509.280529
 20
353.919316
 30
0.0
 11
509.280529
 21
355.40046
 31
0.0
  0
ARC
  8
LC-002-002-----0
  6
CONTINUOUS
  5
B7
 10
324.280039
 20
346.443438
 30
0.0
 40
10.0
 50
244.158193
 51
295.842059
  0
LINE
  8
LC-003-005-----0
  6
CONTINUOUS
  5
B8
 10
339.806627
 20
139.979311
 30
0.0
 11
342.280529
 21
142.453213
 31
0.0
  0
LINE
  8
LC-003-005-----0
  6
CONTINUOUS
  5
B9
 10
339.280529
 20
142.28164
 30
0.0
 11
342.280529
 21
145.28164
 31
0.0
  0
LINE
  8
LC-003-005-----0
  6
CONTINUOUS
  5
BA
 10
339.280529
 20
145.110067
 30
0.0
 11
342.280529
 21
148.110067
 31
0.0
  0
LINE
  8
LC-003-005-----0
  6
CONTINUOUS
  5
BB
 10
339.280529
 20
147.938494
 30
0.0
 11
342.280529
 21
150.938494
 31
0.0
  0
LINE
  8
LC-002-002-----0
  6
CONTINUOUS
  5
BC
 10
340.4863
 20
137.442737
 30
0.0
 11
339.280529
 21
141.942737
 31
0.0
  0
LINE
  8
LC-003-005-----0
  6
CONTINUOUS
  5
BD
 10
339.280529
 20
150.766921
 30
0.0
 11
342.280529
 21
153.766921
 31
0.0
  0
LINE
  8
LC-002-002-----0
  6
CONTINUOUS
  5
BE
 10
320.280039
 20
352.443427
 30
0.0
 11
327.280056
 21
352.443427
 31
0.0
  0
LINE
  8
LC-003-005-----0
  6
CONTINUOUS
  5
BF
 10
339.280529
 20
153.595348
 30
0.0
 11
342.280529
 21
156.595348
 31
0.0
  0
LINE
  8
LC-002-002-----0
  6
CONTINUOUS
  5
C0
 10
328.280039
 20
352.443427
 30
0.0
 11
328.280039
 21
350.944118
 31
0.0
  0
LINE
  8
LC-002-002-----0
  6
CONTINUOUS
  5
C1
 10
328.280039
 20
352.443427
 30
0.0
 11
327.280056
 21
352.443427
 31
0.0
  0
LINE
  8
LC-002-002-----0
  6
CONTINUOUS
  5
C2
 10
318.280007
 20
337.442737
 30
0.0
 11
319.922587
 21
337.442737
 31
0.0
  0
LINE
  8
LC-003-005-----0
  6
CONTINUOUS
  5
C3
 10
339.280529
 20
156.423776
 30
0.0
 11
342.280529
 21
159.423776
 31
0.0
  0
LINE
  8
LC-003-005-----0
  6
CONTINUOUS
  5
C4
 10
339.280529
 20
159.252203
 30
0.0
 11
342.280529
 21
162.252203
 31
0.0
  0
LINE
  8
LC-002-002-----0
  6
CONTINUOUS
  5
C5
 10
320.280039
 20
350.944118
 30
0.0
 11
319.569204
 21
350.944118
 31
0.0
  0
LINE
  8
LC-003-005-----0
  6
CONTINUOUS
  5
C6
 10
339.280529
 20
162.08063
 30
0.0
 11
342.280529
 21
165.08063
 31
0.0
  0
LINE
  8
LC-003-005-----0
  6
CONTINUOUS
  5
C7
 10
339.280529
 20
164.909057
 30
0.0
 11
342.280529
 21
167.909057
 31
0.0
  0
LINE
  8
LC-003-005-----0
  6
CONTINUOUS
  5
C8
 10
339.280529
 20
167.737484
 30
0.0
 11
342.280529
 21
170.737484
 31
0.0
  0
LINE
  8
LC-002-002-----0
  6
CONTINUOUS
  5
C9
 10
328.637491
 20
337.442737
 30
0.0
 11
339.280529
 21
337.442737
 31
0.0
  0
LINE
  8
LC-003-005-----0
  6
CONTINUOUS
  5
CA
 10
339.280529
 20
170.565911
 30
0.0
 11
342.280529
 21
173.565911
 31
0.0
  0
LINE
  8
LC-002-002-----0
  6
CONTINUOUS
  5
CB
 10
446.280529
 20
340.444118
 30
0.0
 11
342.280529
 21
340.444118
 31
0.0
  0
LINE
  8
LC-003-005-----0
  6
CONTINUOUS
  5
CC
 10
339.280529
 20
173.394338
 30
0.0
 11
342.280529
 21
176.394338
 31
0.0
  0
LINE
  8
LC-002-002-----0
  6
CONTINUOUS
  5
CD
 10
288.995599
 20
357.145843
 30
0.0
 11
281.346782
 21
357.399362
 31
0.0
  0
LINE
  8
LC-002-002-----0
  6
CONTINUOUS
  5
CE
 10
342.280529
 20
340.444118
 30
0.0
 11
334.280503
 21
340.444118
 31
0.0
  0
LINE
  8
LC-003-005-----0
  6
CONTINUOUS
  5
CF
 10
339.280529
 20
176.222765
 30
0.0
 11
342.280529
 21
179.222765
 31
0.0
  0
LINE
  8
LC-003-005-----0
  6
CONTINUOUS
  5
D0
 10
339.280529
 20
179.051193
 30
0.0
 11
342.280529
 21
182.051193
 31
0.0
  0
ARC
  8
LC-007-002-RND-0
  6
CONTINUOUS
  5
D2
 10
507.280529
 20
355.40046
 30
0.0
 40
2.0
 50
360.0
 51
91.898364
  0
LINE
  8
LC-003-005-----0
  6
CONTINUOUS
  5
D3
 10
339.280529
 20
181.87962
 30
0.0
 11
342.280529
 21
184.87962
 31
0.0
  0
LINE
  8
LC-002-002-----0
  6
CONTINUOUS
  5
D4
 10
394.280529
 20
137.442737
 30
0.0
 11
446.280529
 21
137.442737
 31
0.0
  0
LINE
  8
LC-003-005-----0
  6
CONTINUOUS
  5
D5
 10
339.280529
 20
184.708047
 30
0.0
 11
342.280529
 21
187.708047
 31
0.0
  0
LINE
  8
LC-003-005-----0
  6
CONTINUOUS
  5
D6
 10
339.280529
 20
187.536474
 30
0.0
 11
342.280529
 21
190.536474
 31
0.0
  0
ARC
  8
LC-002-002-----0
  6
CONTINUOUS
  5
D7
 10
464.281018
 20
346.443438
 30
0.0
 40
10.0
 50
244.157941
 51
295.841807
  0
LINE
  8
LC-008-006-MLN-0
  6
DASHDOT
  5
DA
 10
394.280529
 20
362.444118
 30
0.0
 11
394.280529
 21
127.442737
 31
0.0
  0
LINE
  8
LC-002-002-----0
  6
CONTINUOUS
  5
DB
 10
309.280529
 20
350.944118
 30
0.0
 11
288.995599
 21
357.145843
 31
0.0
  0
LINE
  8
LC-003-005-----0
  6
CONTINUOUS
  5
DC
 10
339.280529
 20
190.364901
 30
0.0
 11
342.280529
 21
193.364901
 31
0.0
  0
LINE
  8
LC-003-005-----0
  6
CONTINUOUS
  5
DD
 10
339.280529
 20
193.193328
 30
0.0
 11
342.280529
 21
196.193328
 31
0.0
  0
LINE
  8
LC-002-002-----0
  6
CONTINUOUS
  5
DE
 10
308.83138
 20
347.392745
 30
0.0
 11
288.654878
 21
353.562704
 31
0.0
  0
LINE
  8
LC-003-005-----0
  6
CONTINUOUS
  5
DF
 10
339.280529
 20
196.021755
 30
0.0
 11
342.280529
 21
199.021755
 31
0.0
  0
LINE
  8
LC-002-002-----0
  6
CONTINUOUS
  5
E0
 10
454.280641
 20
340.444118
 30
0.0
 11
446.380529
 21
340.444118
 31
0.0
  0
LINE
  8
LC-003-005-----0
  6
CONTINUOUS
  5
E1
 10
339.280529
 20
198.850182
 30
0.0
 11
342.280529
 21
201.850182
 31
0.0
  0
LINE
  8
LC-003-005-----0
  6
CONTINUOUS
  5
E2
 10
339.280529
 20
201.67861
 30
0.0
 11
342.280529
 21
204.67861
 31
0.0
  0
LINE
  8
LC-003-005-----0
  6
CONTINUOUS
  5
E3
 10
339.280529
 20
204.507037
 30
0.0
 11
342.280529
 21
207.507037
 31
0.0
  0
LINE
  8
LC-002-002-----0
  6
CONTINUOUS
  5
E4
 10
288.654878
 20
353.562704
 30
0.0
 11
279.280529
 21
353.919316
 31
0.0
  0
LINE
  8
LC-003-005-----0
  6
CONTINUOUS
  5
E5
 10
339.280529
 20
207.335464
 30
0.0
 11
342.280529
 21
210.335464
 31
0.0
  0
LINE
  8
LC-002-002-----0
  6
CONTINUOUS
  5
E6
 10
468.281018
 20
352.443427
 30
0.0
 11
467.281026
 21
352.443427
 31
0.0
  0
LINE
  8
LC-003-005-----0
  6
CONTINUOUS
  5
E7
 10
339.280529
 20
210.163891
 30
0.0
 11
342.280529
 21
213.163891
 31
0.0
  0
LINE
  8
LC-003-005-----0
  6
CONTINUOUS
  5
E8
 10
339.280529
 20
212.992318
 30
0.0
 11
342.280529
 21
215.992318
 31
0.0
  0
LINE
  8
LC-002-002-----0
  6
CONTINUOUS
  5
E9
 10
394.280529
 20
137.442737
 30
0.0
 11
342.280529
 21
137.442737
 31
0.0
  0
LINE
  8
LC-002-002-----0
  6
CONTINUOUS
  5
EA
 10
499.906179
 20
353.562704
 30
0.0
 11
509.280529
 21
353.919316
 31
0.0
  0
LINE
  8
LC-002-002-----0
  6
CONTINUOUS
  5
EB
 10
479.729677
 20
347.392745
 30
0.0
 11
499.906179
 21
353.562704
 31
0.0
  0
LINE
  8
LC-003-005-----0
  6
CONTINUOUS
  5
EC
 10
447.578711
 20
137.442737
 30
0.0
 11
448.256323
 21
138.120349
 31
0.0
  0
LINE
  8
LC-003-005-----0
  6
CONTINUOUS
  5
ED
 10
446.280529
 20
138.972982
 30
0.0
 11
449.280529
 21
141.972982
 31
0.0
  0
LINE
  8
LC-003-005-----0
  6
CONTINUOUS
  5
EE
 10
339.280529
 20
215.820745
 30
0.0
 11
342.280529
 21
218.820745
 31
0.0
  0
LINE
  8
LC-003-005-----0
  6
CONTINUOUS
  5
EF
 10
339.280529
 20
218.649172
 30
0.0
 11
342.280529
 21
221.649172
 31
0.0
  0
LINE
  8
LC-002-002-----0
  6
CONTINUOUS
  5
F0
 10
479.280529
 20
350.944118
 30
0.0
 11
499.565458
 21
357.145843
 31
0.0
  0
LINE
  8
LC-002-002-----0
  6
CONTINUOUS
  5
F1
 10
499.565458
 20
357.145843
 30
0.0
 11
507.214394
 21
357.395722
 31
0.0
  0
LINE
  8
LC-002-002-----0
  6
CONTINUOUS
  5
F2
 10
279.280529
 20
353.919316
 30
0.0
 11
279.280529
 21
355.40046
 31
0.0
  0
LINE
  8
LC-003-005-----0
  6
CONTINUOUS
  5
F3
 10
339.280529
 20
221.477599
 30
0.0
 11
342.280529
 21
224.477599
 31
0.0
  0
LINE
  8
LC-002-002-----0
  6
CONTINUOUS
  5
F4
 10
446.280529
 20
340.444118
 30
0.0
 11
446.380529
 21
340.444118
 31
0.0
  0
LINE
  8
LC-002-002-----0
  6
CONTINUOUS
  5
F5
 10
449.280529
 20
337.443427
 30
0.0
 11
449.280529
 21
337.443402
 31
0.0
  0
LINE
  8
LC-003-005-----0
  6
CONTINUOUS
  5
F6
 10
339.280529
 20
224.306027
 30
0.0
 11
342.280529
 21
227.306027
 31
0.0
  0
LINE
  8
LC-003-005-----0
  6
CONTINUOUS
  5
F7
 10
446.280529
 20
141.801409
 30
0.0
 11
449.280529
 21
144.801409
 31
0.0
  0
LINE
  8
LC-002-002-----0
  6
CONTINUOUS
  5
F8
 10
339.280529
 20
337.442737
 30
0.0
 11
339.280529
 21
141.942737
 31
0.0
  0
LINE
  8
LC-002-002-----0
  6
CONTINUOUS
  5
F9
 10
449.280538
 20
337.443428
 30
0.0
 11
449.280529
 21
141.942737
 31
0.0
  0
LINE
  8
LC-002-002-----0
  6
CONTINUOUS
  5
FA
 10
342.280529
 20
340.444118
 30
0.0
 11
342.280529
 21
137.442737
 31
0.0
  0
LINE
  8
LC-002-002-----0
  6
CONTINUOUS
  5
FB
 10
446.280538
 20
340.444118
 30
0.0
 11
446.280529
 21
137.442737
 31
0.0
  0
LINE
  8
LC-002-002-----0
  6
CONTINUOUS
  5
FC
 10
448.074757
 20
137.442737
 30
0.0
 11
449.280529
 21
141.942737
 31
0.0
  0
LINE
  8
LC-003-005-----0
  6
CONTINUOUS
  5
FD
 10
339.280529
 20
227.134454
 30
0.0
 11
342.280529
 21
230.134454
 31
0.0
  0
ARC
  8
LC-007-002-RND-0
  6
CONTINUOUS
  5
FE
 10
281.280529
 20
355.40046
 30
0.0
 40
2.0
 50
88.101636
 51
180.0
  0
LINE
  8
LC-003-005-----0
  6
CONTINUOUS
  5
FF
 10
446.280529
 20
144.629836
 30
0.0
 11
449.280529
 21
147.629836
 31
0.0
  0
LINE
  8
LC-003-005-----0
  6
CONTINUOUS
  5
100
 10
339.280529
 20
229.962881
 30
0.0
 11
342.280529
 21
232.962881
 31
0.0
  0
LINE
  8
LC-003-005-----0
  6
CONTINUOUS
  5
101
 10
339.280529
 20
232.791308
 30
0.0
 11
342.280529
 21
235.791308
 31
0.0
  0
LINE
  8
LC-003-005-----0
  6
CONTINUOUS
  5
102
 10
339.280529
 20
235.619735
 30
0.0
 11
342.280529
 21
238.619735
 31
0.0
  0
LINE
  8
LC-003-005-----0
  6
CONTINUOUS
  5
103
 10
339.280529
 20
238.448162
 30
0.0
 11
342.280529
 21
241.448162
 31
0.0
  0
LINE
  8
LC-003-005-----0
  6
CONTINUOUS
  5
104
 10
339.280529
 20
241.276589
 30
0.0
 11
342.280529
 21
244.276589
 31
0.0
  0
LINE
  8
LC-002-002-----0
  6
CONTINUOUS
  5
105
 10
460.281018
 20
352.443427
 30
0.0
 11
460.281018
 21
350.944118
 31
0.0
  0
LINE
  8
LC-002-002-----0
  6
CONTINUOUS
  5
106
 10
460.281018
 20
352.443427
 30
0.0
 11
467.281026
 21
352.443427
 31
0.0
  0
LINE
  8
LC-002-002-----0
  6
CONTINUOUS
  5
107
 10
470.28105
 20
337.442737
 30
0.0
 11
468.63847
 21
337.442737
 31
0.0
  0
LINE
  8
LC-003-005-----0
  6
CONTINUOUS
  5
108
 10
339.280529
 20
244.105016
 30
0.0
 11
342.280529
 21
247.105016
 31
0.0
  0
LINE
  8
LC-002-002-----0
  6
CONTINUOUS
  5
109
 10
330.280529
 20
352.444118
 30
0.0
 11
330.280529
 21
350.944118
 31
0.0
  0
LINE
  8
LC-002-002-----0
  6
CONTINUOUS
  5
10A
 10
318.280529
 20
350.944118
 30
0.0
 11
318.280529
 21
347.444118
 31
0.0
  0
LINE
  8
LC-002-002-----0
  6
CONTINUOUS
  5
10B
 10
342.280529
 20
137.442737
 30
0.0
 11
340.4863
 21
137.442737
 31
0.0
  0
LINE
  8
LC-002-002-----0
  6
CONTINUOUS
  5
10C
 10
330.280529
 20
350.944118
 30
0.0
 11
329.569204
 21
350.944118
 31
0.0
  0
LINE
  8
LC-002-002-----0
  6
CONTINUOUS
  5
10D
 10
446.280529
 20
137.442737
 30
0.0
 11
448.074757
 21
137.442737
 31
0.0
  0
LINE
  8
LC-002-002-----0
  6
CONTINUOUS
  5
10E
 10
318.280007
 20
347.444118
 30
0.0
 11
311.280007
 21
347.444118
 31
0.0
  0
LINE
  8
LC-002-002-----0
  6
CONTINUOUS
  5
10F
 10
311.280007
 20
347.444118
 30
0.0
 11
311.280007
 21
350.944118
 31
0.0
  0
LINE
  8
LC-002-002-----0
  6
CONTINUOUS
  5
110
 10
318.280007
 20
344.944118
 30
0.0
 11
311.280007
 21
344.944118
 31
0.0
  0
LINE
  8
LC-002-002-----0
  6
CONTINUOUS
  5
111
 10
311.280007
 20
344.944118
 30
0.0
 11
308.83138
 21
347.392745
 31
0.0
  0
LINE
  8
LC-003-005-----0
  6
CONTINUOUS
  5
112
 10
339.280529
 20
246.933444
 30
0.0
 11
342.280529
 21
249.933444
 31
0.0
  0
LINE
  8
LC-003-005-----0
  6
CONTINUOUS
  5
113
 10
339.280529
 20
249.761871
 30
0.0
 11
342.280529
 21
252.761871
 31
0.0
  0
LINE
  8
LC-003-005-----0
  6
CONTINUOUS
  5
114
 10
339.280529
 20
252.590298
 30
0.0
 11
342.280529
 21
255.590298
 31
0.0
  0
LINE
  8
LC-003-005-----0
  6
CONTINUOUS
  5
115
 10
339.280529
 20
255.418725
 30
0.0
 11
342.280529
 21
258.418725
 31
0.0
  0
LINE
  8
LC-003-005-----0
  6
CONTINUOUS
  5
116
 10
339.280529
 20
258.247152
 30
0.0
 11
342.280529
 21
261.247152
 31
0.0
  0
LINE
  8
LC-003-005-----0
  6
CONTINUOUS
  5
117
 10
339.280529
 20
261.075579
 30
0.0
 11
342.280529
 21
264.075579
 31
0.0
  0
LINE
  8
LC-002-002-----0
  6
CONTINUOUS
  5
118
 10
509.280529
 20
353.919316
 30
0.0
 11
509.280529
 21
355.40046
 31
0.0
  0
LINE
  8
LC-003-005-----0
  6
CONTINUOUS
  5
119
 10
339.280529
 20
263.904006
 30
0.0
 11
342.280529
 21
266.904006
 31
0.0
  0
LINE
  8
LC-003-005-----0
  6
CONTINUOUS
  5
11A
 10
339.280529
 20
266.732433
 30
0.0
 11
342.280529
 21
269.732433
 31
0.0
  0
LINE
  8
LC-003-005-----0
  6
CONTINUOUS
  5
11B
 10
339.280529
 20
269.560861
 30
0.0
 11
342.280529
 21
272.560861
 31
0.0
  0
LINE
  8
LC-003-005-----0
  6
CONTINUOUS
  5
11C
 10
339.280529
 20
272.389288
 30
0.0
 11
342.280529
 21
275.389288
 31
0.0
  0
LINE
  8
LC-003-005-----0
  6
CONTINUOUS
  5
11D
 10
339.280529
 20
275.217715
 30
0.0
 11
342.280529
 21
278.217715
 31
0.0
  0
LINE
  8
LC-003-005-----0
  6
CONTINUOUS
  5
11E
 10
339.280529
 20
278.046142
 30
0.0
 11
342.280529
 21
281.046142
 31
0.0
  0
LINE
  8
LC-003-005-----0
  6
CONTINUOUS
  5
11F
 10
339.280529
 20
280.874569
 30
0.0
 11
342.280529
 21
283.874569
 31
0.0
  0
LINE
  8
LC-003-005-----0
  6
CONTINUOUS
  5
120
 10
339.280529
 20
283.702996
 30
0.0
 11
342.280529
 21
286.702996
 31
0.0
  0
LINE
  8
LC-003-005-----0
  6
CONTINUOUS
  5
121
 10
339.280529
 20
286.531423
 30
0.0
 11
342.280529
 21
289.531423
 31
0.0
  0
LINE
  8
LC-003-005-----0
  6
CONTINUOUS
  5
122
 10
339.280529
 20
289.35985
 30
0.0
 11
342.280529
 21
292.35985
 31
0.0
  0
LINE
  8
LC-003-005-----0
  6
CONTINUOUS
  5
123
 10
339.280529
 20
292.188278
 30
0.0
 11
342.280529
 21
295.188278
 31
0.0
  0
LINE
  8
LC-003-005-----0
  6
CONTINUOUS
  5
124
 10
339.280529
 20
295.016705
 30
0.0
 11
342.280529
 21
298.016705
 31
0.0
  0
LINE
  8
LC-003-005-----0
  6
CONTINUOUS
  5
125
 10
339.280529
 20
297.845132
 30
0.0
 11
342.280529
 21
300.845132
 31
0.0
  0
LINE
  8
LC-003-005-----0
  6
CONTINUOUS
  5
126
 10
339.280529
 20
300.673559
 30
0.0
 11
342.280529
 21
303.673559
 31
0.0
  0
LINE
  8
LC-003-005-----0
  6
CONTINUOUS
  5
127
 10
339.280529
 20
303.501986
 30
0.0
 11
342.280529
 21
306.501986
 31
0.0
  0
LINE
  8
LC-003-005-----0
  6
CONTINUOUS
  5
128
 10
339.280529
 20
306.330413
 30
0.0
 11
342.280529
 21
309.330413
 31
0.0
  0
LINE
  8
LC-003-005-----0
  6
CONTINUOUS
  5
129
 10
339.280529
 20
309.15884
 30
0.0
 11
342.280529
 21
312.15884
 31
0.0
  0
LINE
  8
LC-003-005-----0
  6
CONTINUOUS
  5
12A
 10
339.280529
 20
311.987267
 30
0.0
 11
342.280529
 21
314.987267
 31
0.0
  0
LINE
  8
LC-003-005-----0
  6
CONTINUOUS
  5
12B
 10
339.280529
 20
314.815695
 30
0.0
 11
342.280529
 21
317.815695
 31
0.0
  0
LINE
  8
LC-003-005-----0
  6
CONTINUOUS
  5
12C
 10
339.280529
 20
317.644122
 30
0.0
 11
342.280529
 21
320.644122
 31
0.0
  0
LINE
  8
LC-003-005-----0
  6
CONTINUOUS
  5
12D
 10
339.280529
 20
320.472549
 30
0.0
 11
342.280529
 21
323.472549
 31
0.0
  0
LINE
  8
LC-003-005-----0
  6
CONTINUOUS
  5
12E
 10
339.280529
 20
323.300976
 30
0.0
 11
342.280529
 21
326.300976
 31
0.0
  0
LINE
  8
LC-003-005-----0
  6
CONTINUOUS
  5
12F
 10
339.280529
 20
326.129403
 30
0.0
 11
342.280529
 21
329.129403
 31
0.0
  0
LINE
  8
LC-003-005-----0
  6
CONTINUOUS
  5
130
 10
339.280529
 20
328.95783
 30
0.0
 11
342.280529
 21
331.95783
 31
0.0
  0
LINE
  8
LC-003-005-----0
  6
CONTINUOUS
  5
131
 10
339.280529
 20
331.786257
 30
0.0
 11
342.280529
 21
334.786257
 31
0.0
  0
LINE
  8
LC-003-005-----0
  6
CONTINUOUS
  5
132
 10
339.280529
 20
334.614684
 30
0.0
 11
342.280529
 21
337.614684
 31
0.0
  0
LINE
  8
LC-003-005-----0
  6
CONTINUOUS
  5
133
 10
339.280154
 20
337.442737
 30
0.0
 11
342.280529
 21
340.443112
 31
0.0
  0
LINE
  8
LC-003-005-----0
  6
CONTINUOUS
  5
134
 10
336.451727
 20
337.442737
 30
0.0
 11
339.453108
 21
340.444118
 31
0.0
  0
LINE
  8
LC-003-005-----0
  6
CONTINUOUS
  5
135
 10
333.6233
 20
337.442737
 30
0.0
 11
336.624681
 21
340.444118
 31
0.0
  0
LINE
  8
LC-003-005-----0
  6
CONTINUOUS
  5
136
 10
330.794873
 20
337.442737
 30
0.0
 11
334.280416
 21
340.928281
 31
0.0
  0
LINE
  8
LC-003-005-----0
  6
CONTINUOUS
  5
137
 10
327.4996
 20
336.975892
 30
0.0
 11
334.280416
 21
343.756708
 31
0.0
  0
LINE
  8
LC-003-005-----0
  6
CONTINUOUS
  5
138
 10
324.139704
 20
336.444422
 30
0.0
 11
325.638709
 21
337.943427
 31
0.0
  0
LINE
  8
LC-003-005-----0
  6
CONTINUOUS
  5
139
 10
326.780039
 20
339.084758
 30
0.0
 11
334.280416
 21
346.585135
 31
0.0
  0
LINE
  8
LC-003-005-----0
  6
CONTINUOUS
  5
13A
 10
321.659704
 20
336.79285
 30
0.0
 11
322.810282
 21
337.943427
 31
0.0
  0
LINE
  8
LC-003-005-----0
  6
CONTINUOUS
  5
13B
 10
326.780039
 20
341.913185
 30
0.0
 11
334.280416
 21
349.413562
 31
0.0
  0
LINE
  8
LC-003-005-----0
  6
CONTINUOUS
  5
13C
 10
319.481164
 20
337.442737
 30
0.0
 11
321.780039
 21
339.741612
 31
0.0
  0
LINE
  8
LC-003-005-----0
  6
CONTINUOUS
  5
13D
 10
326.780039
 20
344.741612
 30
0.0
 11
334.280416
 21
352.241989
 31
0.0
  0
LINE
  8
LC-003-005-----0
  6
CONTINUOUS
  5
13E
 10
318.280007
 20
339.070007
 30
0.0
 11
321.780039
 21
342.570039
 31
0.0
  0
LINE
  8
LC-003-005-----0
  6
CONTINUOUS
  5
13F
 10
326.780039
 20
347.570039
 30
0.0
 11
330.154118
 21
350.944118
 31
0.0
  0
LINE
  8
LC-003-005-----0
  6
CONTINUOUS
  5
140
 10
330.280529
 20
351.070529
 30
0.0
 11
331.653139
 21
352.443139
 31
0.0
  0
LINE
  8
LC-003-005-----0
  6
CONTINUOUS
  5
141
 10
318.280007
 20
341.898434
 30
0.0
 11
321.780039
 21
345.398466
 31
0.0
  0
LINE
  8
LC-003-005-----0
  6
CONTINUOUS
  5
142
 10
326.780039
 20
350.398466
 30
0.0
 11
328.280039
 21
351.898466
 31
0.0
  0
LINE
  8
LC-003-005-----0
  6
CONTINUOUS
  5
143
 10
446.280529
 20
147.458264
 30
0.0
 11
449.280529
 21
150.458264
 31
0.0
  0
LINE
  8
LC-003-005-----0
  6
CONTINUOUS
  5
144
 10
318.280007
 20
344.726861
 30
0.0
 11
321.780039
 21
348.226893
 31
0.0
  0
LINE
  8
LC-003-005-----0
  6
CONTINUOUS
  5
145
 10
315.668836
 20
344.944118
 30
0.0
 11
318.168836
 21
347.444118
 31
0.0
  0
LINE
  8
LC-003-005-----0
  6
CONTINUOUS
  5
146
 10
318.280529
 20
347.55581
 30
0.0
 11
321.780039
 21
351.055321
 31
0.0
  0
LINE
  8
LC-003-005-----0
  6
CONTINUOUS
  5
147
 10
312.840409
 20
344.944118
 30
0.0
 11
315.340409
 21
347.444118
 31
0.0
  0
LINE
  8
LC-003-005-----0
  6
CONTINUOUS
  5
148
 10
318.280529
 20
350.384237
 30
0.0
 11
318.840409
 21
350.944118
 31
0.0
  0
LINE
  8
LC-003-005-----0
  6
CONTINUOUS
  5
149
 10
319.19873
 20
351.302438
 30
0.0
 11
319.302446
 21
351.406155
 31
0.0
  0
LINE
  8
LC-003-005-----0
  6
CONTINUOUS
  5
14A
 10
320.280039
 20
352.383748
 30
0.0
 11
320.339719
 21
352.443427
 31
0.0
  0
LINE
  8
LC-003-005-----0
  6
CONTINUOUS
  5
14B
 10
310.645995
 20
345.57813
 30
0.0
 11
312.511982
 21
347.444118
 31
0.0
  0
LINE
  8
LC-003-005-----0
  6
CONTINUOUS
  5
14C
 10
309.231781
 20
346.992344
 30
0.0
 11
311.280007
 21
349.04057
 31
0.0
  0
LINE
  8
LC-003-005-----0
  6
CONTINUOUS
  5
14D
 10
307.278595
 20
347.867585
 30
0.0
 11
310.355128
 21
350.944118
 31
0.0
  0
LINE
  8
LC-003-005-----0
  6
CONTINUOUS
  5
14E
 10
305.112545
 20
348.529962
 30
0.0
 11
307.937351
 21
351.354768
 31
0.0
  0
LINE
  8
LC-003-005-----0
  6
CONTINUOUS
  5
14F
 10
302.946494
 20
349.192338
 30
0.0
 11
305.771187
 21
352.017031
 31
0.0
  0
LINE
  8
LC-003-005-----0
  6
CONTINUOUS
  5
150
 10
300.780444
 20
349.854715
 30
0.0
 11
303.605023
 21
352.679294
 31
0.0
  0
LINE
  8
LC-003-005-----0
  6
CONTINUOUS
  5
151
 10
298.614393
 20
350.517091
 30
0.0
 11
301.438859
 21
353.341557
 31
0.0
  0
LINE
  8
LC-003-005-----0
  6
CONTINUOUS
  5
152
 10
296.448343
 20
351.179468
 30
0.0
 11
299.272694
 21
354.00382
 31
0.0
  0
LINE
  8
LC-003-005-----0
  6
CONTINUOUS
  5
153
 10
294.282292
 20
351.841845
 30
0.0
 11
297.10653
 21
354.666083
 31
0.0
  0
LINE
  8
LC-003-005-----0
  6
CONTINUOUS
  5
154
 10
292.116241
 20
352.504221
 30
0.0
 11
294.940366
 21
355.328346
 31
0.0
  0
LINE
  8
LC-003-005-----0
  6
CONTINUOUS
  5
155
 10
289.950191
 20
353.166598
 30
0.0
 11
292.774202
 21
355.990608
 31
0.0
  0
LINE
  8
LC-003-005-----0
  6
CONTINUOUS
  5
156
 10
287.559538
 20
353.604372
 30
0.0
 11
290.608037
 21
356.652871
 31
0.0
  0
LINE
  8
LC-003-005-----0
  6
CONTINUOUS
  5
157
 10
284.834765
 20
353.708026
 30
0.0
 11
288.295778
 21
357.169039
 31
0.0
  0
LINE
  8
LC-003-005-----0
  6
CONTINUOUS
  5
158
 10
282.109992
 20
353.81168
 30
0.0
 11
285.558091
 21
357.259779
 31
0.0
  0
LINE
  8
LC-003-005-----0
  6
CONTINUOUS
  5
159
 10
279.385218
 20
353.915334
 30
0.0
 11
282.820404
 21
357.350519
 31
0.0
  0
LINE
  8
LC-003-005-----0
  6
CONTINUOUS
  5
15A
 10
446.280529
 20
150.286691
 30
0.0
 11
449.280529
 21
153.286691
 31
0.0
  0
LINE
  8
LC-003-005-----0
  6
CONTINUOUS
  5
15B
 10
446.280529
 20
153.115118
 30
0.0
 11
449.280529
 21
156.115118
 31
0.0
  0
LINE
  8
LC-003-005-----0
  6
CONTINUOUS
  5
15C
 10
446.280529
 20
155.943545
 30
0.0
 11
449.280529
 21
158.943545
 31
0.0
  0
LINE
  8
LC-003-005-----0
  6
CONTINUOUS
  5
15D
 10
446.280529
 20
158.771972
 30
0.0
 11
449.280529
 21
161.771972
 31
0.0
  0
LINE
  8
LC-003-005-----0
  6
CONTINUOUS
  5
15E
 10
446.280529
 20
161.600399
 30
0.0
 11
449.280529
 21
164.600399
 31
0.0
  0
LINE
  8
LC-002-002-----0
  6
CONTINUOUS
  5
15F
 10
333.280416
 20
352.444118
 30
0.0
 11
454.280641
 21
352.444118
 31
0.0
  0
LINE
  8
LC-003-005-----0
  6
CONTINUOUS
  5
160
 10
446.280529
 20
164.428826
 30
0.0
 11
449.280529
 21
167.428826
 31
0.0
  0
LINE
  8
LC-003-005-----0
  6
CONTINUOUS
  5
161
 10
446.280529
 20
167.257253
 30
0.0
 11
449.280529
 21
170.257253
 31
0.0
  0
LINE
  8
LC-003-005-----0
  6
CONTINUOUS
  5
162
 10
446.280529
 20
170.08568
 30
0.0
 11
449.280529
 21
173.08568
 31
0.0
  0
LINE
  8
LC-003-005-----0
  6
CONTINUOUS
  5
163
 10
446.280529
 20
172.914108
 30
0.0
 11
449.280529
 21
175.914108
 31
0.0
  0
LINE
  8
LC-003-005-----0
  6
CONTINUOUS
  5
164
 10
446.280529
 20
175.742535
 30
0.0
 11
449.280529
 21
178.742535
 31
0.0
  0
LINE
  8
LC-003-005-----0
  6
CONTINUOUS
  5
165
 10
446.280529
 20
178.570962
 30
0.0
 11
449.280529
 21
181.570962
 31
0.0
  0
LINE
  8
LC-003-005-----0
  6
CONTINUOUS
  5
166
 10
446.280529
 20
181.399389
 30
0.0
 11
449.280529
 21
184.399389
 31
0.0
  0
LINE
  8
LC-003-005-----0
  6
CONTINUOUS
  5
167
 10
446.280529
 20
184.227816
 30
0.0
 11
449.280529
 21
187.227816
 31
0.0
  0
LINE
  8
LC-003-005-----0
  6
CONTINUOUS
  5
168
 10
446.280529
 20
187.056243
 30
0.0
 11
449.280529
 21
190.056243
 31
0.0
  0
LINE
  8
LC-003-005-----0
  6
CONTINUOUS
  5
169
 10
446.280529
 20
189.88467
 30
0.0
 11
449.280529
 21
192.88467
 31
0.0
  0
LINE
  8
LC-003-005-----0
  6
CONTINUOUS
  5
16A
 10
446.280529
 20
192.713097
 30
0.0
 11
449.280529
 21
195.713097
 31
0.0
  0
LINE
  8
LC-003-005-----0
  6
CONTINUOUS
  5
16B
 10
446.280529
 20
195.541525
 30
0.0
 11
449.280529
 21
198.541525
 31
0.0
  0
LINE
  8
LC-003-005-----0
  6
CONTINUOUS
  5
16C
 10
446.280529
 20
198.369952
 30
0.0
 11
449.280529
 21
201.369952
 31
0.0
  0
LINE
  8
LC-003-005-----0
  6
CONTINUOUS
  5
16D
 10
446.280529
 20
201.198379
 30
0.0
 11
449.280529
 21
204.198379
 31
0.0
  0
LINE
  8
LC-003-005-----0
  6
CONTINUOUS
  5
16E
 10
446.280529
 20
204.026806
 30
0.0
 11
449.280529
 21
207.026806
 31
0.0
  0
LINE
  8
LC-003-005-----0
  6
CONTINUOUS
  5
16F
 10
446.280529
 20
206.855233
 30
0.0
 11
449.280529
 21
209.855233
 31
0.0
  0
LINE
  8
LC-003-005-----0
  6
CONTINUOUS
  5
170
 10
446.280529
 20
209.68366
 30
0.0
 11
449.280529
 21
212.68366
 31
0.0
  0
LINE
  8
LC-003-005-----0
  6
CONTINUOUS
  5
171
 10
446.280529
 20
212.512087
 30
0.0
 11
449.280529
 21
215.512087
 31
0.0
  0
LINE
  8
LC-003-005-----0
  6
CONTINUOUS
  5
172
 10
446.280529
 20
215.340514
 30
0.0
 11
449.280529
 21
218.340514
 31
0.0
  0
LINE
  8
LC-003-005-----0
  6
CONTINUOUS
  5
173
 10
446.280529
 20
218.168942
 30
0.0
 11
449.280529
 21
221.168942
 31
0.0
  0
LINE
  8
LC-002-002-----0
  6
DASHDOT
 62
     2
  5
174
 10
324.280039
 20
352.443427
 30
0.0
 11
324.280039
 21
337.941724
 31
0.0
  0
LINE
  8
LC-003-005-----0
  6
CONTINUOUS
  5
175
 10
446.280529
 20
220.997369
 30
0.0
 11
449.280529
 21
223.997369
 31
0.0
  0
LINE
  8
LC-003-005-----0
  6
CONTINUOUS
  5
176
 10
446.280529
 20
223.825796
 30
0.0
 11
449.280529
 21
226.825796
 31
0.0
  0
LINE
  8
LC-003-005-----0
  6
CONTINUOUS
  5
177
 10
446.280529
 20
226.654223
 30
0.0
 11
449.280529
 21
229.654223
 31
0.0
  0
LINE
  8
LC-003-005-----0
  6
CONTINUOUS
  5
178
 10
446.280529
 20
229.48265
 30
0.0
 11
449.280529
 21
232.48265
 31
0.0
  0
LINE
  8
LC-003-005-----0
  6
CONTINUOUS
  5
179
 10
446.280529
 20
232.311077
 30
0.0
 11
449.280529
 21
235.311077
 31
0.0
  0
LINE
  8
LC-003-005-----0
  6
CONTINUOUS
  5
17A
 10
446.280529
 20
235.139504
 30
0.0
 11
449.280529
 21
238.139504
 31
0.0
  0
LINE
  8
LC-003-005-----0
  6
CONTINUOUS
  5
17B
 10
446.280529
 20
237.967931
 30
0.0
 11
449.280529
 21
240.967931
 31
0.0
  0
LINE
  8
LC-003-005-----0
  6
CONTINUOUS
  5
17C
 10
446.280529
 20
240.796359
 30
0.0
 11
449.280529
 21
243.796359
 31
0.0
  0
LINE
  8
LC-003-005-----0
  6
CONTINUOUS
  5
17D
 10
446.280529
 20
243.624786
 30
0.0
 11
449.280529
 21
246.624786
 31
0.0
  0
LINE
  8
LC-003-005-----0
  6
CONTINUOUS
  5
17E
 10
446.280529
 20
246.453213
 30
0.0
 11
449.280529
 21
249.453213
 31
0.0
  0
LINE
  8
LC-003-005-----0
  6
CONTINUOUS
  5
17F
 10
446.280529
 20
249.28164
 30
0.0
 11
449.280529
 21
252.28164
 31
0.0
  0
LINE
  8
LC-003-005-----0
  6
CONTINUOUS
  5
180
 10
446.280529
 20
252.110067
 30
0.0
 11
449.280529
 21
255.110067
 31
0.0
  0
LINE
  8
LC-003-005-----0
  6
CONTINUOUS
  5
181
 10
446.280529
 20
254.938494
 30
0.0
 11
449.280529
 21
257.938494
 31
0.0
  0
LINE
  8
LC-003-005-----0
  6
CONTINUOUS
  5
182
 10
446.280529
 20
257.766921
 30
0.0
 11
449.280529
 21
260.766921
 31
0.0
  0
LINE
  8
LC-003-005-----0
  6
CONTINUOUS
  5
183
 10
446.280529
 20
260.595348
 30
0.0
 11
449.280529
 21
263.595348
 31
0.0
  0
LINE
  8
LC-003-005-----0
  6
CONTINUOUS
  5
184
 10
446.280529
 20
263.423776
 30
0.0
 11
449.280529
 21
266.423776
 31
0.0
  0
LINE
  8
LC-003-005-----0
  6
CONTINUOUS
  5
185
 10
446.280529
 20
266.252203
 30
0.0
 11
449.280529
 21
269.252203
 31
0.0
  0
LINE
  8
LC-003-005-----0
  6
CONTINUOUS
  5
186
 10
446.280529
 20
269.08063
 30
0.0
 11
449.280529
 21
272.08063
 31
0.0
  0
LINE
  8
LC-003-005-----0
  6
CONTINUOUS
  5
187
 10
446.280529
 20
271.909057
 30
0.0
 11
449.280529
 21
274.909057
 31
0.0
  0
LINE
  8
LC-003-005-----0
  6
CONTINUOUS
  5
188
 10
446.280529
 20
274.737484
 30
0.0
 11
449.280529
 21
277.737484
 31
0.0
  0
LINE
  8
LC-003-005-----0
  6
CONTINUOUS
  5
189
 10
446.280529
 20
277.565911
 30
0.0
 11
449.280529
 21
280.565911
 31
0.0
  0
LINE
  8
LC-003-005-----0
  6
CONTINUOUS
  5
18A
 10
446.280529
 20
280.394338
 30
0.0
 11
449.280529
 21
283.394338
 31
0.0
  0
LINE
  8
LC-003-005-----0
  6
CONTINUOUS
  5
18B
 10
446.280529
 20
283.222765
 30
0.0
 11
449.280529
 21
286.222765
 31
0.0
  0
LINE
  8
LC-003-005-----0
  6
CONTINUOUS
  5
18C
 10
446.280529
 20
286.051193
 30
0.0
 11
449.280529
 21
289.051193
 31
0.0
  0
LINE
  8
LC-003-005-----0
  6
CONTINUOUS
  5
18D
 10
446.280529
 20
288.87962
 30
0.0
 11
449.280529
 21
291.87962
 31
0.0
  0
LINE
  8
LC-003-005-----0
  6
CONTINUOUS
  5
18E
 10
446.280529
 20
291.708047
 30
0.0
 11
449.280529
 21
294.708047
 31
0.0
  0
LINE
  8
LC-003-005-----0
  6
CONTINUOUS
  5
18F
 10
508.460607
 20
353.888125
 30
0.0
 11
509.280529
 21
354.708047
 31
0.0
  0
LINE
  8
LC-003-005-----0
  6
CONTINUOUS
  5
190
 10
446.280529
 20
294.536474
 30
0.0
 11
449.280529
 21
297.536474
 31
0.0
  0
LINE
  8
LC-003-005-----0
  6
CONTINUOUS
  5
191
 10
505.520328
 20
353.776273
 30
0.0
 11
508.625099
 21
356.881044
 31
0.0
  0
LINE
  8
LC-003-005-----0
  6
CONTINUOUS
  5
192
 10
446.280529
 20
297.364901
 30
0.0
 11
449.280529
 21
300.364901
 31
0.0
  0
LINE
  8
LC-003-005-----0
  6
CONTINUOUS
  5
193
 10
502.580049
 20
353.664421
 30
0.0
 11
506.284161
 21
357.368533
 31
0.0
  0
LINE
  8
LC-003-005-----0
  6
CONTINUOUS
  5
194
 10
446.280529
 20
300.193328
 30
0.0
 11
449.280529
 21
303.193328
 31
0.0
  0
LINE
  8
LC-003-005-----0
  6
CONTINUOUS
  5
195
 10
499.537013
 20
353.449813
 30
0.0
 11
503.358772
 21
357.271572
 31
0.0
  0
LINE
  8
LC-003-005-----0
  6
CONTINUOUS
  5
196
 10
446.280529
 20
303.021755
 30
0.0
 11
449.280529
 21
306.021755
 31
0.0
  0
LINE
  8
LC-003-005-----0
  6
CONTINUOUS
  5
197
 10
495.462648
 20
352.203875
 30
0.0
 11
500.433384
 21
357.17461
 31
0.0
  0
LINE
  8
LC-003-005-----0
  6
CONTINUOUS
  5
198
 10
446.280529
 20
305.850182
 30
0.0
 11
449.280529
 21
308.850182
 31
0.0
  0
LINE
  8
LC-003-005-----0
  6
CONTINUOUS
  5
199
 10
491.388284
 20
350.957938
 30
0.0
 11
496.700188
 21
356.269842
 31
0.0
  0
LINE
  8
LC-002-002-----0
  6
CONTINUOUS
  5
19A
 10
329.569204
 20
350.944118
 30
0.0
 11
329.280529
 21
351.444118
 31
0.0
  0
LINE
  8
LC-002-002-----0
  6
CONTINUOUS
  5
19B
 10
329.280529
 20
351.444118
 30
0.0
 11
328.991853
 21
350.944118
 31
0.0
  0
LINE
  8
LC-003-005-----0
  6
CONTINUOUS
  5
19C
 10
446.280529
 20
308.67861
 30
0.0
 11
449.280529
 21
311.67861
 31
0.0
  0
LINE
  8
LC-002-002-----0
  6
CONTINUOUS
  5
19D
 10
328.991853
 20
350.944118
 30
0.0
 11
328.280039
 21
350.944118
 31
0.0
  0
LINE
  8
LC-002-002-----0
  6
CONTINUOUS
  5
19E
 10
319.280529
 20
351.444118
 30
0.0
 11
318.991853
 21
350.944118
 31
0.0
  0
LINE
  8
LC-002-002-----0
  6
CONTINUOUS
  5
19F
 10
319.569204
 20
350.944118
 30
0.0
 11
319.280529
 21
351.444118
 31
0.0
  0
LINE
  8
LC-002-002-----0
  6
CONTINUOUS
  5
1A0
 10
318.991853
 20
350.944118
 30
0.0
 11
318.280529
 21
350.944118
 31
0.0
  0
LINE
  8
LC-002-002-----0
  6
CONTINUOUS
  5
1A1
 10
468.281018
 20
350.944118
 30
0.0
 11
468.991853
 21
350.944118
 31
0.0
  0
LINE
  8
LC-003-005-----0
  6
CONTINUOUS
  5
1A2
 10
487.313919
 20
349.712
 30
0.0
 11
492.626226
 21
355.024307
 31
0.0
  0
LINE
  8
LC-002-002-----0
  6
CONTINUOUS
  5
1A3
 10
321.780039
 20
337.943427
 30
0.0
 11
326.780039
 21
337.943427
 31
0.0
  0
LINE
  8
LC-003-005-----0
  6
CONTINUOUS
  5
1A4
 10
446.280529
 20
311.507037
 30
0.0
 11
449.280529
 21
314.507037
 31
0.0
  0
LINE
  8
LC-003-005-----0
  6
CONTINUOUS
  5
1A5
 10
483.239554
 20
348.466063
 30
0.0
 11
488.552264
 21
353.778772
 31
0.0
  0
LINE
  8
LC-003-005-----0
  6
CONTINUOUS
  5
1A6
 10
446.280529
 20
314.335464
 30
0.0
 11
449.280529
 21
317.335464
 31
0.0
  0
LINE
  8
LC-003-005-----0
  6
CONTINUOUS
  5
1A7
 10
469.387802
 20
337.442737
 30
0.0
 11
470.28105
 21
338.335986
 31
0.0
  0
LINE
  8
LC-003-005-----0
  6
CONTINUOUS
  5
1A8
 10
476.889183
 20
344.944118
 30
0.0
 11
484.478301
 21
352.533236
 31
0.0
  0
LINE
  8
LC-002-002-----0
  6
CONTINUOUS
  5
1A9
 10
454.280641
 20
340.444118
 30
0.0
 11
446.280529
 21
340.444118
 31
0.0
  0
LINE
  8
LC-003-005-----0
  6
CONTINUOUS
  5
1AA
 10
446.280529
 20
317.163891
 30
0.0
 11
449.280529
 21
320.163891
 31
0.0
  0
LINE
  8
LC-002-002-----0
  6
CONTINUOUS
  5
1AB
 10
449.280529
 20
337.443427
 30
0.0
 11
449.280529
 21
337.443427
 31
0.0
  0
LINE
  8
LC-003-005-----0
  6
CONTINUOUS
  5
1AC
 10
465.654903
 20
336.538265
 30
0.0
 11
470.28105
 21
341.164413
 31
0.0
  0
LINE
  8
LC-002-002-----0
  6
CONTINUOUS
  5
1AD
 10
446.280529
 20
340.444118
 30
0.0
 11
446.380529
 21
340.444118
 31
0.0
  0
LINE
  8
LC-002-002-----0
  6
CONTINUOUS
  5
1AE
 10
458.280529
 20
352.444118
 30
0.0
 11
458.280529
 21
350.944118
 31
0.0
  0
LINE
  8
LC-002-002-----0
  6
CONTINUOUS
  5
1AF
 10
470.280529
 20
350.944118
 30
0.0
 11
470.280529
 21
347.444118
 31
0.0
  0
LINE
  8
LC-002-002-----0
  6
CONTINUOUS
  5
1B0
 10
458.280529
 20
350.944118
 30
0.0
 11
458.991853
 21
350.944118
 31
0.0
  0
LINE
  8
LC-002-002-----0
  6
CONTINUOUS
  5
1B1
 10
470.28105
 20
347.444118
 30
0.0
 11
477.28105
 21
347.444118
 31
0.0
  0
LINE
  8
LC-002-002-----0
  6
CONTINUOUS
  5
1B2
 10
477.28105
 20
347.444118
 30
0.0
 11
477.28105
 21
350.944118
 31
0.0
  0
LINE
  8
LC-002-002-----0
  6
CONTINUOUS
  5
1B3
 10
470.28105
 20
344.944118
 30
0.0
 11
477.28105
 21
344.944118
 31
0.0
  0
LINE
  8
LC-002-002-----0
  6
CONTINUOUS
  5
1B4
 10
477.28105
 20
344.944118
 30
0.0
 11
479.729677
 21
347.392745
 31
0.0
  0
LINE
  8
LC-003-005-----0
  6
CONTINUOUS
  5
1B5
 10
474.060755
 20
344.944118
 30
0.0
 11
476.560755
 21
347.444118
 31
0.0
  0
LINE
  8
LC-003-005-----0
  6
CONTINUOUS
  5
1B6
 10
477.28105
 20
348.164413
 30
0.0
 11
480.404339
 21
351.287701
 31
0.0
  0
LINE
  8
LC-002-002-----0
  6
CONTINUOUS
  5
1B7
 10
455.280641
 20
352.444118
 30
0.0
 11
454.280641
 21
352.444118
 31
0.0
  0
LINE
  8
LC-003-005-----0
  6
CONTINUOUS
  5
1B8
 10
446.280529
 20
319.992318
 30
0.0
 11
449.280529
 21
322.992318
 31
0.0
  0
LINE
  8
LC-003-005-----0
  6
CONTINUOUS
  5
1B9
 10
462.836526
 20
336.548315
 30
0.0
 11
464.231638
 21
337.943427
 31
0.0
  0
LINE
  8
LC-003-005-----0
  6
CONTINUOUS
  5
1BA
 10
466.781018
 20
340.492808
 30
0.0
 11
470.28105
 21
343.99284
 31
0.0
  0
LINE
  8
LC-003-005-----0
  6
CONTINUOUS
  5
1BB
 10
471.232328
 20
344.944118
 30
0.0
 11
473.732328
 21
347.444118
 31
0.0
  0
LINE
  8
LC-003-005-----0
  6
CONTINUOUS
  5
1BC
 10
446.280529
 20
322.820745
 30
0.0
 11
449.280529
 21
325.820745
 31
0.0
  0
LINE
  8
LC-003-005-----0
  6
CONTINUOUS
  5
1BD
 10
460.603845
 20
337.144061
 30
0.0
 11
461.781018
 21
338.321235
 31
0.0
  0
LINE
  8
LC-003-005-----0
  6
CONTINUOUS
  5
1BE
 10
466.781018
 20
343.321235
 30
0.0
 11
470.903901
 21
347.444118
 31
0.0
  0
LINE
  8
LC-003-005-----0
  6
CONTINUOUS
  5
1BF
 10
446.280529
 20
325.649172
 30
0.0
 11
449.280529
 21
328.649172
 31
0.0
  0
LINE
  8
LC-003-005-----0
  6
CONTINUOUS
  5
1C0
 10
458.074093
 20
337.442737
 30
0.0
 11
461.781018
 21
341.149662
 31
0.0
  0
LINE
  8
LC-003-005-----0
  6
CONTINUOUS
  5
1C1
 10
466.781018
 20
346.149662
 30
0.0
 11
470.280529
 21
349.649172
 31
0.0
  0
LINE
  8
LC-003-005-----0
  6
CONTINUOUS
  5
1C2
 10
446.280529
 20
328.477599
 30
0.0
 11
449.280529
 21
331.477599
 31
0.0
  0
LINE
  8
LC-003-005-----0
  6
CONTINUOUS
  5
1C3
 10
455.245666
 20
337.442737
 30
0.0
 11
461.781018
 21
343.978089
 31
0.0
  0
LINE
  8
LC-003-005-----0
  6
CONTINUOUS
  5
1C4
 10
466.781018
 20
348.978089
 30
0.0
 11
468.747047
 21
350.944118
 31
0.0
  0
LINE
  8
LC-003-005-----0
  6
CONTINUOUS
  5
1C5
 10
446.280529
 20
331.306027
 30
0.0
 11
449.280529
 21
334.306027
 31
0.0
  0
LINE
  8
LC-003-005-----0
  6
CONTINUOUS
  5
1C6
 10
452.417239
 20
337.442737
 30
0.0
 11
461.781018
 21
346.806516
 31
0.0
  0
LINE
  8
LC-003-005-----0
  6
CONTINUOUS
  5
1C7
 10
466.781018
 20
351.806516
 30
0.0
 11
467.417929
 21
352.443427
 31
0.0
  0
LINE
  8
LC-003-005-----0
  6
CONTINUOUS
  5
1C8
 10
446.280529
 20
334.134454
 30
0.0
 11
449.280529
 21
337.134454
 31
0.0
  0
LINE
  8
LC-003-005-----0
  6
CONTINUOUS
  5
1C9
 10
449.588812
 20
337.442737
 30
0.0
 11
452.590193
 21
340.444118
 31
0.0
  0
LINE
  8
LC-003-005-----0
  6
CONTINUOUS
  5
1CA
 10
454.280641
 20
342.134566
 30
0.0
 11
461.781018
 21
349.634943
 31
0.0
  0
LINE
  8
LC-002-002-----0
  6
CONTINUOUS
  5
1CB
 10
326.780039
 20
352.443427
 30
0.0
 11
326.780039
 21
337.943427
 31
0.0
  0
LINE
  8
LC-002-002-----0
  6
CONTINUOUS
  5
1CC
 10
321.780039
 20
352.443427
 30
0.0
 11
321.780039
 21
337.943427
 31
0.0
  0
LINE
  8
LC-002-002-----0
  6
CONTINUOUS
  5
1CD
 10
318.280007
 20
344.944118
 30
0.0
 11
318.280007
 21
337.442737
 31
0.0
  0
LINE
  8
LC-002-002-----0
  6
CONTINUOUS
  5
1CE
 10
330.280529
 20
352.444118
 30
0.0
 11
333.280416
 21
352.444118
 31
0.0
  0
LINE
  8
LC-002-002-----0
  6
CONTINUOUS
  5
1CF
 10
318.280529
 20
350.944118
 30
0.0
 11
309.280529
 21
350.944118
 31
0.0
  0
LINE
  8
LC-003-005-----0
  6
CONTINUOUS
  5
1D0
 10
446.280529
 20
336.962881
 30
0.0
 11
449.761766
 21
340.444118
 31
0.0
  0
LINE
  8
LC-002-002-----0
  6
CONTINUOUS
  5
1D1
 10
458.991853
 20
350.944118
 30
0.0
 11
459.280529
 21
351.444118
 31
0.0
  0
LINE
  8
LC-002-002-----0
  6
CONTINUOUS
  5
1D2
 10
459.280529
 20
351.444118
 30
0.0
 11
459.569204
 21
350.944118
 31
0.0
  0
LINE
  8
LC-002-002-----0
  6
CONTINUOUS
  5
1D3
 10
459.569204
 20
350.944118
 30
0.0
 11
460.281018
 21
350.944118
 31
0.0
  0
LINE
  8
LC-002-002-----0
  6
CONTINUOUS
  5
1D4
 10
459.922099
 20
337.443447
 30
0.0
 11
449.280538
 21
337.443471
 31
0.0
  0
LINE
  8
LC-003-005-----0
  6
CONTINUOUS
  5
1D5
 10
454.280641
 20
344.962993
 30
0.0
 11
460.261766
 21
350.944118
 31
0.0
  0
LINE
  8
LC-003-005-----0
  6
CONTINUOUS
  5
1D6
 10
460.281018
 20
350.96337
 30
0.0
 11
461.761075
 21
352.443427
 31
0.0
  0
LINE
  8
LC-003-005-----0
  6
CONTINUOUS
  5
1D7
 10
446.280529
 20
339.791308
 30
0.0
 11
446.933338
 21
340.444118
 31
0.0
  0
LINE
  8
LC-003-005-----0
  6
CONTINUOUS
  5
1D8
 10
454.280641
 20
347.79142
 30
0.0
 11
458.280529
 21
351.791308
 31
0.0
  0
LINE
  8
LC-003-005-----0
  6
CONTINUOUS
  5
1D9
 10
454.280641
 20
350.619847
 30
0.0
 11
456.104117
 21
352.443324
 31
0.0
  0
LINE
  8
LC-002-002-----0
  6
CONTINUOUS
  5
1DA
 10
334.280416
 20
352.444118
 30
0.0
 11
334.280416
 21
340.444118
 31
0.0
  0
LINE
  8
LC-002-002-----0
  6
CONTINUOUS
  5
1DB
 10
469.280529
 20
351.444118
 30
0.0
 11
469.569204
 21
350.944118
 31
0.0
  0
LINE
  8
LC-002-002-----0
  6
CONTINUOUS
  5
1DC
 10
468.991853
 20
350.944118
 30
0.0
 11
469.280529
 21
351.444118
 31
0.0
  0
LINE
  8
LC-002-002-----0
  6
CONTINUOUS
  5
1DD
 10
469.569204
 20
350.944118
 30
0.0
 11
470.280529
 21
350.944118
 31
0.0
  0
LINE
  8
LC-002-002-----0
  6
CONTINUOUS
  5
1DE
 10
466.781018
 20
337.943427
 30
0.0
 11
461.781018
 21
337.943427
 31
0.0
  0
LINE
  8
LC-002-002-----0
  6
CONTINUOUS
  5
1DF
 10
461.781018
 20
352.443427
 30
0.0
 11
461.781018
 21
337.943427
 31
0.0
  0
LINE
  8
LC-002-002-----0
  6
CONTINUOUS
  5
1E0
 10
466.781018
 20
352.443427
 30
0.0
 11
466.781018
 21
337.943427
 31
0.0
  0
LINE
  8
LC-002-002-----0
  6
CONTINUOUS
  5
1E1
 10
470.28105
 20
344.944118
 30
0.0
 11
470.28105
 21
337.442737
 31
0.0
  0
LINE
  8
LC-002-002-----0
  6
CONTINUOUS
  5
1E2
 10
458.280529
 20
352.444118
 30
0.0
 11
457.280641
 21
352.444118
 31
0.0
  0
LINE
  8
LC-002-002-----0
  6
CONTINUOUS
  5
1E3
 10
470.280529
 20
350.944118
 30
0.0
 11
479.280529
 21
350.944118
 31
0.0
  0
LINE
  8
LC-002-002-----0
  6
CONTINUOUS
  5
1E4
 10
454.280641
 20
352.444118
 30
0.0
 11
454.280641
 21
340.444118
 31
0.0
  0
LINE
  8
LC-002-002-----0
  6
CONTINUOUS
  5
1E5
 10
455.280641
 20
352.444118
 30
0.0
 11
457.280641
 21
352.444118
 31
0.0
  0
LINE
  8
LC-003-005-----0
  6
CONTINUOUS
  5
1E6
 10
-108.93267
 20
117.466967
 30
0.0
 11
-106.957479
 21
119.442158
 31
0.0
  0
ENDSEC
  0
EOF
