  0
SECTION
  2
HEADER
  9
$ACADVER
  1
AC1009
  9
$INSBASE
 10
0.0
 20
0.0
 30
0.0
  9
$EXTMIN
 10
0.0
 20
0.0
 30
0.0
  9
$EXTMAX
 10
840.0
 20
594.0
 30
0.0
  9
$LIMMIN
 10
0.0
 20
0.0
  9
$LIMMAX
 10
840.0
 20
594.0
  9
$ORTHOMODE
 70
     0
  9
$REGENMODE
 70
     1
  9
$FILLMODE
 70
     1
  9
$QTEXTMODE
 70
     0
  9
$MIRRTEXT
 70
     1
  9
$DRAGMODE
 70
     2
  9
$LTSCALE
 40
2.0
  9
$OSMODE
 70
     0
  9
$ATTMODE
 70
     1
  9
$TEXTSIZE
 40
0.2
  9
$TRACEWID
 40
0.05
  9
$TEXTSTYLE
  7
STANDARD
  9
$CLAYER
  8
0
  9
$CELTYPE
  6
BYLAYER
  9
$CECOLOR
 62
     7
  9
$DIMSCALE
 40
2.0
  9
$DIMASZ
 40
3.5
  9
$DIMEXO
 40
0.0625
  9
$DIMDLI
 40
0.38
  9
$DIMRND
 40
0.0
  9
$DIMDLE
 40
0.0
  9
$DIMEXE
 40
0.18
  9
$DIMTP
 40
0.0
  9
$DIMTM
 40
0.0
  9
$DIMTXT
 40
3.5
  9
$DIMCEN
 40
0.09
  9
$DIMTSZ
 40
0.0
  9
$DIMTOL
 70
     0
  9
$DIMLIM
 70
     0
  9
$DIMTIH
 70
     1
  9
$DIMTOH
 70
     1
  9
$DIMSE1
 70
     0
  9
$DIMSE2
 70
     0
  9
$DIMTAD
 70
     1
  9
$DIMZIN
 70
     0
  9
$DIMBLK
  1

  9
$DIMASO
 70
     1
  9
$DIMSHO
 70
     1
  9
$DIMPOST
  1

  9
$DIMAPOST
  1

  9
$DIMALT
 70
     0
  9
$DIMALTD
 70
     2
  9
$DIMALTF
 40
25.4
  9
$DIMLFAC
 40
1.0
  9
$DIMTOFL
 70
     0
  9
$DIMTVP
 40
0.0
  9
$DIMTIX
 70
     0
  9
$DIMSOXD
 70
     0
  9
$DIMSAH
 70
     0
  9
$DIMBLK1
  1

  9
$DIMBLK2
  1

  9
$DIMSTYLE
  2
STANDARD
  9
$DIMCLRD
 70
     0
  9
$DIMCLRE
 70
     0
  9
$DIMCLRT
 70
     0
  9
$DIMTFAC
 40
1.0
  9
$DIMGAP
 40
0.09
  9
$LUNITS
 70
     2
  9
$LUPREC
 70
     2
  9
$AXISMODE
 70
     0
  9
$AXISUNIT
 10
0.0
 20
0.0
  9
$SKETCHINC
 40
0.1
  9
$FILLETRAD
 40
0.0
  9
$AUNITS
 70
     0
  9
$AUPREC
 70
     0
  9
$MENU
  1
acad
  9
$ELEVATION
 40
0.0
  9
$PELEVATION
 40
0.0
  9
$THICKNESS
 40
0.0
  9
$LIMCHECK
 70
     0
  9
$BLIPMODE
 70
     1
  9
$CHAMFERA
 40
0.0
  9
$CHAMFERB
 40
0.0
  9
$SKPOLY
 70
     0
  9
$TDCREATE
 40
0.000000000
  9
$TDUPDATE
 40
0.000000000
  9
$TDINDWG
 40
0.0000000000
  9
$TDUSRTIMER
 40
0.0000000000
  9
$USRTIMER
 70
     1
  9
$ANGBASE
 50
0.0
  9
$ANGDIR
 70
     0
  9
$PDMODE
 70
     0
  9
$PDSIZE
 40
0.0
  9
$PLINEWID
 40
0.0
  9
$COORDS
 70
     0
  9
$SPLFRAME
 70
     0
  9
$SPLINETYPE
 70
     6
  9
$SPLINESEGS
 70
     8
  9
$ATTDIA
 70
     0
  9
$ATTREQ
 70
     1
  9
$HANDLING
 70
     1
  9
$HANDSEED
  5
633
  9
$SURFTAB1
 70
     6
  9
$SURFTAB2
 70
     6
  9
$SURFTYPE
 70
     6
  9
$SURFU
 70
     6
  9
$SURFV
 70
     6
  9
$UCSNAME
  2

  9
$UCSORG
 10
0.0
 20
0.0
 30
0.0
  9
$UCSXDIR
 10
1.0
 20
0.0
 30
0.0
  9
$UCSYDIR
 10
0.0
 20
1.0
 30
0.0
  9
$PUCSNAME
  2

  9
$PUCSORG
 10
0.0
 20
0.0
 30
0.0
  9
$PUCSXDIR
 10
1.0
 20
0.0
 30
0.0
  9
$PUCSYDIR
 10
0.0
 20
1.0
 30
0.0
  9
$USERI1
 70
     0
  9
$USERI2
 70
     0
  9
$USERI3
 70
     0
  9
$USERI4
 70
     0
  9
$USERI5
 70
     0
  9
$USERR1
 40
0.0
  9
$USERR2
 40
0.0
  9
$USERR3
 40
0.0
  9
$USERR4
 40
0.0
  9
$USERR5
 40
0.0
  9
$WORLDVIEW
 70
     1
  9
$SHADEDGE
 70
     3
  9
$SHADEDIF
 70
    70
  9
$TILEMODE
 70
     1
  9
$MAXACTVP
 70
    16
  9
$PINSBASE
 10
0.0
 20
0.0
 30
0.0
  9
$PLIMCHECK
 70
     0
  9
$PEXTMIN
 10
1.000000E+20
 20
1.000000E+20
 30
1.000000E+20
  9
$PEXTMAX
 10
-1.000000E+20
 20
-1.000000E+20
 30
-1.000000E+20
  9
$PLIMMIN
 10
0.0
 20
0.0
  9
$PLIMMAX
 10
840.0
 20
594.0
  9
$UNITMODE
 70
     0
  9
$VISRETAIN
 70
     0
  9
$PLINEGEN
 70
     1
  9
$PSLTSCALE
 70
     0
  9
$TREEDEPTH
 70
  3020
  9
$DWGCODEPAGE
  3
dos850
  0
ENDSEC
  0
SECTION
  2
TABLES
  0
TABLE
  2
VPORT
 70
     1
  0
VPORT
  2
*ACTIVE
 70
     0
 10
0.0
 20
0.0
 11
1.0
 21
1.0
 12
420.0
 22
297.0
 13
0.0
 23
0.0
 14
1.0
 24
1.0
 15
0.0
 25
0.0
 16
0.0
 26
0.0
 36
1.0
 17
0.0
 27
0.0
 37
0.0
 40
594.0
 41
1.604229
 42
50.0
 43
0.0
 44
0.0
 50
0.0
 51
0.0
 71
     0
 72
   100
 73
     1
 74
     1
 75
     0
 76
     0
 77
     0
 78
     0
  0
ENDTAB
  0
TABLE
  2
LTYPE
 70
     2
  0
LTYPE
  2
CONTINUOUS
 70
    64
  3
Solid line
 72
    65
 73
     0
 40
0.0
  0
LTYPE
  2
DASHDOT
 70
    64
  3
__ . __ . __ . __ . __
 72
    65
 73
     4
 40
7.5
 49
5.0
 49
-1.25
 49
0.0
 49
-1.25
  0
ENDTAB
  0
TABLE
  2
LAYER
 70
    11
  0
LAYER
  2
0
 70
     0
 62
     7
  6
CONTINUOUS
  0
LAYER
  2
LC-INFO-1-2-MM-A3-0
 70
     1
 62
    -1
  6
CONTINUOUS
  0
LAYER
  2
LC-003-003-MTH-0
 70
     0
 62
     2
  6
CONTINUOUS
  0
LAYER
  2
LC-004-003-MTG-0
 70
     0
 62
     2
  6
CONTINUOUS
  0
LAYER
  2
LC-002-003-----0
 70
     0
 62
     2
  6
CONTINUOUS
  0
LAYER
  2
LC-006-005-----0
 70
     0
 62
     2
  6
CONTINUOUS
  0
LAYER
  2
LC-005-000-----0
 70
     0
 62
     7
  6
CONTINUOUS
  0
LAYER
  2
LC-001-002-----0
 70
     0
 62
     1
  6
CONTINUOUS
  0
LAYER
  2
LC-007-002-RND-0
 70
     0
 62
     1
  6
CONTINUOUS
  0
LAYER
  2
LC-008-004-----0
 70
     0
 62
     1
  6
CONTINUOUS
  0
LAYER
  2
LC-000
 70
     0
 62
     7
  6
CONTINUOUS
  0
ENDTAB
  0
TABLE
  2
STYLE
 70
     4
  0
STYLE
  2
STANDARD
 70
     0
 40
0.0
 41
1.0
 50
0.0
 71
     0
 42
0.0
  3
txt
  4

  0
STYLE
  2
LC-STANDARD
 70
    64
 40
0.0
 41
1.0
 50
0.0
 71
     0
 42
3.5
  3
MONOTXT
  4

  0
STYLE
  2
LC-TXTSTYLE-150-400-0-0-D2
 70
    64
 40
0.0
 41
1.0
 50
15.0
 71
     0
 42
3.5
  3
MONOTXT
  4

  0
STYLE
  2
LC-TXTSTYLE-150-400-0-0-D3
 70
    64
 40
0.0
 41
1.0
 50
15.0
 71
     0
 42
3.5
  3
LC-STANDARD
  4

  0
ENDTAB
  0
TABLE
  2
VIEW
 70
     0
  0
ENDTAB
  0
TABLE
  2
UCS
 70
     0
  0
ENDTAB
  0
TABLE
  2
APPID
 70
     1
  0
APPID
  2
ACAD
 70
     0
  0
ENDTAB
  0
TABLE
  2
DIMSTYLE
 70
     3
  0
DIMSTYLE
  2
STANDARD
 70
     0
  3

  4

  5

  6

  7

 40
1.0
 41
0.18
 42
0.0625
 43
0.38
 44
0.18
 45
0.0
 46
0.0
 47
0.0
 48
0.0
 71
     0
 72
     0
 73
     1
 74
     1
 75
     0
 76
     0
 77
     0
 78
     0
140
0.18
141
0.09
142
0.0
143
25.4
144
1.0
145
0.0
146
1.0
147
0.09
170
     0
171
     2
172
     0
173
     0
174
     0
175
     0
176
     0
177
     0
178
     0
  0
DIMSTYLE
  2
LC-STANDARD
 70
     0
  3

  4

  5

  6

  7

 40
1.0
 41
3.5
 42
0.0
 43
7.5
 44
1.8
 45
0.0
 46
0.0
 47
0.0
 48
0.0
 71
     0
 72
     0
 73
     0
 74
     0
 75
     0
 76
     0
 77
     1
 78
     8
140
3.5
141
0.0
142
0.0
143
25.4
144
1.0
145
0.0
146
0.71
147
1.5
170
     0
171
     2
172
     1
173
     0
174
     0
175
     0
176
     0
177
     0
178
     3
  0
DIMSTYLE
  2
LC-DIM-L-0090-02-02
 70
     0
  3

  4

  5

  6

  7

 40
2.0
 41
3.5
 42
0.0
 43
7.5
 44
1.8
 45
0.0
 46
0.0
 47
0.0
 48
0.0
 71
     0
 72
     0
 73
     0
 74
     0
 75
     0
 76
     0
 77
     1
 78
     8
140
9.0
141
0.0
142
0.0
143
25.4
144
1.0
145
0.0
146
0.71
147
1.5
170
     0
171
     2
172
     0
173
     0
174
     0
175
     0
176
     2
177
     2
178
     6
  0
ENDTAB
  0
ENDSEC
  0
SECTION
  2
BLOCKS
  0
BLOCK
  8
0
  5
23
  2
*D0
 70
    65
 10
0.0
 20
0.0
 30
0.0
  3
*D0
  0
LINE
  8
LC-003-003-MTH-0
  6
CONTINUOUS
  5
25
 10
310.959586
 20
241.316971
 30
0.0
 11
374.8
 21
241.316971
 31
0.0
  0
LINE
  8
LC-003-003-MTH-0
  6
CONTINUOUS
  5
26
 10
364.960108
 20
441.317658
 30
0.0
 11
353.2
 21
441.317658
 31
0.0
  0
LINE
  8
LC-004-003-MTG-0
  6
CONTINUOUS
  5
28
 10
364.0
 20
241.316971
 30
0.0
 11
364.0
 21
441.317658
 31
0.0
  0
LINE
  8
LC-002-003-----0
  6
CONTINUOUS
  5
2A
 10
361.650529
 20
259.162978
 30
0.0
 11
364.0
 21
241.316971
 31
0.0
  0
LINE
  8
LC-002-003-----0
  6
CONTINUOUS
  5
2B
 10
364.0
 20
241.316971
 30
0.0
 11
366.349471
 21
259.162978
 31
0.0
  0
LINE
  8
LC-002-003-----0
  6
CONTINUOUS
  5
2C
 10
366.349471
 20
259.162978
 30
0.0
 11
361.650529
 21
259.162978
 31
0.0
  0
LINE
  8
LC-002-003-----0
  6
CONTINUOUS
  5
2D
 10
362.261391
 20
259.203016
 30
0.0
 11
364.0
 21
245.996971
 31
0.0
  0
LINE
  8
LC-002-003-----0
  6
CONTINUOUS
  5
2E
 10
364.0
 20
245.996971
 30
0.0
 11
365.738609
 21
259.203016
 31
0.0
  0
LINE
  8
LC-002-003-----0
  6
CONTINUOUS
  5
2F
 10
362.872254
 20
259.243054
 30
0.0
 11
364.0
 21
250.676971
 31
0.0
  0
LINE
  8
LC-002-003-----0
  6
CONTINUOUS
  5
30
 10
364.0
 20
250.676971
 30
0.0
 11
365.127746
 21
259.243054
 31
0.0
  0
LINE
  8
LC-002-003-----0
  6
CONTINUOUS
  5
31
 10
363.483116
 20
259.283092
 30
0.0
 11
364.0
 21
255.356971
 31
0.0
  0
LINE
  8
LC-002-003-----0
  6
CONTINUOUS
  5
32
 10
364.0
 20
255.356971
 30
0.0
 11
364.516884
 21
259.283092
 31
0.0
  0
LINE
  8
LC-002-003-----0
  6
CONTINUOUS
  5
33
 10
366.349471
 20
423.471651
 30
0.0
 11
364.0
 21
441.317658
 31
0.0
  0
LINE
  8
LC-002-003-----0
  6
CONTINUOUS
  5
34
 10
364.0
 20
441.317658
 30
0.0
 11
361.650529
 21
423.471651
 31
0.0
  0
LINE
  8
LC-002-003-----0
  6
CONTINUOUS
  5
35
 10
361.650529
 20
423.471651
 30
0.0
 11
366.349471
 21
423.471651
 31
0.0
  0
LINE
  8
LC-002-003-----0
  6
CONTINUOUS
  5
36
 10
365.738609
 20
423.431613
 30
0.0
 11
364.0
 21
436.637658
 31
0.0
  0
LINE
  8
LC-002-003-----0
  6
CONTINUOUS
  5
37
 10
364.0
 20
436.637658
 30
0.0
 11
362.261391
 21
423.431613
 31
0.0
  0
LINE
  8
LC-002-003-----0
  6
CONTINUOUS
  5
38
 10
365.127746
 20
423.391574
 30
0.0
 11
364.0
 21
431.957658
 31
0.0
  0
LINE
  8
LC-002-003-----0
  6
CONTINUOUS
  5
39
 10
364.0
 20
431.957658
 30
0.0
 11
362.872254
 21
423.391574
 31
0.0
  0
LINE
  8
LC-002-003-----0
  6
CONTINUOUS
  5
3A
 10
364.516884
 20
423.351536
 30
0.0
 11
364.0
 21
427.277658
 31
0.0
  0
LINE
  8
LC-002-003-----0
  6
CONTINUOUS
  5
3B
 10
364.0
 20
427.277658
 30
0.0
 11
363.483116
 21
423.351536
 31
0.0
  0
TEXT
  8
LC-002-003-----0
  6
CONTINUOUS
 62
     6
  5
3D
 10
353.568001
 20
324.978702
 30
0.0
 40
18.0
  1
200
 50
90.0
 41
0.9
 51
15.0
  7
LC-TXTSTYLE-150-400-0-0-D0
 72
     1
 11
353.568001
 21
344.11256
 31
0.0
  0
ENDBLK
  8
0
  5
3E
  0
BLOCK
  8
0
  5
40
  2
*D1
 70
    65
 10
0.0
 20
0.0
 30
0.0
  3
*D1
  0
LINE
  8
LC-003-003-MTH-0
  6
CONTINUOUS
  5
41
 10
263.959586
 20
244.816971
 30
0.0
 11
263.959586
 21
185.2
 31
0.0
  0
LINE
  8
LC-003-003-MTH-0
  6
CONTINUOUS
  5
42
 10
313.959586
 20
244.816971
 30
0.0
 11
313.959586
 21
185.2
 31
0.0
  0
LINE
  8
LC-002-003-----0
  6
CONTINUOUS
  5
43
 10
246.113578
 20
193.650529
 30
0.0
 11
263.959586
 21
196.0
 31
0.0
  0
LINE
  8
LC-002-003-----0
  6
CONTINUOUS
  5
44
 10
263.959586
 20
196.0
 30
0.0
 11
246.113578
 21
198.349471
 31
0.0
  0
LINE
  8
LC-002-003-----0
  6
CONTINUOUS
  5
45
 10
246.113578
 20
198.349471
 30
0.0
 11
246.113578
 21
193.650529
 31
0.0
  0
LINE
  8
LC-002-003-----0
  6
CONTINUOUS
  5
46
 10
246.07354
 20
194.261391
 30
0.0
 11
259.279586
 21
196.0
 31
0.0
  0
LINE
  8
LC-002-003-----0
  6
CONTINUOUS
  5
47
 10
259.279586
 20
196.0
 30
0.0
 11
246.07354
 21
197.738609
 31
0.0
  0
LINE
  8
LC-002-003-----0
  6
CONTINUOUS
  5
48
 10
246.033502
 20
194.872254
 30
0.0
 11
254.599586
 21
196.0
 31
0.0
  0
LINE
  8
LC-002-003-----0
  6
CONTINUOUS
  5
49
 10
254.599586
 20
196.0
 30
0.0
 11
246.033502
 21
197.127746
 31
0.0
  0
LINE
  8
LC-002-003-----0
  6
CONTINUOUS
  5
4A
 10
245.993464
 20
195.483116
 30
0.0
 11
249.919586
 21
196.0
 31
0.0
  0
LINE
  8
LC-002-003-----0
  6
CONTINUOUS
  5
4B
 10
249.919586
 20
196.0
 30
0.0
 11
245.993464
 21
196.516884
 31
0.0
  0
LINE
  8
LC-002-003-----0
  6
CONTINUOUS
  5
4C
 10
331.805593
 20
198.349471
 30
0.0
 11
313.959586
 21
196.0
 31
0.0
  0
LINE
  8
LC-002-003-----0
  6
CONTINUOUS
  5
4D
 10
313.959586
 20
196.0
 30
0.0
 11
331.805593
 21
193.650529
 31
0.0
  0
LINE
  8
LC-002-003-----0
  6
CONTINUOUS
  5
4E
 10
331.805593
 20
193.650529
 30
0.0
 11
331.805593
 21
198.349471
 31
0.0
  0
LINE
  8
LC-002-003-----0
  6
CONTINUOUS
  5
4F
 10
331.845631
 20
197.738609
 30
0.0
 11
318.639586
 21
196.0
 31
0.0
  0
LINE
  8
LC-002-003-----0
  6
CONTINUOUS
  5
50
 10
318.639586
 20
196.0
 30
0.0
 11
331.845631
 21
194.261391
 31
0.0
  0
LINE
  8
LC-002-003-----0
  6
CONTINUOUS
  5
51
 10
331.885669
 20
197.127746
 30
0.0
 11
323.319586
 21
196.0
 31
0.0
  0
LINE
  8
LC-002-003-----0
  6
CONTINUOUS
  5
52
 10
323.319586
 20
196.0
 30
0.0
 11
331.885669
 21
194.872254
 31
0.0
  0
LINE
  8
LC-002-003-----0
  6
CONTINUOUS
  5
53
 10
331.925707
 20
196.516884
 30
0.0
 11
327.999586
 21
196.0
 31
0.0
  0
LINE
  8
LC-002-003-----0
  6
CONTINUOUS
  5
54
 10
327.999586
 20
196.0
 30
0.0
 11
331.925707
 21
195.483116
 31
0.0
  0
LINE
  8
LC-004-003-MTG-0
  6
CONTINUOUS
  5
55
 10
238.759586
 20
196.0
 30
0.0
 11
404.362106
 21
196.0
 31
0.0
  0
TEXT
  8
LC-002-003-----0
  6
CONTINUOUS
 62
     6
  5
56
 10
341.234832
 20
206.431999
 30
0.0
 40
18.0
  1
DN50
 51
15.0
  7
LC-TXTSTYLE-150-400-0-0-D0
  0
ENDBLK
  8
0
  5
57
  0
BLOCK
  8
0
  5
59
  2
BLK1
 70
    64
 10
0.0
 20
0.0
 30
0.0
  3
BLK1
  0
ENDBLK
  8
0
  5
5A
  0
BLOCK
  8
0
  5
5C
  2
BLK2
 70
    64
 10
0.0
 20
0.0
 30
0.0
  3
BLK2
  0
ENDBLK
  8
0
  5
5D
  0
BLOCK
  8
0
  5
5F
  2
BLK3
 70
    64
 10
0.0
 20
0.0
 30
0.0
  3
BLK3
  0
ENDBLK
  8
0
  5
60
  0
BLOCK
  8
0
  5
62
  2
*X5
 70
    65
 10
88.959586
 20
461.348185
 30
0.0
  3
*X5
  0
LINE
  8
LC-006-005-----0
  6
CONTINUOUS
  5
64
 10
91.107074
 20
461.348185
 30
0.0
 11
91.209096
 21
461.450207
 31
0.0
  0
LINE
  8
LC-006-005-----0
  6
CONTINUOUS
  5
65
 10
90.824231
 20
461.348185
 30
0.0
 11
91.209096
 21
461.73305
 31
0.0
  0
LINE
  8
LC-006-005-----0
  6
CONTINUOUS
  5
66
 10
90.541388
 20
461.348185
 30
0.0
 11
91.209096
 21
462.015892
 31
0.0
  0
LINE
  8
LC-006-005-----0
  6
CONTINUOUS
  5
67
 10
90.258546
 20
461.348185
 30
0.0
 11
91.209096
 21
462.298735
 31
0.0
  0
LINE
  8
LC-006-005-----0
  6
CONTINUOUS
  5
68
 10
89.975703
 20
461.348185
 30
0.0
 11
91.209096
 21
462.581578
 31
0.0
  0
LINE
  8
LC-006-005-----0
  6
CONTINUOUS
  5
69
 10
89.69286
 20
461.348185
 30
0.0
 11
91.209096
 21
462.864421
 31
0.0
  0
LINE
  8
LC-006-005-----0
  6
CONTINUOUS
  5
6A
 10
89.410018
 20
461.348185
 30
0.0
 11
91.209096
 21
463.147263
 31
0.0
  0
LINE
  8
LC-006-005-----0
  6
CONTINUOUS
  5
6B
 10
89.127175
 20
461.348185
 30
0.0
 11
91.209096
 21
463.430106
 31
0.0
  0
LINE
  8
LC-006-005-----0
  6
CONTINUOUS
  5
6C
 10
88.959586
 20
461.463438
 30
0.0
 11
91.209096
 21
463.712949
 31
0.0
  0
LINE
  8
LC-006-005-----0
  6
CONTINUOUS
  5
6D
 10
88.959586
 20
461.746281
 30
0.0
 11
91.209096
 21
463.995791
 31
0.0
  0
LINE
  8
LC-006-005-----0
  6
CONTINUOUS
  5
6E
 10
88.959586
 20
462.029124
 30
0.0
 11
91.209096
 21
464.278634
 31
0.0
  0
LINE
  8
LC-006-005-----0
  6
CONTINUOUS
  5
6F
 10
88.959586
 20
462.311966
 30
0.0
 11
90.995804
 21
464.348185
 31
0.0
  0
LINE
  8
LC-006-005-----0
  6
CONTINUOUS
  5
70
 10
88.959586
 20
462.594809
 30
0.0
 11
90.712961
 21
464.348185
 31
0.0
  0
LINE
  8
LC-006-005-----0
  6
CONTINUOUS
  5
71
 10
88.959586
 20
462.877652
 30
0.0
 11
90.430119
 21
464.348185
 31
0.0
  0
LINE
  8
LC-006-005-----0
  6
CONTINUOUS
  5
72
 10
88.959586
 20
463.160494
 30
0.0
 11
90.147276
 21
464.348185
 31
0.0
  0
LINE
  8
LC-006-005-----0
  6
CONTINUOUS
  5
73
 10
88.959586
 20
463.443337
 30
0.0
 11
89.864433
 21
464.348185
 31
0.0
  0
LINE
  8
LC-006-005-----0
  6
CONTINUOUS
  5
74
 10
88.959586
 20
463.72618
 30
0.0
 11
89.581591
 21
464.348185
 31
0.0
  0
LINE
  8
LC-006-005-----0
  6
CONTINUOUS
  5
75
 10
88.959586
 20
464.009023
 30
0.0
 11
89.298748
 21
464.348185
 31
0.0
  0
LINE
  8
LC-006-005-----0
  6
CONTINUOUS
  5
76
 10
88.959586
 20
464.291865
 30
0.0
 11
89.015905
 21
464.348185
 31
0.0
  0
ENDBLK
  8
0
  5
77
  0
BLOCK
  8
0
  5
79
  2
*X6
 70
    65
 10
96.209096
 20
461.348185
 30
0.0
  3
*X6
  0
LINE
  8
LC-006-005-----0
  6
CONTINUOUS
  5
7A
 10
101.006569
 20
461.348185
 30
0.0
 11
101.209096
 21
461.550712
 31
0.0
  0
LINE
  8
LC-006-005-----0
  6
CONTINUOUS
  5
7B
 10
100.723726
 20
461.348185
 30
0.0
 11
101.209096
 21
461.833555
 31
0.0
  0
LINE
  8
LC-006-005-----0
  6
CONTINUOUS
  5
7C
 10
100.440883
 20
461.348185
 30
0.0
 11
101.209096
 21
462.116398
 31
0.0
  0
LINE
  8
LC-006-005-----0
  6
CONTINUOUS
  5
7D
 10
100.158041
 20
461.348185
 30
0.0
 11
101.209096
 21
462.39924
 31
0.0
  0
LINE
  8
LC-006-005-----0
  6
CONTINUOUS
  5
7E
 10
99.875198
 20
461.348185
 30
0.0
 11
101.209096
 21
462.682083
 31
0.0
  0
LINE
  8
LC-006-005-----0
  6
CONTINUOUS
  5
7F
 10
99.592355
 20
461.348185
 30
0.0
 11
101.209096
 21
462.964926
 31
0.0
  0
LINE
  8
LC-006-005-----0
  6
CONTINUOUS
  5
80
 10
99.309513
 20
461.348185
 30
0.0
 11
101.209096
 21
463.247768
 31
0.0
  0
LINE
  8
LC-006-005-----0
  6
CONTINUOUS
  5
81
 10
99.02667
 20
461.348185
 30
0.0
 11
101.209096
 21
463.530611
 31
0.0
  0
LINE
  8
LC-006-005-----0
  6
CONTINUOUS
  5
82
 10
98.743827
 20
461.348185
 30
0.0
 11
101.209096
 21
463.813454
 31
0.0
  0
LINE
  8
LC-006-005-----0
  6
CONTINUOUS
  5
83
 10
98.460984
 20
461.348185
 30
0.0
 11
101.209096
 21
464.096297
 31
0.0
  0
LINE
  8
LC-006-005-----0
  6
CONTINUOUS
  5
84
 10
98.178142
 20
461.348185
 30
0.0
 11
101.178142
 21
464.348185
 31
0.0
  0
LINE
  8
LC-006-005-----0
  6
CONTINUOUS
  5
85
 10
97.895299
 20
461.348185
 30
0.0
 11
100.895299
 21
464.348185
 31
0.0
  0
LINE
  8
LC-006-005-----0
  6
CONTINUOUS
  5
86
 10
97.612456
 20
461.348185
 30
0.0
 11
100.612456
 21
464.348185
 31
0.0
  0
LINE
  8
LC-006-005-----0
  6
CONTINUOUS
  5
87
 10
97.329614
 20
461.348185
 30
0.0
 11
100.329614
 21
464.348185
 31
0.0
  0
LINE
  8
LC-006-005-----0
  6
CONTINUOUS
  5
88
 10
97.046771
 20
461.348185
 30
0.0
 11
100.046771
 21
464.348185
 31
0.0
  0
LINE
  8
LC-006-005-----0
  6
CONTINUOUS
  5
89
 10
96.763928
 20
461.348185
 30
0.0
 11
99.763928
 21
464.348185
 31
0.0
  0
LINE
  8
LC-006-005-----0
  6
CONTINUOUS
  5
8A
 10
96.481085
 20
461.348185
 30
0.0
 11
99.481085
 21
464.348185
 31
0.0
  0
LINE
  8
LC-006-005-----0
  6
CONTINUOUS
  5
8B
 10
96.209096
 20
461.359038
 30
0.0
 11
99.198243
 21
464.348185
 31
0.0
  0
LINE
  8
LC-006-005-----0
  6
CONTINUOUS
  5
8C
 10
96.209096
 20
461.641881
 30
0.0
 11
98.9154
 21
464.348185
 31
0.0
  0
LINE
  8
LC-006-005-----0
  6
CONTINUOUS
  5
8D
 10
96.209096
 20
461.924724
 30
0.0
 11
98.632557
 21
464.348185
 31
0.0
  0
LINE
  8
LC-006-005-----0
  6
CONTINUOUS
  5
8E
 10
96.209096
 20
462.207566
 30
0.0
 11
98.349715
 21
464.348185
 31
0.0
  0
LINE
  8
LC-006-005-----0
  6
CONTINUOUS
  5
8F
 10
96.209096
 20
462.490409
 30
0.0
 11
98.066872
 21
464.348185
 31
0.0
  0
LINE
  8
LC-006-005-----0
  6
CONTINUOUS
  5
90
 10
96.209096
 20
462.773252
 30
0.0
 11
97.784029
 21
464.348185
 31
0.0
  0
LINE
  8
LC-006-005-----0
  6
CONTINUOUS
  5
91
 10
96.209096
 20
463.056094
 30
0.0
 11
97.501186
 21
464.348185
 31
0.0
  0
LINE
  8
LC-006-005-----0
  6
CONTINUOUS
  5
92
 10
96.209096
 20
463.338937
 30
0.0
 11
97.218344
 21
464.348185
 31
0.0
  0
LINE
  8
LC-006-005-----0
  6
CONTINUOUS
  5
93
 10
96.209096
 20
463.62178
 30
0.0
 11
96.935501
 21
464.348185
 31
0.0
  0
LINE
  8
LC-006-005-----0
  6
CONTINUOUS
  5
94
 10
96.209096
 20
463.904623
 30
0.0
 11
96.652658
 21
464.348185
 31
0.0
  0
LINE
  8
LC-006-005-----0
  6
CONTINUOUS
  5
95
 10
96.209096
 20
464.187465
 30
0.0
 11
96.369816
 21
464.348185
 31
0.0
  0
ENDBLK
  8
0
  5
96
  0
BLOCK
  8
0
  5
98
  2
*X7
 70
    65
 10
106.209096
 20
461.348185
 30
0.0
  3
*X7
  0
LINE
  8
LC-006-005-----0
  6
CONTINUOUS
  5
99
 10
111.188906
 20
461.348185
 30
0.0
 11
111.209096
 21
461.368374
 31
0.0
  0
LINE
  8
LC-006-005-----0
  6
CONTINUOUS
  5
9A
 10
110.906064
 20
461.348185
 30
0.0
 11
111.209096
 21
461.651217
 31
0.0
  0
LINE
  8
LC-006-005-----0
  6
CONTINUOUS
  5
9B
 10
110.623221
 20
461.348185
 30
0.0
 11
111.209096
 21
461.93406
 31
0.0
  0
LINE
  8
LC-006-005-----0
  6
CONTINUOUS
  5
9C
 10
110.340378
 20
461.348185
 30
0.0
 11
111.209096
 21
462.216903
 31
0.0
  0
LINE
  8
LC-006-005-----0
  6
CONTINUOUS
  5
9D
 10
110.057536
 20
461.348185
 30
0.0
 11
111.209096
 21
462.499745
 31
0.0
  0
LINE
  8
LC-006-005-----0
  6
CONTINUOUS
  5
9E
 10
109.774693
 20
461.348185
 30
0.0
 11
111.209096
 21
462.782588
 31
0.0
  0
LINE
  8
LC-006-005-----0
  6
CONTINUOUS
  5
9F
 10
109.49185
 20
461.348185
 30
0.0
 11
111.209096
 21
463.065431
 31
0.0
  0
LINE
  8
LC-006-005-----0
  6
CONTINUOUS
  5
A0
 10
109.209008
 20
461.348185
 30
0.0
 11
111.209096
 21
463.348273
 31
0.0
  0
LINE
  8
LC-006-005-----0
  6
CONTINUOUS
  5
A1
 10
108.926165
 20
461.348185
 30
0.0
 11
111.209096
 21
463.631116
 31
0.0
  0
LINE
  8
LC-006-005-----0
  6
CONTINUOUS
  5
A2
 10
108.643322
 20
461.348185
 30
0.0
 11
111.209096
 21
463.913959
 31
0.0
  0
LINE
  8
LC-006-005-----0
  6
CONTINUOUS
  5
A3
 10
108.360479
 20
461.348185
 30
0.0
 11
111.209096
 21
464.196802
 31
0.0
  0
LINE
  8
LC-006-005-----0
  6
CONTINUOUS
  5
A4
 10
108.077637
 20
461.348185
 30
0.0
 11
111.077637
 21
464.348185
 31
0.0
  0
LINE
  8
LC-006-005-----0
  6
CONTINUOUS
  5
A5
 10
107.794794
 20
461.348185
 30
0.0
 11
110.794794
 21
464.348185
 31
0.0
  0
LINE
  8
LC-006-005-----0
  6
CONTINUOUS
  5
A6
 10
107.511951
 20
461.348185
 30
0.0
 11
110.511951
 21
464.348185
 31
0.0
  0
LINE
  8
LC-006-005-----0
  6
CONTINUOUS
  5
A7
 10
107.229109
 20
461.348185
 30
0.0
 11
110.229109
 21
464.348185
 31
0.0
  0
LINE
  8
LC-006-005-----0
  6
CONTINUOUS
  5
A8
 10
106.946266
 20
461.348185
 30
0.0
 11
109.946266
 21
464.348185
 31
0.0
  0
LINE
  8
LC-006-005-----0
  6
CONTINUOUS
  5
A9
 10
106.663423
 20
461.348185
 30
0.0
 11
109.663423
 21
464.348185
 31
0.0
  0
LINE
  8
LC-006-005-----0
  6
CONTINUOUS
  5
AA
 10
106.38058
 20
461.348185
 30
0.0
 11
109.38058
 21
464.348185
 31
0.0
  0
LINE
  8
LC-006-005-----0
  6
CONTINUOUS
  5
AB
 10
106.209096
 20
461.459543
 30
0.0
 11
109.097738
 21
464.348185
 31
0.0
  0
LINE
  8
LC-006-005-----0
  6
CONTINUOUS
  5
AC
 10
106.209096
 20
461.742386
 30
0.0
 11
108.814895
 21
464.348185
 31
0.0
  0
LINE
  8
LC-006-005-----0
  6
CONTINUOUS
  5
AD
 10
106.209096
 20
462.025229
 30
0.0
 11
108.532052
 21
464.348185
 31
0.0
  0
LINE
  8
LC-006-005-----0
  6
CONTINUOUS
  5
AE
 10
106.209096
 20
462.308071
 30
0.0
 11
108.24921
 21
464.348185
 31
0.0
  0
LINE
  8
LC-006-005-----0
  6
CONTINUOUS
  5
AF
 10
106.209096
 20
462.590914
 30
0.0
 11
107.966367
 21
464.348185
 31
0.0
  0
LINE
  8
LC-006-005-----0
  6
CONTINUOUS
  5
B0
 10
106.209096
 20
462.873757
 30
0.0
 11
107.683524
 21
464.348185
 31
0.0
  0
LINE
  8
LC-006-005-----0
  6
CONTINUOUS
  5
B1
 10
106.209096
 20
463.1566
 30
0.0
 11
107.400681
 21
464.348185
 31
0.0
  0
LINE
  8
LC-006-005-----0
  6
CONTINUOUS
  5
B2
 10
106.209096
 20
463.439442
 30
0.0
 11
107.117839
 21
464.348185
 31
0.0
  0
LINE
  8
LC-006-005-----0
  6
CONTINUOUS
  5
B3
 10
106.209096
 20
463.722285
 30
0.0
 11
106.834996
 21
464.348185
 31
0.0
  0
LINE
  8
LC-006-005-----0
  6
CONTINUOUS
  5
B4
 10
106.209096
 20
464.005128
 30
0.0
 11
106.552153
 21
464.348185
 31
0.0
  0
LINE
  8
LC-006-005-----0
  6
CONTINUOUS
  5
B5
 10
106.209096
 20
464.28797
 30
0.0
 11
106.269311
 21
464.348185
 31
0.0
  0
ENDBLK
  8
0
  5
B6
  0
BLOCK
  8
0
  5
B8
  2
*X8
 70
    65
 10
116.209096
 20
461.348185
 30
0.0
  3
*X8
  0
LINE
  8
LC-006-005-----0
  6
CONTINUOUS
  5
B9
 10
121.088401
 20
461.348185
 30
0.0
 11
121.209096
 21
461.46888
 31
0.0
  0
LINE
  8
LC-006-005-----0
  6
CONTINUOUS
  5
BA
 10
120.805559
 20
461.348185
 30
0.0
 11
121.209096
 21
461.751722
 31
0.0
  0
LINE
  8
LC-006-005-----0
  6
CONTINUOUS
  5
BB
 10
120.522716
 20
461.348185
 30
0.0
 11
121.209096
 21
462.034565
 31
0.0
  0
LINE
  8
LC-006-005-----0
  6
CONTINUOUS
  5
BC
 10
120.239873
 20
461.348185
 30
0.0
 11
121.209096
 21
462.317408
 31
0.0
  0
LINE
  8
LC-006-005-----0
  6
CONTINUOUS
  5
BD
 10
119.957031
 20
461.348185
 30
0.0
 11
121.209096
 21
462.60025
 31
0.0
  0
LINE
  8
LC-006-005-----0
  6
CONTINUOUS
  5
BE
 10
119.674188
 20
461.348185
 30
0.0
 11
121.209096
 21
462.883093
 31
0.0
  0
LINE
  8
LC-006-005-----0
  6
CONTINUOUS
  5
BF
 10
119.391345
 20
461.348185
 30
0.0
 11
121.209096
 21
463.165936
 31
0.0
  0
LINE
  8
LC-006-005-----0
  6
CONTINUOUS
  5
C0
 10
119.108502
 20
461.348185
 30
0.0
 11
121.209096
 21
463.448778
 31
0.0
  0
LINE
  8
LC-006-005-----0
  6
CONTINUOUS
  5
C1
 10
118.82566
 20
461.348185
 30
0.0
 11
121.209096
 21
463.731621
 31
0.0
  0
LINE
  8
LC-006-005-----0
  6
CONTINUOUS
  5
C2
 10
118.542817
 20
461.348185
 30
0.0
 11
121.209096
 21
464.014464
 31
0.0
  0
LINE
  8
LC-006-005-----0
  6
CONTINUOUS
  5
C3
 10
118.259974
 20
461.348185
 30
0.0
 11
121.209096
 21
464.297307
 31
0.0
  0
LINE
  8
LC-006-005-----0
  6
CONTINUOUS
  5
C4
 10
117.977132
 20
461.348185
 30
0.0
 11
120.977132
 21
464.348185
 31
0.0
  0
LINE
  8
LC-006-005-----0
  6
CONTINUOUS
  5
C5
 10
117.694289
 20
461.348185
 30
0.0
 11
120.694289
 21
464.348185
 31
0.0
  0
LINE
  8
LC-006-005-----0
  6
CONTINUOUS
  5
C6
 10
117.411446
 20
461.348185
 30
0.0
 11
120.411446
 21
464.348185
 31
0.0
  0
LINE
  8
LC-006-005-----0
  6
CONTINUOUS
  5
C7
 10
117.128603
 20
461.348185
 30
0.0
 11
120.128603
 21
464.348185
 31
0.0
  0
LINE
  8
LC-006-005-----0
  6
CONTINUOUS
  5
C8
 10
116.845761
 20
461.348185
 30
0.0
 11
119.845761
 21
464.348185
 31
0.0
  0
LINE
  8
LC-006-005-----0
  6
CONTINUOUS
  5
C9
 10
116.562918
 20
461.348185
 30
0.0
 11
119.562918
 21
464.348185
 31
0.0
  0
LINE
  8
LC-006-005-----0
  6
CONTINUOUS
  5
CA
 10
116.280075
 20
461.348185
 30
0.0
 11
119.280075
 21
464.348185
 31
0.0
  0
LINE
  8
LC-006-005-----0
  6
CONTINUOUS
  5
CB
 10
116.209096
 20
461.560048
 30
0.0
 11
118.997233
 21
464.348185
 31
0.0
  0
LINE
  8
LC-006-005-----0
  6
CONTINUOUS
  5
CC
 10
116.209096
 20
461.842891
 30
0.0
 11
118.71439
 21
464.348185
 31
0.0
  0
LINE
  8
LC-006-005-----0
  6
CONTINUOUS
  5
CD
 10
116.209096
 20
462.125734
 30
0.0
 11
118.431547
 21
464.348185
 31
0.0
  0
LINE
  8
LC-006-005-----0
  6
CONTINUOUS
  5
CE
 10
116.209096
 20
462.408576
 30
0.0
 11
118.148704
 21
464.348185
 31
0.0
  0
LINE
  8
LC-006-005-----0
  6
CONTINUOUS
  5
CF
 10
116.209096
 20
462.691419
 30
0.0
 11
117.865862
 21
464.348185
 31
0.0
  0
LINE
  8
LC-006-005-----0
  6
CONTINUOUS
  5
D0
 10
116.209096
 20
462.974262
 30
0.0
 11
117.583019
 21
464.348185
 31
0.0
  0
LINE
  8
LC-006-005-----0
  6
CONTINUOUS
  5
D1
 10
116.209096
 20
463.257105
 30
0.0
 11
117.300176
 21
464.348185
 31
0.0
  0
LINE
  8
LC-006-005-----0
  6
CONTINUOUS
  5
D2
 10
116.209096
 20
463.539947
 30
0.0
 11
117.017334
 21
464.348185
 31
0.0
  0
LINE
  8
LC-006-005-----0
  6
CONTINUOUS
  5
D3
 10
116.209096
 20
463.82279
 30
0.0
 11
116.734491
 21
464.348185
 31
0.0
  0
LINE
  8
LC-006-005-----0
  6
CONTINUOUS
  5
D4
 10
116.209096
 20
464.105633
 30
0.0
 11
116.451648
 21
464.348185
 31
0.0
  0
ENDBLK
  8
0
  5
D5
  0
BLOCK
  8
0
  5
D7
  2
*X9
 70
    65
 10
126.209096
 20
461.348185
 30
0.0
  3
*X9
  0
LINE
  8
LC-006-005-----0
  6
CONTINUOUS
  5
D8
 10
130.987896
 20
461.348185
 30
0.0
 11
131.209096
 21
461.569385
 31
0.0
  0
LINE
  8
LC-006-005-----0
  6
CONTINUOUS
  5
D9
 10
130.705054
 20
461.348185
 30
0.0
 11
131.209096
 21
461.852227
 31
0.0
  0
LINE
  8
LC-006-005-----0
  6
CONTINUOUS
  5
DA
 10
130.422211
 20
461.348185
 30
0.0
 11
131.209096
 21
462.13507
 31
0.0
  0
LINE
  8
LC-006-005-----0
  6
CONTINUOUS
  5
DB
 10
130.139368
 20
461.348185
 30
0.0
 11
131.209096
 21
462.417913
 31
0.0
  0
LINE
  8
LC-006-005-----0
  6
CONTINUOUS
  5
DC
 10
129.856526
 20
461.348185
 30
0.0
 11
131.209096
 21
462.700755
 31
0.0
  0
LINE
  8
LC-006-005-----0
  6
CONTINUOUS
  5
DD
 10
129.573683
 20
461.348185
 30
0.0
 11
131.209096
 21
462.983598
 31
0.0
  0
LINE
  8
LC-006-005-----0
  6
CONTINUOUS
  5
DE
 10
129.29084
 20
461.348185
 30
0.0
 11
131.209096
 21
463.266441
 31
0.0
  0
LINE
  8
LC-006-005-----0
  6
CONTINUOUS
  5
DF
 10
129.007997
 20
461.348185
 30
0.0
 11
131.209096
 21
463.549284
 31
0.0
  0
LINE
  8
LC-006-005-----0
  6
CONTINUOUS
  5
E0
 10
128.725155
 20
461.348185
 30
0.0
 11
131.209096
 21
463.832126
 31
0.0
  0
LINE
  8
LC-006-005-----0
  6
CONTINUOUS
  5
E1
 10
128.442312
 20
461.348185
 30
0.0
 11
131.209096
 21
464.114969
 31
0.0
  0
LINE
  8
LC-006-005-----0
  6
CONTINUOUS
  5
E2
 10
128.159469
 20
461.348185
 30
0.0
 11
131.159469
 21
464.348185
 31
0.0
  0
LINE
  8
LC-006-005-----0
  6
CONTINUOUS
  5
E3
 10
127.876627
 20
461.348185
 30
0.0
 11
130.876627
 21
464.348185
 31
0.0
  0
LINE
  8
LC-006-005-----0
  6
CONTINUOUS
  5
E4
 10
127.593784
 20
461.348185
 30
0.0
 11
130.593784
 21
464.348185
 31
0.0
  0
LINE
  8
LC-006-005-----0
  6
CONTINUOUS
  5
E5
 10
127.310941
 20
461.348185
 30
0.0
 11
130.310941
 21
464.348185
 31
0.0
  0
LINE
  8
LC-006-005-----0
  6
CONTINUOUS
  5
E6
 10
127.028098
 20
461.348185
 30
0.0
 11
130.028098
 21
464.348185
 31
0.0
  0
LINE
  8
LC-006-005-----0
  6
CONTINUOUS
  5
E7
 10
126.745256
 20
461.348185
 30
0.0
 11
129.745256
 21
464.348185
 31
0.0
  0
LINE
  8
LC-006-005-----0
  6
CONTINUOUS
  5
E8
 10
126.462413
 20
461.348185
 30
0.0
 11
129.462413
 21
464.348185
 31
0.0
  0
LINE
  8
LC-006-005-----0
  6
CONTINUOUS
  5
E9
 10
126.209096
 20
461.377711
 30
0.0
 11
129.17957
 21
464.348185
 31
0.0
  0
LINE
  8
LC-006-005-----0
  6
CONTINUOUS
  5
EA
 10
126.209096
 20
461.660553
 30
0.0
 11
128.896728
 21
464.348185
 31
0.0
  0
LINE
  8
LC-006-005-----0
  6
CONTINUOUS
  5
EB
 10
126.209096
 20
461.943396
 30
0.0
 11
128.613885
 21
464.348185
 31
0.0
  0
LINE
  8
LC-006-005-----0
  6
CONTINUOUS
  5
EC
 10
126.209096
 20
462.226239
 30
0.0
 11
128.331042
 21
464.348185
 31
0.0
  0
LINE
  8
LC-006-005-----0
  6
CONTINUOUS
  5
ED
 10
126.209096
 20
462.509082
 30
0.0
 11
128.048199
 21
464.348185
 31
0.0
  0
LINE
  8
LC-006-005-----0
  6
CONTINUOUS
  5
EE
 10
126.209096
 20
462.791924
 30
0.0
 11
127.765357
 21
464.348185
 31
0.0
  0
LINE
  8
LC-006-005-----0
  6
CONTINUOUS
  5
EF
 10
126.209096
 20
463.074767
 30
0.0
 11
127.482514
 21
464.348185
 31
0.0
  0
LINE
  8
LC-006-005-----0
  6
CONTINUOUS
  5
F0
 10
126.209096
 20
463.35761
 30
0.0
 11
127.199671
 21
464.348185
 31
0.0
  0
LINE
  8
LC-006-005-----0
  6
CONTINUOUS
  5
F1
 10
126.209096
 20
463.640452
 30
0.0
 11
126.916829
 21
464.348185
 31
0.0
  0
LINE
  8
LC-006-005-----0
  6
CONTINUOUS
  5
F2
 10
126.209096
 20
463.923295
 30
0.0
 11
126.633986
 21
464.348185
 31
0.0
  0
LINE
  8
LC-006-005-----0
  6
CONTINUOUS
  5
F3
 10
126.209096
 20
464.206138
 30
0.0
 11
126.351143
 21
464.348185
 31
0.0
  0
ENDBLK
  8
0
  5
F4
  0
BLOCK
  8
0
  5
F6
  2
*X10
 70
    65
 10
136.209096
 20
461.348185
 30
0.0
  3
*X10
  0
LINE
  8
LC-006-005-----0
  6
CONTINUOUS
  5
F7
 10
141.170234
 20
461.348185
 30
0.0
 11
141.209096
 21
461.387047
 31
0.0
  0
LINE
  8
LC-006-005-----0
  6
CONTINUOUS
  5
F8
 10
140.887391
 20
461.348185
 30
0.0
 11
141.209096
 21
461.66989
 31
0.0
  0
LINE
  8
LC-006-005-----0
  6
CONTINUOUS
  5
F9
 10
140.604549
 20
461.348185
 30
0.0
 11
141.209096
 21
461.952732
 31
0.0
  0
LINE
  8
LC-006-005-----0
  6
CONTINUOUS
  5
FA
 10
140.321706
 20
461.348185
 30
0.0
 11
141.209096
 21
462.235575
 31
0.0
  0
LINE
  8
LC-006-005-----0
  6
CONTINUOUS
  5
FB
 10
140.038863
 20
461.348185
 30
0.0
 11
141.209096
 21
462.518418
 31
0.0
  0
LINE
  8
LC-006-005-----0
  6
CONTINUOUS
  5
FC
 10
139.75602
 20
461.348185
 30
0.0
 11
141.209096
 21
462.80126
 31
0.0
  0
LINE
  8
LC-006-005-----0
  6
CONTINUOUS
  5
FD
 10
139.473178
 20
461.348185
 30
0.0
 11
141.209096
 21
463.084103
 31
0.0
  0
LINE
  8
LC-006-005-----0
  6
CONTINUOUS
  5
FE
 10
139.190335
 20
461.348185
 30
0.0
 11
141.209096
 21
463.366946
 31
0.0
  0
LINE
  8
LC-006-005-----0
  6
CONTINUOUS
  5
FF
 10
138.907492
 20
461.348185
 30
0.0
 11
141.209096
 21
463.649789
 31
0.0
  0
LINE
  8
LC-006-005-----0
  6
CONTINUOUS
  5
100
 10
138.62465
 20
461.348185
 30
0.0
 11
141.209096
 21
463.932631
 31
0.0
  0
LINE
  8
LC-006-005-----0
  6
CONTINUOUS
  5
101
 10
138.341807
 20
461.348185
 30
0.0
 11
141.209096
 21
464.215474
 31
0.0
  0
LINE
  8
LC-006-005-----0
  6
CONTINUOUS
  5
102
 10
138.058964
 20
461.348185
 30
0.0
 11
141.058964
 21
464.348185
 31
0.0
  0
LINE
  8
LC-006-005-----0
  6
CONTINUOUS
  5
103
 10
137.776121
 20
461.348185
 30
0.0
 11
140.776121
 21
464.348185
 31
0.0
  0
LINE
  8
LC-006-005-----0
  6
CONTINUOUS
  5
104
 10
137.493279
 20
461.348185
 30
0.0
 11
140.493279
 21
464.348185
 31
0.0
  0
LINE
  8
LC-006-005-----0
  6
CONTINUOUS
  5
105
 10
137.210436
 20
461.348185
 30
0.0
 11
140.210436
 21
464.348185
 31
0.0
  0
LINE
  8
LC-006-005-----0
  6
CONTINUOUS
  5
106
 10
136.927593
 20
461.348185
 30
0.0
 11
139.927593
 21
464.348185
 31
0.0
  0
LINE
  8
LC-006-005-----0
  6
CONTINUOUS
  5
107
 10
136.644751
 20
461.348185
 30
0.0
 11
139.644751
 21
464.348185
 31
0.0
  0
LINE
  8
LC-006-005-----0
  6
CONTINUOUS
  5
108
 10
136.361908
 20
461.348185
 30
0.0
 11
139.361908
 21
464.348185
 31
0.0
  0
LINE
  8
LC-006-005-----0
  6
CONTINUOUS
  5
109
 10
136.209096
 20
461.478216
 30
0.0
 11
139.079065
 21
464.348185
 31
0.0
  0
LINE
  8
LC-006-005-----0
  6
CONTINUOUS
  5
10A
 10
136.209096
 20
461.761058
 30
0.0
 11
138.796222
 21
464.348185
 31
0.0
  0
LINE
  8
LC-006-005-----0
  6
CONTINUOUS
  5
10B
 10
136.209096
 20
462.043901
 30
0.0
 11
138.51338
 21
464.348185
 31
0.0
  0
LINE
  8
LC-006-005-----0
  6
CONTINUOUS
  5
10C
 10
136.209096
 20
462.326744
 30
0.0
 11
138.230537
 21
464.348185
 31
0.0
  0
LINE
  8
LC-006-005-----0
  6
CONTINUOUS
  5
10D
 10
136.209096
 20
462.609587
 30
0.0
 11
137.947694
 21
464.348185
 31
0.0
  0
LINE
  8
LC-006-005-----0
  6
CONTINUOUS
  5
10E
 10
136.209096
 20
462.892429
 30
0.0
 11
137.664852
 21
464.348185
 31
0.0
  0
LINE
  8
LC-006-005-----0
  6
CONTINUOUS
  5
10F
 10
136.209096
 20
463.175272
 30
0.0
 11
137.382009
 21
464.348185
 31
0.0
  0
LINE
  8
LC-006-005-----0
  6
CONTINUOUS
  5
110
 10
136.209096
 20
463.458115
 30
0.0
 11
137.099166
 21
464.348185
 31
0.0
  0
LINE
  8
LC-006-005-----0
  6
CONTINUOUS
  5
111
 10
136.209096
 20
463.740957
 30
0.0
 11
136.816323
 21
464.348185
 31
0.0
  0
LINE
  8
LC-006-005-----0
  6
CONTINUOUS
  5
112
 10
136.209096
 20
464.0238
 30
0.0
 11
136.533481
 21
464.348185
 31
0.0
  0
LINE
  8
LC-006-005-----0
  6
CONTINUOUS
  5
113
 10
136.209096
 20
464.306643
 30
0.0
 11
136.250638
 21
464.348185
 31
0.0
  0
ENDBLK
  8
0
  5
114
  0
BLOCK
  8
0
  5
116
  2
*X11
 70
    65
 10
146.209096
 20
461.348185
 30
0.0
  3
*X11
  0
LINE
  8
LC-006-005-----0
  6
CONTINUOUS
  5
117
 10
151.069729
 20
461.348185
 30
0.0
 11
151.209096
 21
461.487552
 31
0.0
  0
LINE
  8
LC-006-005-----0
  6
CONTINUOUS
  5
118
 10
150.786886
 20
461.348185
 30
0.0
 11
151.209096
 21
461.770395
 31
0.0
  0
LINE
  8
LC-006-005-----0
  6
CONTINUOUS
  5
119
 10
150.504044
 20
461.348185
 30
0.0
 11
151.209096
 21
462.053237
 31
0.0
  0
LINE
  8
LC-006-005-----0
  6
CONTINUOUS
  5
11A
 10
150.221201
 20
461.348185
 30
0.0
 11
151.209096
 21
462.33608
 31
0.0
  0
LINE
  8
LC-006-005-----0
  6
CONTINUOUS
  5
11B
 10
149.938358
 20
461.348185
 30
0.0
 11
151.209096
 21
462.618923
 31
0.0
  0
LINE
  8
LC-006-005-----0
  6
CONTINUOUS
  5
11C
 10
149.655515
 20
461.348185
 30
0.0
 11
151.209096
 21
462.901766
 31
0.0
  0
LINE
  8
LC-006-005-----0
  6
CONTINUOUS
  5
11D
 10
149.372673
 20
461.348185
 30
0.0
 11
151.209096
 21
463.184608
 31
0.0
  0
LINE
  8
LC-006-005-----0
  6
CONTINUOUS
  5
11E
 10
149.08983
 20
461.348185
 30
0.0
 11
151.209096
 21
463.467451
 31
0.0
  0
LINE
  8
LC-006-005-----0
  6
CONTINUOUS
  5
11F
 10
148.806987
 20
461.348185
 30
0.0
 11
151.209096
 21
463.750294
 31
0.0
  0
LINE
  8
LC-006-005-----0
  6
CONTINUOUS
  5
120
 10
148.524145
 20
461.348185
 30
0.0
 11
151.209096
 21
464.033136
 31
0.0
  0
LINE
  8
LC-006-005-----0
  6
CONTINUOUS
  5
121
 10
148.241302
 20
461.348185
 30
0.0
 11
151.209096
 21
464.315979
 31
0.0
  0
LINE
  8
LC-006-005-----0
  6
CONTINUOUS
  5
122
 10
147.958459
 20
461.348185
 30
0.0
 11
150.958459
 21
464.348185
 31
0.0
  0
LINE
  8
LC-006-005-----0
  6
CONTINUOUS
  5
123
 10
147.675616
 20
461.348185
 30
0.0
 11
150.675616
 21
464.348185
 31
0.0
  0
LINE
  8
LC-006-005-----0
  6
CONTINUOUS
  5
124
 10
147.392774
 20
461.348185
 30
0.0
 11
150.392774
 21
464.348185
 31
0.0
  0
LINE
  8
LC-006-005-----0
  6
CONTINUOUS
  5
125
 10
147.109931
 20
461.348185
 30
0.0
 11
150.109931
 21
464.348185
 31
0.0
  0
LINE
  8
LC-006-005-----0
  6
CONTINUOUS
  5
126
 10
146.827088
 20
461.348185
 30
0.0
 11
149.827088
 21
464.348185
 31
0.0
  0
LINE
  8
LC-006-005-----0
  6
CONTINUOUS
  5
127
 10
146.544246
 20
461.348185
 30
0.0
 11
149.544246
 21
464.348185
 31
0.0
  0
LINE
  8
LC-006-005-----0
  6
CONTINUOUS
  5
128
 10
146.261403
 20
461.348185
 30
0.0
 11
149.261403
 21
464.348185
 31
0.0
  0
LINE
  8
LC-006-005-----0
  6
CONTINUOUS
  5
129
 10
146.209096
 20
461.578721
 30
0.0
 11
148.97856
 21
464.348185
 31
0.0
  0
LINE
  8
LC-006-005-----0
  6
CONTINUOUS
  5
12A
 10
146.209096
 20
461.861564
 30
0.0
 11
148.695717
 21
464.348185
 31
0.0
  0
LINE
  8
LC-006-005-----0
  6
CONTINUOUS
  5
12B
 10
146.209096
 20
462.144406
 30
0.0
 11
148.412875
 21
464.348185
 31
0.0
  0
LINE
  8
LC-006-005-----0
  6
CONTINUOUS
  5
12C
 10
146.209096
 20
462.427249
 30
0.0
 11
148.130032
 21
464.348185
 31
0.0
  0
LINE
  8
LC-006-005-----0
  6
CONTINUOUS
  5
12D
 10
146.209096
 20
462.710092
 30
0.0
 11
147.847189
 21
464.348185
 31
0.0
  0
LINE
  8
LC-006-005-----0
  6
CONTINUOUS
  5
12E
 10
146.209096
 20
462.992934
 30
0.0
 11
147.564347
 21
464.348185
 31
0.0
  0
LINE
  8
LC-006-005-----0
  6
CONTINUOUS
  5
12F
 10
146.209096
 20
463.275777
 30
0.0
 11
147.281504
 21
464.348185
 31
0.0
  0
LINE
  8
LC-006-005-----0
  6
CONTINUOUS
  5
130
 10
146.209096
 20
463.55862
 30
0.0
 11
146.998661
 21
464.348185
 31
0.0
  0
LINE
  8
LC-006-005-----0
  6
CONTINUOUS
  5
131
 10
146.209096
 20
463.841463
 30
0.0
 11
146.715818
 21
464.348185
 31
0.0
  0
LINE
  8
LC-006-005-----0
  6
CONTINUOUS
  5
132
 10
146.209096
 20
464.124305
 30
0.0
 11
146.432976
 21
464.348185
 31
0.0
  0
ENDBLK
  8
0
  5
133
  0
BLOCK
  8
0
  5
135
  2
*X12
 70
    65
 10
156.209096
 20
461.348185
 30
0.0
  3
*X12
  0
LINE
  8
LC-006-005-----0
  6
CONTINUOUS
  5
136
 10
160.969224
 20
461.348185
 30
0.0
 11
161.209096
 21
461.588057
 31
0.0
  0
LINE
  8
LC-006-005-----0
  6
CONTINUOUS
  5
137
 10
160.686381
 20
461.348185
 30
0.0
 11
161.209096
 21
461.8709
 31
0.0
  0
LINE
  8
LC-006-005-----0
  6
CONTINUOUS
  5
138
 10
160.403538
 20
461.348185
 30
0.0
 11
161.209096
 21
462.153742
 31
0.0
  0
LINE
  8
LC-006-005-----0
  6
CONTINUOUS
  5
139
 10
160.120696
 20
461.348185
 30
0.0
 11
161.209096
 21
462.436585
 31
0.0
  0
LINE
  8
LC-006-005-----0
  6
CONTINUOUS
  5
13A
 10
159.837853
 20
461.348185
 30
0.0
 11
161.209096
 21
462.719428
 31
0.0
  0
LINE
  8
LC-006-005-----0
  6
CONTINUOUS
  5
13B
 10
159.55501
 20
461.348185
 30
0.0
 11
161.209096
 21
463.002271
 31
0.0
  0
LINE
  8
LC-006-005-----0
  6
CONTINUOUS
  5
13C
 10
159.272168
 20
461.348185
 30
0.0
 11
161.209096
 21
463.285113
 31
0.0
  0
LINE
  8
LC-006-005-----0
  6
CONTINUOUS
  5
13D
 10
158.989325
 20
461.348185
 30
0.0
 11
161.209096
 21
463.567956
 31
0.0
  0
LINE
  8
LC-006-005-----0
  6
CONTINUOUS
  5
13E
 10
158.706482
 20
461.348185
 30
0.0
 11
161.209096
 21
463.850799
 31
0.0
  0
LINE
  8
LC-006-005-----0
  6
CONTINUOUS
  5
13F
 10
158.423639
 20
461.348185
 30
0.0
 11
161.209096
 21
464.133641
 31
0.0
  0
LINE
  8
LC-006-005-----0
  6
CONTINUOUS
  5
140
 10
158.140797
 20
461.348185
 30
0.0
 11
161.140797
 21
464.348185
 31
0.0
  0
LINE
  8
LC-006-005-----0
  6
CONTINUOUS
  5
141
 10
157.857954
 20
461.348185
 30
0.0
 11
160.857954
 21
464.348185
 31
0.0
  0
LINE
  8
LC-006-005-----0
  6
CONTINUOUS
  5
142
 10
157.575111
 20
461.348185
 30
0.0
 11
160.575111
 21
464.348185
 31
0.0
  0
LINE
  8
LC-006-005-----0
  6
CONTINUOUS
  5
143
 10
157.292269
 20
461.348185
 30
0.0
 11
160.292269
 21
464.348185
 31
0.0
  0
LINE
  8
LC-006-005-----0
  6
CONTINUOUS
  5
144
 10
157.009426
 20
461.348185
 30
0.0
 11
160.009426
 21
464.348185
 31
0.0
  0
LINE
  8
LC-006-005-----0
  6
CONTINUOUS
  5
145
 10
156.726583
 20
461.348185
 30
0.0
 11
159.726583
 21
464.348185
 31
0.0
  0
LINE
  8
LC-006-005-----0
  6
CONTINUOUS
  5
146
 10
156.44374
 20
461.348185
 30
0.0
 11
159.44374
 21
464.348185
 31
0.0
  0
LINE
  8
LC-006-005-----0
  6
CONTINUOUS
  5
147
 10
156.209096
 20
461.396383
 30
0.0
 11
159.160898
 21
464.348185
 31
0.0
  0
LINE
  8
LC-006-005-----0
  6
CONTINUOUS
  5
148
 10
156.209096
 20
461.679226
 30
0.0
 11
158.878055
 21
464.348185
 31
0.0
  0
LINE
  8
LC-006-005-----0
  6
CONTINUOUS
  5
149
 10
156.209096
 20
461.962069
 30
0.0
 11
158.595212
 21
464.348185
 31
0.0
  0
LINE
  8
LC-006-005-----0
  6
CONTINUOUS
  5
14A
 10
156.209096
 20
462.244911
 30
0.0
 11
158.31237
 21
464.348185
 31
0.0
  0
LINE
  8
LC-006-005-----0
  6
CONTINUOUS
  5
14B
 10
156.209096
 20
462.527754
 30
0.0
 11
158.029527
 21
464.348185
 31
0.0
  0
LINE
  8
LC-006-005-----0
  6
CONTINUOUS
  5
14C
 10
156.209096
 20
462.810597
 30
0.0
 11
157.746684
 21
464.348185
 31
0.0
  0
LINE
  8
LC-006-005-----0
  6
CONTINUOUS
  5
14D
 10
156.209096
 20
463.093439
 30
0.0
 11
157.463842
 21
464.348185
 31
0.0
  0
LINE
  8
LC-006-005-----0
  6
CONTINUOUS
  5
14E
 10
156.209096
 20
463.376282
 30
0.0
 11
157.180999
 21
464.348185
 31
0.0
  0
LINE
  8
LC-006-005-----0
  6
CONTINUOUS
  5
14F
 10
156.209096
 20
463.659125
 30
0.0
 11
156.898156
 21
464.348185
 31
0.0
  0
LINE
  8
LC-006-005-----0
  6
CONTINUOUS
  5
150
 10
156.209096
 20
463.941968
 30
0.0
 11
156.615313
 21
464.348185
 31
0.0
  0
LINE
  8
LC-006-005-----0
  6
CONTINUOUS
  5
151
 10
156.209096
 20
464.22481
 30
0.0
 11
156.332471
 21
464.348185
 31
0.0
  0
ENDBLK
  8
0
  5
152
  0
BLOCK
  8
0
  5
154
  2
*X13
 70
    65
 10
166.209096
 20
461.348185
 30
0.0
  3
*X13
  0
LINE
  8
LC-006-005-----0
  6
CONTINUOUS
  5
155
 10
171.151562
 20
461.348185
 30
0.0
 11
171.209096
 21
461.405719
 31
0.0
  0
LINE
  8
LC-006-005-----0
  6
CONTINUOUS
  5
156
 10
170.868719
 20
461.348185
 30
0.0
 11
171.209096
 21
461.688562
 31
0.0
  0
LINE
  8
LC-006-005-----0
  6
CONTINUOUS
  5
157
 10
170.585876
 20
461.348185
 30
0.0
 11
171.209096
 21
461.971405
 31
0.0
  0
LINE
  8
LC-006-005-----0
  6
CONTINUOUS
  5
158
 10
170.303033
 20
461.348185
 30
0.0
 11
171.209096
 21
462.254248
 31
0.0
  0
LINE
  8
LC-006-005-----0
  6
CONTINUOUS
  5
159
 10
170.020191
 20
461.348185
 30
0.0
 11
171.209096
 21
462.53709
 31
0.0
  0
LINE
  8
LC-006-005-----0
  6
CONTINUOUS
  5
15A
 10
169.737348
 20
461.348185
 30
0.0
 11
171.209096
 21
462.819933
 31
0.0
  0
LINE
  8
LC-006-005-----0
  6
CONTINUOUS
  5
15B
 10
169.454505
 20
461.348185
 30
0.0
 11
171.209096
 21
463.102776
 31
0.0
  0
LINE
  8
LC-006-005-----0
  6
CONTINUOUS
  5
15C
 10
169.171663
 20
461.348185
 30
0.0
 11
171.209096
 21
463.385618
 31
0.0
  0
LINE
  8
LC-006-005-----0
  6
CONTINUOUS
  5
15D
 10
168.88882
 20
461.348185
 30
0.0
 11
171.209096
 21
463.668461
 31
0.0
  0
LINE
  8
LC-006-005-----0
  6
CONTINUOUS
  5
15E
 10
168.605977
 20
461.348185
 30
0.0
 11
171.209096
 21
463.951304
 31
0.0
  0
LINE
  8
LC-006-005-----0
  6
CONTINUOUS
  5
15F
 10
168.323134
 20
461.348185
 30
0.0
 11
171.209096
 21
464.234147
 31
0.0
  0
LINE
  8
LC-006-005-----0
  6
CONTINUOUS
  5
160
 10
168.040292
 20
461.348185
 30
0.0
 11
171.040292
 21
464.348185
 31
0.0
  0
LINE
  8
LC-006-005-----0
  6
CONTINUOUS
  5
161
 10
167.757449
 20
461.348185
 30
0.0
 11
170.757449
 21
464.348185
 31
0.0
  0
LINE
  8
LC-006-005-----0
  6
CONTINUOUS
  5
162
 10
167.474606
 20
461.348185
 30
0.0
 11
170.474606
 21
464.348185
 31
0.0
  0
LINE
  8
LC-006-005-----0
  6
CONTINUOUS
  5
163
 10
167.191764
 20
461.348185
 30
0.0
 11
170.191764
 21
464.348185
 31
0.0
  0
LINE
  8
LC-006-005-----0
  6
CONTINUOUS
  5
164
 10
166.908921
 20
461.348185
 30
0.0
 11
169.908921
 21
464.348185
 31
0.0
  0
LINE
  8
LC-006-005-----0
  6
CONTINUOUS
  5
165
 10
166.626078
 20
461.348185
 30
0.0
 11
169.626078
 21
464.348185
 31
0.0
  0
LINE
  8
LC-006-005-----0
  6
CONTINUOUS
  5
166
 10
166.343235
 20
461.348185
 30
0.0
 11
169.343235
 21
464.348185
 31
0.0
  0
LINE
  8
LC-006-005-----0
  6
CONTINUOUS
  5
167
 10
166.209096
 20
461.496888
 30
0.0
 11
169.060393
 21
464.348185
 31
0.0
  0
LINE
  8
LC-006-005-----0
  6
CONTINUOUS
  5
168
 10
166.209096
 20
461.779731
 30
0.0
 11
168.77755
 21
464.348185
 31
0.0
  0
LINE
  8
LC-006-005-----0
  6
CONTINUOUS
  5
169
 10
166.209096
 20
462.062574
 30
0.0
 11
168.494707
 21
464.348185
 31
0.0
  0
LINE
  8
LC-006-005-----0
  6
CONTINUOUS
  5
16A
 10
166.209096
 20
462.345416
 30
0.0
 11
168.211865
 21
464.348185
 31
0.0
  0
LINE
  8
LC-006-005-----0
  6
CONTINUOUS
  5
16B
 10
166.209096
 20
462.628259
 30
0.0
 11
167.929022
 21
464.348185
 31
0.0
  0
LINE
  8
LC-006-005-----0
  6
CONTINUOUS
  5
16C
 10
166.209096
 20
462.911102
 30
0.0
 11
167.646179
 21
464.348185
 31
0.0
  0
LINE
  8
LC-006-005-----0
  6
CONTINUOUS
  5
16D
 10
166.209096
 20
463.193944
 30
0.0
 11
167.363336
 21
464.348185
 31
0.0
  0
LINE
  8
LC-006-005-----0
  6
CONTINUOUS
  5
16E
 10
166.209096
 20
463.476787
 30
0.0
 11
167.080494
 21
464.348185
 31
0.0
  0
LINE
  8
LC-006-005-----0
  6
CONTINUOUS
  5
16F
 10
166.209096
 20
463.75963
 30
0.0
 11
166.797651
 21
464.348185
 31
0.0
  0
LINE
  8
LC-006-005-----0
  6
CONTINUOUS
  5
170
 10
166.209096
 20
464.042473
 30
0.0
 11
166.514808
 21
464.348185
 31
0.0
  0
LINE
  8
LC-006-005-----0
  6
CONTINUOUS
  5
171
 10
166.209096
 20
464.325315
 30
0.0
 11
166.231966
 21
464.348185
 31
0.0
  0
ENDBLK
  8
0
  5
172
  0
BLOCK
  8
0
  5
174
  2
*X14
 70
    65
 10
186.209096
 20
458.7521
 30
0.0
  3
*X14
  0
LINE
  8
LC-006-005-----0
  6
CONTINUOUS
  5
175
 10
191.189029
 20
458.758235
 30
0.0
 11
191.209096
 21
458.778302
 31
0.0
  0
LINE
  8
LC-006-005-----0
  6
CONTINUOUS
  5
176
 10
190.972413
 20
458.824461
 30
0.0
 11
191.209096
 21
459.061145
 31
0.0
  0
LINE
  8
LC-006-005-----0
  6
CONTINUOUS
  5
177
 10
190.755796
 20
458.890688
 30
0.0
 11
191.209096
 21
459.343988
 31
0.0
  0
LINE
  8
LC-006-005-----0
  6
CONTINUOUS
  5
178
 10
190.53918
 20
458.956914
 30
0.0
 11
191.209096
 21
459.626831
 31
0.0
  0
LINE
  8
LC-006-005-----0
  6
CONTINUOUS
  5
179
 10
190.322564
 20
459.02314
 30
0.0
 11
191.209096
 21
459.909673
 31
0.0
  0
LINE
  8
LC-006-005-----0
  6
CONTINUOUS
  5
17A
 10
190.105947
 20
459.089367
 30
0.0
 11
191.209096
 21
460.192516
 31
0.0
  0
LINE
  8
LC-006-005-----0
  6
CONTINUOUS
  5
17B
 10
189.889331
 20
459.155593
 30
0.0
 11
191.209096
 21
460.475359
 31
0.0
  0
LINE
  8
LC-006-005-----0
  6
CONTINUOUS
  5
17C
 10
189.672714
 20
459.221819
 30
0.0
 11
191.209096
 21
460.758201
 31
0.0
  0
LINE
  8
LC-006-005-----0
  6
CONTINUOUS
  5
17D
 10
189.456098
 20
459.288046
 30
0.0
 11
191.209096
 21
461.041044
 31
0.0
  0
LINE
  8
LC-006-005-----0
  6
CONTINUOUS
  5
17E
 10
189.239481
 20
459.354272
 30
0.0
 11
191.209096
 21
461.323887
 31
0.0
  0
LINE
  8
LC-006-005-----0
  6
CONTINUOUS
  5
17F
 10
189.022865
 20
459.420498
 30
0.0
 11
191.209096
 21
461.60673
 31
0.0
  0
LINE
  8
LC-006-005-----0
  6
CONTINUOUS
  5
180
 10
188.806249
 20
459.486724
 30
0.0
 11
191.208792
 21
461.889268
 31
0.0
  0
LINE
  8
LC-006-005-----0
  6
CONTINUOUS
  5
181
 10
188.589632
 20
459.552951
 30
0.0
 11
190.992176
 21
461.955495
 31
0.0
  0
LINE
  8
LC-006-005-----0
  6
CONTINUOUS
  5
182
 10
188.373016
 20
459.619177
 30
0.0
 11
190.77556
 21
462.021721
 31
0.0
  0
LINE
  8
LC-006-005-----0
  6
CONTINUOUS
  5
183
 10
188.156399
 20
459.685403
 30
0.0
 11
190.558943
 21
462.087947
 31
0.0
  0
LINE
  8
LC-006-005-----0
  6
CONTINUOUS
  5
184
 10
187.939783
 20
459.75163
 30
0.0
 11
190.342327
 21
462.154173
 31
0.0
  0
LINE
  8
LC-006-005-----0
  6
CONTINUOUS
  5
185
 10
187.723166
 20
459.817856
 30
0.0
 11
190.12571
 21
462.2204
 31
0.0
  0
LINE
  8
LC-006-005-----0
  6
CONTINUOUS
  5
186
 10
187.50655
 20
459.884082
 30
0.0
 11
189.909094
 21
462.286626
 31
0.0
  0
LINE
  8
LC-006-005-----0
  6
CONTINUOUS
  5
187
 10
187.289934
 20
459.950308
 30
0.0
 11
189.692477
 21
462.352852
 31
0.0
  0
LINE
  8
LC-006-005-----0
  6
CONTINUOUS
  5
188
 10
187.073317
 20
460.016535
 30
0.0
 11
189.475861
 21
462.419079
 31
0.0
  0
LINE
  8
LC-006-005-----0
  6
CONTINUOUS
  5
189
 10
186.856701
 20
460.082761
 30
0.0
 11
189.259245
 21
462.485305
 31
0.0
  0
LINE
  8
LC-006-005-----0
  6
CONTINUOUS
  5
18A
 10
186.640084
 20
460.148987
 30
0.0
 11
189.042628
 21
462.551531
 31
0.0
  0
LINE
  8
LC-006-005-----0
  6
CONTINUOUS
  5
18B
 10
186.423468
 20
460.215214
 30
0.0
 11
188.826012
 21
462.617757
 31
0.0
  0
LINE
  8
LC-006-005-----0
  6
CONTINUOUS
  5
18C
 10
186.209096
 20
460.283685
 30
0.0
 11
188.609395
 21
462.683984
 31
0.0
  0
LINE
  8
LC-006-005-----0
  6
CONTINUOUS
  5
18D
 10
186.209096
 20
460.566527
 30
0.0
 11
188.392779
 21
462.75021
 31
0.0
  0
LINE
  8
LC-006-005-----0
  6
CONTINUOUS
  5
18E
 10
186.209096
 20
460.84937
 30
0.0
 11
188.176162
 21
462.816436
 31
0.0
  0
LINE
  8
LC-006-005-----0
  6
CONTINUOUS
  5
18F
 10
186.209096
 20
461.132213
 30
0.0
 11
187.959546
 21
462.882663
 31
0.0
  0
LINE
  8
LC-006-005-----0
  6
CONTINUOUS
  5
190
 10
186.209096
 20
461.415056
 30
0.0
 11
187.74293
 21
462.948889
 31
0.0
  0
LINE
  8
LC-006-005-----0
  6
CONTINUOUS
  5
191
 10
186.209096
 20
461.697898
 30
0.0
 11
187.526313
 21
463.015115
 31
0.0
  0
LINE
  8
LC-006-005-----0
  6
CONTINUOUS
  5
192
 10
186.209096
 20
461.980741
 30
0.0
 11
187.309697
 21
463.081341
 31
0.0
  0
LINE
  8
LC-006-005-----0
  6
CONTINUOUS
  5
193
 10
186.209096
 20
462.263584
 30
0.0
 11
187.09308
 21
463.147568
 31
0.0
  0
LINE
  8
LC-006-005-----0
  6
CONTINUOUS
  5
194
 10
186.209096
 20
462.546426
 30
0.0
 11
186.876464
 21
463.213794
 31
0.0
  0
LINE
  8
LC-006-005-----0
  6
CONTINUOUS
  5
195
 10
186.209096
 20
462.829269
 30
0.0
 11
186.659847
 21
463.28002
 31
0.0
  0
LINE
  8
LC-006-005-----0
  6
CONTINUOUS
  5
196
 10
186.209096
 20
463.112112
 30
0.0
 11
186.443231
 21
463.346247
 31
0.0
  0
LINE
  8
LC-006-005-----0
  6
CONTINUOUS
  5
197
 10
186.209096
 20
463.394955
 30
0.0
 11
186.226615
 21
463.412473
 31
0.0
  0
ENDBLK
  8
0
  5
198
  0
BLOCK
  8
0
  5
19A
  2
*X15
 70
    65
 10
196.209096
 20
455.694793
 30
0.0
  3
*X15
  0
LINE
  8
LC-006-005-----0
  6
CONTINUOUS
  5
19B
 10
201.153385
 20
455.711826
 30
0.0
 11
201.209096
 21
455.767538
 31
0.0
  0
LINE
  8
LC-006-005-----0
  6
CONTINUOUS
  5
19C
 10
200.936768
 20
455.778052
 30
0.0
 11
201.209096
 21
456.05038
 31
0.0
  0
LINE
  8
LC-006-005-----0
  6
CONTINUOUS
  5
19D
 10
200.720152
 20
455.844279
 30
0.0
 11
201.209096
 21
456.333223
 31
0.0
  0
LINE
  8
LC-006-005-----0
  6
CONTINUOUS
  5
19E
 10
200.503535
 20
455.910505
 30
0.0
 11
201.209096
 21
456.616066
 31
0.0
  0
LINE
  8
LC-006-005-----0
  6
CONTINUOUS
  5
19F
 10
200.286919
 20
455.976731
 30
0.0
 11
201.209096
 21
456.898908
 31
0.0
  0
LINE
  8
LC-006-005-----0
  6
CONTINUOUS
  5
1A0
 10
200.070303
 20
456.042957
 30
0.0
 11
201.209096
 21
457.181751
 31
0.0
  0
LINE
  8
LC-006-005-----0
  6
CONTINUOUS
  5
1A1
 10
199.853686
 20
456.109184
 30
0.0
 11
201.209096
 21
457.464594
 31
0.0
  0
LINE
  8
LC-006-005-----0
  6
CONTINUOUS
  5
1A2
 10
199.63707
 20
456.17541
 30
0.0
 11
201.209096
 21
457.747437
 31
0.0
  0
LINE
  8
LC-006-005-----0
  6
CONTINUOUS
  5
1A3
 10
199.420453
 20
456.241636
 30
0.0
 11
201.209096
 21
458.030279
 31
0.0
  0
LINE
  8
LC-006-005-----0
  6
CONTINUOUS
  5
1A4
 10
199.203837
 20
456.307863
 30
0.0
 11
201.209096
 21
458.313122
 31
0.0
  0
LINE
  8
LC-006-005-----0
  6
CONTINUOUS
  5
1A5
 10
198.987221
 20
456.374089
 30
0.0
 11
201.209096
 21
458.595965
 31
0.0
  0
LINE
  8
LC-006-005-----0
  6
CONTINUOUS
  5
1A6
 10
198.770604
 20
456.440315
 30
0.0
 11
201.173148
 21
458.842859
 31
0.0
  0
LINE
  8
LC-006-005-----0
  6
CONTINUOUS
  5
1A7
 10
198.553988
 20
456.506541
 30
0.0
 11
200.956532
 21
458.909085
 31
0.0
  0
LINE
  8
LC-006-005-----0
  6
CONTINUOUS
  5
1A8
 10
198.337371
 20
456.572768
 30
0.0
 11
200.739915
 21
458.975312
 31
0.0
  0
LINE
  8
LC-006-005-----0
  6
CONTINUOUS
  5
1A9
 10
198.120755
 20
456.638994
 30
0.0
 11
200.523299
 21
459.041538
 31
0.0
  0
LINE
  8
LC-006-005-----0
  6
CONTINUOUS
  5
1AA
 10
197.904138
 20
456.70522
 30
0.0
 11
200.306682
 21
459.107764
 31
0.0
  0
LINE
  8
LC-006-005-----0
  6
CONTINUOUS
  5
1AB
 10
197.687522
 20
456.771447
 30
0.0
 11
200.090066
 21
459.17399
 31
0.0
  0
LINE
  8
LC-006-005-----0
  6
CONTINUOUS
  5
1AC
 10
197.470906
 20
456.837673
 30
0.0
 11
199.873449
 21
459.240217
 31
0.0
  0
LINE
  8
LC-006-005-----0
  6
CONTINUOUS
  5
1AD
 10
197.254289
 20
456.903899
 30
0.0
 11
199.656833
 21
459.306443
 31
0.0
  0
LINE
  8
LC-006-005-----0
  6
CONTINUOUS
  5
1AE
 10
197.037673
 20
456.970125
 30
0.0
 11
199.440217
 21
459.372669
 31
0.0
  0
LINE
  8
LC-006-005-----0
  6
CONTINUOUS
  5
1AF
 10
196.821056
 20
457.036352
 30
0.0
 11
199.2236
 21
459.438896
 31
0.0
  0
LINE
  8
LC-006-005-----0
  6
CONTINUOUS
  5
1B0
 10
196.60444
 20
457.102578
 30
0.0
 11
199.006984
 21
459.505122
 31
0.0
  0
LINE
  8
LC-006-005-----0
  6
CONTINUOUS
  5
1B1
 10
196.387823
 20
457.168804
 30
0.0
 11
198.790367
 21
459.571348
 31
0.0
  0
LINE
  8
LC-006-005-----0
  6
CONTINUOUS
  5
1B2
 10
196.209096
 20
457.27292
 30
0.0
 11
198.573751
 21
459.637574
 31
0.0
  0
LINE
  8
LC-006-005-----0
  6
CONTINUOUS
  5
1B3
 10
196.209096
 20
457.555763
 30
0.0
 11
198.357134
 21
459.703801
 31
0.0
  0
LINE
  8
LC-006-005-----0
  6
CONTINUOUS
  5
1B4
 10
196.209096
 20
457.838605
 30
0.0
 11
198.140518
 21
459.770027
 31
0.0
  0
LINE
  8
LC-006-005-----0
  6
CONTINUOUS
  5
1B5
 10
196.209096
 20
458.121448
 30
0.0
 11
197.923902
 21
459.836253
 31
0.0
  0
LINE
  8
LC-006-005-----0
  6
CONTINUOUS
  5
1B6
 10
196.209096
 20
458.404291
 30
0.0
 11
197.707285
 21
459.90248
 31
0.0
  0
LINE
  8
LC-006-005-----0
  6
CONTINUOUS
  5
1B7
 10
196.209096
 20
458.687134
 30
0.0
 11
197.490669
 21
459.968706
 31
0.0
  0
LINE
  8
LC-006-005-----0
  6
CONTINUOUS
  5
1B8
 10
196.209096
 20
458.969976
 30
0.0
 11
197.274052
 21
460.034932
 31
0.0
  0
LINE
  8
LC-006-005-----0
  6
CONTINUOUS
  5
1B9
 10
196.209096
 20
459.252819
 30
0.0
 11
197.057436
 21
460.101158
 31
0.0
  0
LINE
  8
LC-006-005-----0
  6
CONTINUOUS
  5
1BA
 10
196.209096
 20
459.535662
 30
0.0
 11
196.840819
 21
460.167385
 31
0.0
  0
LINE
  8
LC-006-005-----0
  6
CONTINUOUS
  5
1BB
 10
196.209096
 20
459.818504
 30
0.0
 11
196.624203
 21
460.233611
 31
0.0
  0
LINE
  8
LC-006-005-----0
  6
CONTINUOUS
  5
1BC
 10
196.209096
 20
460.101347
 30
0.0
 11
196.407587
 21
460.299837
 31
0.0
  0
ENDBLK
  8
0
  5
1BD
  0
BLOCK
  8
0
  5
1BF
  2
*X16
 70
    65
 10
206.209096
 20
454.853884
 30
0.0
  3
*X16
  0
LINE
  8
LC-006-005-----0
  6
CONTINUOUS
  5
1C0
 10
211.043466
 20
454.853884
 30
0.0
 11
211.209096
 21
455.019515
 31
0.0
  0
LINE
  8
LC-006-005-----0
  6
CONTINUOUS
  5
1C1
 10
210.760623
 20
454.853884
 30
0.0
 11
211.209096
 21
455.302357
 31
0.0
  0
LINE
  8
LC-006-005-----0
  6
CONTINUOUS
  5
1C2
 10
210.477781
 20
454.853884
 30
0.0
 11
211.209096
 21
455.5852
 31
0.0
  0
LINE
  8
LC-006-005-----0
  6
CONTINUOUS
  5
1C3
 10
210.194938
 20
454.853884
 30
0.0
 11
211.209096
 21
455.868043
 31
0.0
  0
LINE
  8
LC-006-005-----0
  6
CONTINUOUS
  5
1C4
 10
209.912095
 20
454.853884
 30
0.0
 11
211.209096
 21
456.150885
 31
0.0
  0
LINE
  8
LC-006-005-----0
  6
CONTINUOUS
  5
1C5
 10
209.629253
 20
454.853884
 30
0.0
 11
211.209096
 21
456.433728
 31
0.0
  0
LINE
  8
LC-006-005-----0
  6
CONTINUOUS
  5
1C6
 10
209.34641
 20
454.853884
 30
0.0
 11
211.209096
 21
456.716571
 31
0.0
  0
LINE
  8
LC-006-005-----0
  6
CONTINUOUS
  5
1C7
 10
209.063567
 20
454.853884
 30
0.0
 11
211.209096
 21
456.999414
 31
0.0
  0
LINE
  8
LC-006-005-----0
  6
CONTINUOUS
  5
1C8
 10
208.780724
 20
454.853884
 30
0.0
 11
211.209096
 21
457.282256
 31
0.0
  0
LINE
  8
LC-006-005-----0
  6
CONTINUOUS
  5
1C9
 10
208.497882
 20
454.853884
 30
0.0
 11
211.209096
 21
457.565099
 31
0.0
  0
LINE
  8
LC-006-005-----0
  6
CONTINUOUS
  5
1CA
 10
208.215039
 20
454.853884
 30
0.0
 11
211.209096
 21
457.847942
 31
0.0
  0
LINE
  8
LC-006-005-----0
  6
CONTINUOUS
  5
1CB
 10
207.932196
 20
454.853884
 30
0.0
 11
210.932196
 21
457.853884
 31
0.0
  0
LINE
  8
LC-006-005-----0
  6
CONTINUOUS
  5
1CC
 10
207.649354
 20
454.853884
 30
0.0
 11
210.649354
 21
457.853884
 31
0.0
  0
LINE
  8
LC-006-005-----0
  6
CONTINUOUS
  5
1CD
 10
207.366511
 20
454.853884
 30
0.0
 11
210.366511
 21
457.853884
 31
0.0
  0
LINE
  8
LC-006-005-----0
  6
CONTINUOUS
  5
1CE
 10
207.083668
 20
454.853884
 30
0.0
 11
210.083668
 21
457.853884
 31
0.0
  0
LINE
  8
LC-006-005-----0
  6
CONTINUOUS
  5
1CF
 10
206.800825
 20
454.853884
 30
0.0
 11
209.800825
 21
457.853884
 31
0.0
  0
LINE
  8
LC-006-005-----0
  6
CONTINUOUS
  5
1D0
 10
206.517983
 20
454.853884
 30
0.0
 11
209.517983
 21
457.853884
 31
0.0
  0
LINE
  8
LC-006-005-----0
  6
CONTINUOUS
  5
1D1
 10
206.23514
 20
454.853884
 30
0.0
 11
209.23514
 21
457.853884
 31
0.0
  0
LINE
  8
LC-006-005-----0
  6
CONTINUOUS
  5
1D2
 10
206.209096
 20
455.110683
 30
0.0
 11
208.952297
 21
457.853884
 31
0.0
  0
LINE
  8
LC-006-005-----0
  6
CONTINUOUS
  5
1D3
 10
206.209096
 20
455.393526
 30
0.0
 11
208.669455
 21
457.853884
 31
0.0
  0
LINE
  8
LC-006-005-----0
  6
CONTINUOUS
  5
1D4
 10
206.209096
 20
455.676369
 30
0.0
 11
208.386612
 21
457.853884
 31
0.0
  0
LINE
  8
LC-006-005-----0
  6
CONTINUOUS
  5
1D5
 10
206.209096
 20
455.959212
 30
0.0
 11
208.103769
 21
457.853884
 31
0.0
  0
LINE
  8
LC-006-005-----0
  6
CONTINUOUS
  5
1D6
 10
206.209096
 20
456.242054
 30
0.0
 11
207.820926
 21
457.853884
 31
0.0
  0
LINE
  8
LC-006-005-----0
  6
CONTINUOUS
  5
1D7
 10
206.209096
 20
456.524897
 30
0.0
 11
207.538084
 21
457.853884
 31
0.0
  0
LINE
  8
LC-006-005-----0
  6
CONTINUOUS
  5
1D8
 10
206.209096
 20
456.80774
 30
0.0
 11
207.255241
 21
457.853884
 31
0.0
  0
LINE
  8
LC-006-005-----0
  6
CONTINUOUS
  5
1D9
 10
206.209096
 20
457.090582
 30
0.0
 11
206.972398
 21
457.853884
 31
0.0
  0
LINE
  8
LC-006-005-----0
  6
CONTINUOUS
  5
1DA
 10
206.209096
 20
457.373425
 30
0.0
 11
206.689556
 21
457.853884
 31
0.0
  0
LINE
  8
LC-006-005-----0
  6
CONTINUOUS
  5
1DB
 10
206.209096
 20
457.656268
 30
0.0
 11
206.406713
 21
457.853884
 31
0.0
  0
ENDBLK
  8
0
  5
1DC
  0
BLOCK
  8
0
  5
1DE
  2
*D17
 70
    65
 10
0.0
 20
0.0
 30
0.0
  3
*D17
  0
LINE
  8
LC-003-003-MTH-0
  6
CONTINUOUS
  5
1DF
 10
310.959586
 20
241.316971
 30
0.0
 11
416.8
 21
241.316971
 31
0.0
  0
LINE
  8
LC-003-003-MTH-0
  6
CONTINUOUS
  5
1E0
 10
403.959586
 20
457.829773
 30
0.0
 11
416.8
 21
457.829773
 31
0.0
  0
LINE
  8
LC-004-003-MTG-0
  6
CONTINUOUS
  5
1E1
 10
406.0
 20
241.316971
 30
0.0
 11
406.0
 21
457.829773
 31
0.0
  0
LINE
  8
LC-002-003-----0
  6
CONTINUOUS
  5
1E2
 10
403.650529
 20
259.162978
 30
0.0
 11
406.0
 21
241.316971
 31
0.0
  0
LINE
  8
LC-002-003-----0
  6
CONTINUOUS
  5
1E3
 10
406.0
 20
241.316971
 30
0.0
 11
408.349471
 21
259.162978
 31
0.0
  0
LINE
  8
LC-002-003-----0
  6
CONTINUOUS
  5
1E4
 10
408.349471
 20
259.162978
 30
0.0
 11
403.650529
 21
259.162978
 31
0.0
  0
LINE
  8
LC-002-003-----0
  6
CONTINUOUS
  5
1E5
 10
404.261391
 20
259.203016
 30
0.0
 11
406.0
 21
245.996971
 31
0.0
  0
LINE
  8
LC-002-003-----0
  6
CONTINUOUS
  5
1E6
 10
406.0
 20
245.996971
 30
0.0
 11
407.738609
 21
259.203016
 31
0.0
  0
LINE
  8
LC-002-003-----0
  6
CONTINUOUS
  5
1E7
 10
404.872254
 20
259.243054
 30
0.0
 11
406.0
 21
250.676971
 31
0.0
  0
LINE
  8
LC-002-003-----0
  6
CONTINUOUS
  5
1E8
 10
406.0
 20
250.676971
 30
0.0
 11
407.127746
 21
259.243054
 31
0.0
  0
LINE
  8
LC-002-003-----0
  6
CONTINUOUS
  5
1E9
 10
405.483116
 20
259.283092
 30
0.0
 11
406.0
 21
255.356971
 31
0.0
  0
LINE
  8
LC-002-003-----0
  6
CONTINUOUS
  5
1EA
 10
406.0
 20
255.356971
 30
0.0
 11
406.516884
 21
259.283092
 31
0.0
  0
LINE
  8
LC-002-003-----0
  6
CONTINUOUS
  5
1EB
 10
408.349471
 20
439.983766
 30
0.0
 11
406.0
 21
457.829773
 31
0.0
  0
LINE
  8
LC-002-003-----0
  6
CONTINUOUS
  5
1EC
 10
406.0
 20
457.829773
 30
0.0
 11
403.650529
 21
439.983766
 31
0.0
  0
LINE
  8
LC-002-003-----0
  6
CONTINUOUS
  5
1ED
 10
403.650529
 20
439.983766
 30
0.0
 11
408.349471
 21
439.983766
 31
0.0
  0
LINE
  8
LC-002-003-----0
  6
CONTINUOUS
  5
1EE
 10
407.738609
 20
439.943728
 30
0.0
 11
406.0
 21
453.149773
 31
0.0
  0
LINE
  8
LC-002-003-----0
  6
CONTINUOUS
  5
1EF
 10
406.0
 20
453.149773
 30
0.0
 11
404.261391
 21
439.943728
 31
0.0
  0
LINE
  8
LC-002-003-----0
  6
CONTINUOUS
  5
1F0
 10
407.127746
 20
439.90369
 30
0.0
 11
406.0
 21
448.469773
 31
0.0
  0
LINE
  8
LC-002-003-----0
  6
CONTINUOUS
  5
1F1
 10
406.0
 20
448.469773
 30
0.0
 11
404.872254
 21
439.90369
 31
0.0
  0
LINE
  8
LC-002-003-----0
  6
CONTINUOUS
  5
1F2
 10
406.516884
 20
439.863651
 30
0.0
 11
406.0
 21
443.789773
 31
0.0
  0
LINE
  8
LC-002-003-----0
  6
CONTINUOUS
  5
1F3
 10
406.0
 20
443.789773
 30
0.0
 11
405.483116
 21
439.863651
 31
0.0
  0
TEXT
  8
LC-002-003-----0
  6
CONTINUOUS
 62
     6
  5
1F4
 10
395.568001
 20
333.234759
 30
0.0
 40
18.0
  1
216
 50
90.0
 51
15.0
  7
LC-TXTSTYLE-150-400-0-0-D0
 72
     1
 11
395.568001
 21
352.368618
 31
0.0
  0
ENDBLK
  8
0
  5
1F5
  0
BLOCK
  8
0
  5
1F7
  2
*X18
 70
    65
 10
221.959096
 20
456.353194
 30
0.0
  3
*X18
  0
LINE
  8
LC-006-005-----0
  6
CONTINUOUS
  5
1F8
 10
224.139327
 20
456.353194
 30
0.0
 11
224.209474
 21
456.423341
 31
0.0
  0
LINE
  8
LC-006-005-----0
  6
CONTINUOUS
  5
1F9
 10
223.856484
 20
456.353194
 30
0.0
 11
224.209474
 21
456.706183
 31
0.0
  0
LINE
  8
LC-006-005-----0
  6
CONTINUOUS
  5
1FA
 10
223.573641
 20
456.353194
 30
0.0
 11
224.209474
 21
456.989026
 31
0.0
  0
LINE
  8
LC-006-005-----0
  6
CONTINUOUS
  5
1FB
 10
223.290799
 20
456.353194
 30
0.0
 11
224.209474
 21
457.271869
 31
0.0
  0
LINE
  8
LC-006-005-----0
  6
CONTINUOUS
  5
1FC
 10
223.007956
 20
456.353194
 30
0.0
 11
224.209474
 21
457.554711
 31
0.0
  0
LINE
  8
LC-006-005-----0
  6
CONTINUOUS
  5
1FD
 10
222.725113
 20
456.353194
 30
0.0
 11
224.209474
 21
457.837554
 31
0.0
  0
LINE
  8
LC-006-005-----0
  6
CONTINUOUS
  5
1FE
 10
222.442271
 20
456.353194
 30
0.0
 11
224.209474
 21
458.120397
 31
0.0
  0
LINE
  8
LC-006-005-----0
  6
CONTINUOUS
  5
1FF
 10
222.159428
 20
456.353194
 30
0.0
 11
224.209474
 21
458.40324
 31
0.0
  0
LINE
  8
LC-006-005-----0
  6
CONTINUOUS
  5
200
 10
221.959096
 20
456.435705
 30
0.0
 11
224.209474
 21
458.686082
 31
0.0
  0
LINE
  8
LC-006-005-----0
  6
CONTINUOUS
  5
201
 10
221.959096
 20
456.718548
 30
0.0
 11
224.209474
 21
458.968925
 31
0.0
  0
LINE
  8
LC-006-005-----0
  6
CONTINUOUS
  5
202
 10
221.959096
 20
457.00139
 30
0.0
 11
224.209474
 21
459.251768
 31
0.0
  0
LINE
  8
LC-006-005-----0
  6
CONTINUOUS
  5
203
 10
221.959096
 20
457.284233
 30
0.0
 11
224.028057
 21
459.353194
 31
0.0
  0
LINE
  8
LC-006-005-----0
  6
CONTINUOUS
  5
204
 10
221.959096
 20
457.567076
 30
0.0
 11
223.745214
 21
459.353194
 31
0.0
  0
LINE
  8
LC-006-005-----0
  6
CONTINUOUS
  5
205
 10
221.959096
 20
457.849919
 30
0.0
 11
223.462372
 21
459.353194
 31
0.0
  0
LINE
  8
LC-006-005-----0
  6
CONTINUOUS
  5
206
 10
221.959096
 20
458.132761
 30
0.0
 11
223.179529
 21
459.353194
 31
0.0
  0
LINE
  8
LC-006-005-----0
  6
CONTINUOUS
  5
207
 10
221.959096
 20
458.415604
 30
0.0
 11
222.896686
 21
459.353194
 31
0.0
  0
LINE
  8
LC-006-005-----0
  6
CONTINUOUS
  5
208
 10
221.959096
 20
458.698447
 30
0.0
 11
222.613843
 21
459.353194
 31
0.0
  0
LINE
  8
LC-006-005-----0
  6
CONTINUOUS
  5
209
 10
221.959096
 20
458.981289
 30
0.0
 11
222.331001
 21
459.353194
 31
0.0
  0
LINE
  8
LC-006-005-----0
  6
CONTINUOUS
  5
20A
 10
221.959096
 20
459.264132
 30
0.0
 11
222.048158
 21
459.353194
 31
0.0
  0
ENDBLK
  8
0
  5
20B
  0
BLOCK
  8
0
  5
20D
  2
*X19
 70
    65
 10
176.209096
 20
461.136156
 30
0.0
  3
*X19
  0
LINE
  8
LC-006-005-----0
  6
CONTINUOUS
  5
20E
 10
181.12463
 20
461.138915
 30
0.0
 11
181.209096
 21
461.223382
 31
0.0
  0
LINE
  8
LC-006-005-----0
  6
CONTINUOUS
  5
20F
 10
180.850735
 20
461.147863
 30
0.0
 11
181.209096
 21
461.506224
 31
0.0
  0
LINE
  8
LC-006-005-----0
  6
CONTINUOUS
  5
210
 10
180.57684
 20
461.15681
 30
0.0
 11
181.209096
 21
461.789067
 31
0.0
  0
LINE
  8
LC-006-005-----0
  6
CONTINUOUS
  5
211
 10
180.302945
 20
461.165758
 30
0.0
 11
181.209096
 21
462.07191
 31
0.0
  0
LINE
  8
LC-006-005-----0
  6
CONTINUOUS
  5
212
 10
180.02905
 20
461.174706
 30
0.0
 11
181.209096
 21
462.354753
 31
0.0
  0
LINE
  8
LC-006-005-----0
  6
CONTINUOUS
  5
213
 10
179.755155
 20
461.183654
 30
0.0
 11
181.209096
 21
462.637595
 31
0.0
  0
LINE
  8
LC-006-005-----0
  6
CONTINUOUS
  5
214
 10
179.48126
 20
461.192601
 30
0.0
 11
181.209096
 21
462.920438
 31
0.0
  0
LINE
  8
LC-006-005-----0
  6
CONTINUOUS
  5
215
 10
179.207365
 20
461.201549
 30
0.0
 11
181.209096
 21
463.203281
 31
0.0
  0
LINE
  8
LC-006-005-----0
  6
CONTINUOUS
  5
216
 10
178.93347
 20
461.210497
 30
0.0
 11
181.209096
 21
463.486123
 31
0.0
  0
LINE
  8
LC-006-005-----0
  6
CONTINUOUS
  5
217
 10
178.659575
 20
461.219445
 30
0.0
 11
181.209096
 21
463.768966
 31
0.0
  0
LINE
  8
LC-006-005-----0
  6
CONTINUOUS
  5
218
 10
178.38568
 20
461.228392
 30
0.0
 11
181.209096
 21
464.051809
 31
0.0
  0
LINE
  8
LC-006-005-----0
  6
CONTINUOUS
  5
219
 10
178.111785
 20
461.23734
 30
0.0
 11
181.01843
 21
464.143985
 31
0.0
  0
LINE
  8
LC-006-005-----0
  6
CONTINUOUS
  5
21A
 10
177.83789
 20
461.246288
 30
0.0
 11
180.744535
 21
464.152933
 31
0.0
  0
LINE
  8
LC-006-005-----0
  6
CONTINUOUS
  5
21B
 10
177.563995
 20
461.255235
 30
0.0
 11
180.47064
 21
464.16188
 31
0.0
  0
LINE
  8
LC-006-005-----0
  6
CONTINUOUS
  5
21C
 10
177.2901
 20
461.264183
 30
0.0
 11
180.196745
 21
464.170828
 31
0.0
  0
LINE
  8
LC-006-005-----0
  6
CONTINUOUS
  5
21D
 10
177.016205
 20
461.273131
 30
0.0
 11
179.92285
 21
464.179776
 31
0.0
  0
LINE
  8
LC-006-005-----0
  6
CONTINUOUS
  5
21E
 10
176.74231
 20
461.282079
 30
0.0
 11
179.648955
 21
464.188723
 31
0.0
  0
LINE
  8
LC-006-005-----0
  6
CONTINUOUS
  5
21F
 10
176.468415
 20
461.291026
 30
0.0
 11
179.37506
 21
464.197671
 31
0.0
  0
LINE
  8
LC-006-005-----0
  6
CONTINUOUS
  5
220
 10
176.209096
 20
461.314551
 30
0.0
 11
179.101165
 21
464.206619
 31
0.0
  0
LINE
  8
LC-006-005-----0
  6
CONTINUOUS
  5
221
 10
176.209096
 20
461.597393
 30
0.0
 11
178.82727
 21
464.215567
 31
0.0
  0
LINE
  8
LC-006-005-----0
  6
CONTINUOUS
  5
222
 10
176.209096
 20
461.880236
 30
0.0
 11
178.553375
 21
464.224514
 31
0.0
  0
LINE
  8
LC-006-005-----0
  6
CONTINUOUS
  5
223
 10
176.209096
 20
462.163079
 30
0.0
 11
178.27948
 21
464.233462
 31
0.0
  0
LINE
  8
LC-006-005-----0
  6
CONTINUOUS
  5
224
 10
176.209096
 20
462.445921
 30
0.0
 11
178.005585
 21
464.24241
 31
0.0
  0
LINE
  8
LC-006-005-----0
  6
CONTINUOUS
  5
225
 10
176.209096
 20
462.728764
 30
0.0
 11
177.73169
 21
464.251358
 31
0.0
  0
LINE
  8
LC-006-005-----0
  6
CONTINUOUS
  5
226
 10
176.209096
 20
463.011607
 30
0.0
 11
177.457795
 21
464.260305
 31
0.0
  0
LINE
  8
LC-006-005-----0
  6
CONTINUOUS
  5
227
 10
176.209096
 20
463.29445
 30
0.0
 11
177.1839
 21
464.269253
 31
0.0
  0
LINE
  8
LC-006-005-----0
  6
CONTINUOUS
  5
228
 10
176.209096
 20
463.577292
 30
0.0
 11
176.910005
 21
464.278201
 31
0.0
  0
LINE
  8
LC-006-005-----0
  6
CONTINUOUS
  5
229
 10
176.209096
 20
463.860135
 30
0.0
 11
176.63611
 21
464.287148
 31
0.0
  0
LINE
  8
LC-006-005-----0
  6
CONTINUOUS
  5
22A
 10
176.209096
 20
464.142978
 30
0.0
 11
176.362215
 21
464.296096
 31
0.0
  0
ENDBLK
  8
0
  5
22B
  0
BLOCK
  8
0
  5
22D
  2
BLK4
 70
    64
 10
0.0
 20
0.0
 30
0.0
  3
BLK4
  0
ENDBLK
  8
0
  5
22E
  0
BLOCK
  8
0
  5
230
  2
*X21
 70
    65
 10
486.710075
 20
461.348185
 30
0.0
  3
*X21
  0
LINE
  8
LC-006-005-----0
  6
CONTINUOUS
  5
231
 10
488.783928
 20
461.348185
 30
0.0
 11
488.959586
 21
461.523843
 31
0.0
  0
LINE
  8
LC-006-005-----0
  6
CONTINUOUS
  5
232
 10
488.501085
 20
461.348185
 30
0.0
 11
488.959586
 21
461.806685
 31
0.0
  0
LINE
  8
LC-006-005-----0
  6
CONTINUOUS
  5
233
 10
488.218242
 20
461.348185
 30
0.0
 11
488.959586
 21
462.089528
 31
0.0
  0
LINE
  8
LC-006-005-----0
  6
CONTINUOUS
  5
234
 10
487.9354
 20
461.348185
 30
0.0
 11
488.959586
 21
462.372371
 31
0.0
  0
LINE
  8
LC-006-005-----0
  6
CONTINUOUS
  5
235
 10
487.652557
 20
461.348185
 30
0.0
 11
488.959586
 21
462.655214
 31
0.0
  0
LINE
  8
LC-006-005-----0
  6
CONTINUOUS
  5
236
 10
487.369714
 20
461.348185
 30
0.0
 11
488.959586
 21
462.938056
 31
0.0
  0
LINE
  8
LC-006-005-----0
  6
CONTINUOUS
  5
237
 10
487.086871
 20
461.348185
 30
0.0
 11
488.959586
 21
463.220899
 31
0.0
  0
LINE
  8
LC-006-005-----0
  6
CONTINUOUS
  5
238
 10
486.804029
 20
461.348185
 30
0.0
 11
488.959586
 21
463.503742
 31
0.0
  0
LINE
  8
LC-006-005-----0
  6
CONTINUOUS
  5
239
 10
486.710075
 20
461.537074
 30
0.0
 11
488.959586
 21
463.786584
 31
0.0
  0
LINE
  8
LC-006-005-----0
  6
CONTINUOUS
  5
23A
 10
486.710075
 20
461.819917
 30
0.0
 11
488.959586
 21
464.069427
 31
0.0
  0
LINE
  8
LC-006-005-----0
  6
CONTINUOUS
  5
23B
 10
486.710075
 20
462.102759
 30
0.0
 11
488.955501
 21
464.348185
 31
0.0
  0
LINE
  8
LC-006-005-----0
  6
CONTINUOUS
  5
23C
 10
486.710075
 20
462.385602
 30
0.0
 11
488.672658
 21
464.348185
 31
0.0
  0
LINE
  8
LC-006-005-----0
  6
CONTINUOUS
  5
23D
 10
486.710075
 20
462.668445
 30
0.0
 11
488.389815
 21
464.348185
 31
0.0
  0
LINE
  8
LC-006-005-----0
  6
CONTINUOUS
  5
23E
 10
486.710075
 20
462.951287
 30
0.0
 11
488.106972
 21
464.348185
 31
0.0
  0
LINE
  8
LC-006-005-----0
  6
CONTINUOUS
  5
23F
 10
486.710075
 20
463.23413
 30
0.0
 11
487.82413
 21
464.348185
 31
0.0
  0
LINE
  8
LC-006-005-----0
  6
CONTINUOUS
  5
240
 10
486.710075
 20
463.516973
 30
0.0
 11
487.541287
 21
464.348185
 31
0.0
  0
LINE
  8
LC-006-005-----0
  6
CONTINUOUS
  5
241
 10
486.710075
 20
463.799816
 30
0.0
 11
487.258444
 21
464.348185
 31
0.0
  0
LINE
  8
LC-006-005-----0
  6
CONTINUOUS
  5
242
 10
486.710075
 20
464.082658
 30
0.0
 11
486.975602
 21
464.348185
 31
0.0
  0
ENDBLK
  8
0
  5
243
  0
BLOCK
  8
0
  5
245
  2
*X22
 70
    65
 10
476.710075
 20
461.348185
 30
0.0
  3
*X22
  0
LINE
  8
LC-006-005-----0
  6
CONTINUOUS
  5
246
 10
481.430017
 20
461.348185
 30
0.0
 11
481.710075
 21
461.628243
 31
0.0
  0
LINE
  8
LC-006-005-----0
  6
CONTINUOUS
  5
247
 10
481.147174
 20
461.348185
 30
0.0
 11
481.710075
 21
461.911085
 31
0.0
  0
LINE
  8
LC-006-005-----0
  6
CONTINUOUS
  5
248
 10
480.864332
 20
461.348185
 30
0.0
 11
481.710075
 21
462.193928
 31
0.0
  0
LINE
  8
LC-006-005-----0
  6
CONTINUOUS
  5
249
 10
480.581489
 20
461.348185
 30
0.0
 11
481.710075
 21
462.476771
 31
0.0
  0
LINE
  8
LC-006-005-----0
  6
CONTINUOUS
  5
24A
 10
480.298646
 20
461.348185
 30
0.0
 11
481.710075
 21
462.759614
 31
0.0
  0
LINE
  8
LC-006-005-----0
  6
CONTINUOUS
  5
24B
 10
480.015804
 20
461.348185
 30
0.0
 11
481.710075
 21
463.042456
 31
0.0
  0
LINE
  8
LC-006-005-----0
  6
CONTINUOUS
  5
24C
 10
479.732961
 20
461.348185
 30
0.0
 11
481.710075
 21
463.325299
 31
0.0
  0
LINE
  8
LC-006-005-----0
  6
CONTINUOUS
  5
24D
 10
479.450118
 20
461.348185
 30
0.0
 11
481.710075
 21
463.608142
 31
0.0
  0
LINE
  8
LC-006-005-----0
  6
CONTINUOUS
  5
24E
 10
479.167275
 20
461.348185
 30
0.0
 11
481.710075
 21
463.890984
 31
0.0
  0
LINE
  8
LC-006-005-----0
  6
CONTINUOUS
  5
24F
 10
478.884433
 20
461.348185
 30
0.0
 11
481.710075
 21
464.173827
 31
0.0
  0
LINE
  8
LC-006-005-----0
  6
CONTINUOUS
  5
250
 10
478.60159
 20
461.348185
 30
0.0
 11
481.60159
 21
464.348185
 31
0.0
  0
LINE
  8
LC-006-005-----0
  6
CONTINUOUS
  5
251
 10
478.318747
 20
461.348185
 30
0.0
 11
481.318747
 21
464.348185
 31
0.0
  0
LINE
  8
LC-006-005-----0
  6
CONTINUOUS
  5
252
 10
478.035905
 20
461.348185
 30
0.0
 11
481.035905
 21
464.348185
 31
0.0
  0
LINE
  8
LC-006-005-----0
  6
CONTINUOUS
  5
253
 10
477.753062
 20
461.348185
 30
0.0
 11
480.753062
 21
464.348185
 31
0.0
  0
LINE
  8
LC-006-005-----0
  6
CONTINUOUS
  5
254
 10
477.470219
 20
461.348185
 30
0.0
 11
480.470219
 21
464.348185
 31
0.0
  0
LINE
  8
LC-006-005-----0
  6
CONTINUOUS
  5
255
 10
477.187376
 20
461.348185
 30
0.0
 11
480.187376
 21
464.348185
 31
0.0
  0
LINE
  8
LC-006-005-----0
  6
CONTINUOUS
  5
256
 10
476.904534
 20
461.348185
 30
0.0
 11
479.904534
 21
464.348185
 31
0.0
  0
LINE
  8
LC-006-005-----0
  6
CONTINUOUS
  5
257
 10
476.710075
 20
461.436569
 30
0.0
 11
479.621691
 21
464.348185
 31
0.0
  0
LINE
  8
LC-006-005-----0
  6
CONTINUOUS
  5
258
 10
476.710075
 20
461.719411
 30
0.0
 11
479.338848
 21
464.348185
 31
0.0
  0
LINE
  8
LC-006-005-----0
  6
CONTINUOUS
  5
259
 10
476.710075
 20
462.002254
 30
0.0
 11
479.056006
 21
464.348185
 31
0.0
  0
LINE
  8
LC-006-005-----0
  6
CONTINUOUS
  5
25A
 10
476.710075
 20
462.285097
 30
0.0
 11
478.773163
 21
464.348185
 31
0.0
  0
LINE
  8
LC-006-005-----0
  6
CONTINUOUS
  5
25B
 10
476.710075
 20
462.56794
 30
0.0
 11
478.49032
 21
464.348185
 31
0.0
  0
LINE
  8
LC-006-005-----0
  6
CONTINUOUS
  5
25C
 10
476.710075
 20
462.850782
 30
0.0
 11
478.207477
 21
464.348185
 31
0.0
  0
LINE
  8
LC-006-005-----0
  6
CONTINUOUS
  5
25D
 10
476.710075
 20
463.133625
 30
0.0
 11
477.924635
 21
464.348185
 31
0.0
  0
LINE
  8
LC-006-005-----0
  6
CONTINUOUS
  5
25E
 10
476.710075
 20
463.416468
 30
0.0
 11
477.641792
 21
464.348185
 31
0.0
  0
LINE
  8
LC-006-005-----0
  6
CONTINUOUS
  5
25F
 10
476.710075
 20
463.69931
 30
0.0
 11
477.358949
 21
464.348185
 31
0.0
  0
LINE
  8
LC-006-005-----0
  6
CONTINUOUS
  5
260
 10
476.710075
 20
463.982153
 30
0.0
 11
477.076107
 21
464.348185
 31
0.0
  0
LINE
  8
LC-006-005-----0
  6
CONTINUOUS
  5
261
 10
476.710075
 20
464.264996
 30
0.0
 11
476.793264
 21
464.348185
 31
0.0
  0
ENDBLK
  8
0
  5
262
  0
BLOCK
  8
0
  5
264
  2
*X23
 70
    65
 10
466.710075
 20
461.348185
 30
0.0
  3
*X23
  0
LINE
  8
LC-006-005-----0
  6
CONTINUOUS
  5
265
 10
471.530522
 20
461.348185
 30
0.0
 11
471.710075
 21
461.527738
 31
0.0
  0
LINE
  8
LC-006-005-----0
  6
CONTINUOUS
  5
266
 10
471.247679
 20
461.348185
 30
0.0
 11
471.710075
 21
461.81058
 31
0.0
  0
LINE
  8
LC-006-005-----0
  6
CONTINUOUS
  5
267
 10
470.964837
 20
461.348185
 30
0.0
 11
471.710075
 21
462.093423
 31
0.0
  0
LINE
  8
LC-006-005-----0
  6
CONTINUOUS
  5
268
 10
470.681994
 20
461.348185
 30
0.0
 11
471.710075
 21
462.376266
 31
0.0
  0
LINE
  8
LC-006-005-----0
  6
CONTINUOUS
  5
269
 10
470.399151
 20
461.348185
 30
0.0
 11
471.710075
 21
462.659108
 31
0.0
  0
LINE
  8
LC-006-005-----0
  6
CONTINUOUS
  5
26A
 10
470.116309
 20
461.348185
 30
0.0
 11
471.710075
 21
462.941951
 31
0.0
  0
LINE
  8
LC-006-005-----0
  6
CONTINUOUS
  5
26B
 10
469.833466
 20
461.348185
 30
0.0
 11
471.710075
 21
463.224794
 31
0.0
  0
LINE
  8
LC-006-005-----0
  6
CONTINUOUS
  5
26C
 10
469.550623
 20
461.348185
 30
0.0
 11
471.710075
 21
463.507637
 31
0.0
  0
LINE
  8
LC-006-005-----0
  6
CONTINUOUS
  5
26D
 10
469.26778
 20
461.348185
 30
0.0
 11
471.710075
 21
463.790479
 31
0.0
  0
LINE
  8
LC-006-005-----0
  6
CONTINUOUS
  5
26E
 10
468.984938
 20
461.348185
 30
0.0
 11
471.710075
 21
464.073322
 31
0.0
  0
LINE
  8
LC-006-005-----0
  6
CONTINUOUS
  5
26F
 10
468.702095
 20
461.348185
 30
0.0
 11
471.702095
 21
464.348185
 31
0.0
  0
LINE
  8
LC-006-005-----0
  6
CONTINUOUS
  5
270
 10
468.419252
 20
461.348185
 30
0.0
 11
471.419252
 21
464.348185
 31
0.0
  0
LINE
  8
LC-006-005-----0
  6
CONTINUOUS
  5
271
 10
468.13641
 20
461.348185
 30
0.0
 11
471.13641
 21
464.348185
 31
0.0
  0
LINE
  8
LC-006-005-----0
  6
CONTINUOUS
  5
272
 10
467.853567
 20
461.348185
 30
0.0
 11
470.853567
 21
464.348185
 31
0.0
  0
LINE
  8
LC-006-005-----0
  6
CONTINUOUS
  5
273
 10
467.570724
 20
461.348185
 30
0.0
 11
470.570724
 21
464.348185
 31
0.0
  0
LINE
  8
LC-006-005-----0
  6
CONTINUOUS
  5
274
 10
467.287882
 20
461.348185
 30
0.0
 11
470.287882
 21
464.348185
 31
0.0
  0
LINE
  8
LC-006-005-----0
  6
CONTINUOUS
  5
275
 10
467.005039
 20
461.348185
 30
0.0
 11
470.005039
 21
464.348185
 31
0.0
  0
LINE
  8
LC-006-005-----0
  6
CONTINUOUS
  5
276
 10
466.722196
 20
461.348185
 30
0.0
 11
469.722196
 21
464.348185
 31
0.0
  0
LINE
  8
LC-006-005-----0
  6
CONTINUOUS
  5
277
 10
466.710075
 20
461.618906
 30
0.0
 11
469.439353
 21
464.348185
 31
0.0
  0
LINE
  8
LC-006-005-----0
  6
CONTINUOUS
  5
278
 10
466.710075
 20
461.901749
 30
0.0
 11
469.156511
 21
464.348185
 31
0.0
  0
LINE
  8
LC-006-005-----0
  6
CONTINUOUS
  5
279
 10
466.710075
 20
462.184592
 30
0.0
 11
468.873668
 21
464.348185
 31
0.0
  0
LINE
  8
LC-006-005-----0
  6
CONTINUOUS
  5
27A
 10
466.710075
 20
462.467435
 30
0.0
 11
468.590825
 21
464.348185
 31
0.0
  0
LINE
  8
LC-006-005-----0
  6
CONTINUOUS
  5
27B
 10
466.710075
 20
462.750277
 30
0.0
 11
468.307983
 21
464.348185
 31
0.0
  0
LINE
  8
LC-006-005-----0
  6
CONTINUOUS
  5
27C
 10
466.710075
 20
463.03312
 30
0.0
 11
468.02514
 21
464.348185
 31
0.0
  0
LINE
  8
LC-006-005-----0
  6
CONTINUOUS
  5
27D
 10
466.710075
 20
463.315963
 30
0.0
 11
467.742297
 21
464.348185
 31
0.0
  0
LINE
  8
LC-006-005-----0
  6
CONTINUOUS
  5
27E
 10
466.710075
 20
463.598805
 30
0.0
 11
467.459454
 21
464.348185
 31
0.0
  0
LINE
  8
LC-006-005-----0
  6
CONTINUOUS
  5
27F
 10
466.710075
 20
463.881648
 30
0.0
 11
467.176612
 21
464.348185
 31
0.0
  0
LINE
  8
LC-006-005-----0
  6
CONTINUOUS
  5
280
 10
466.710075
 20
464.164491
 30
0.0
 11
466.893769
 21
464.348185
 31
0.0
  0
ENDBLK
  8
0
  5
281
  0
BLOCK
  8
0
  5
283
  2
*X24
 70
    65
 10
456.710075
 20
461.348185
 30
0.0
  3
*X24
  0
LINE
  8
LC-006-005-----0
  6
CONTINUOUS
  5
284
 10
461.631027
 20
461.348185
 30
0.0
 11
461.710075
 21
461.427233
 31
0.0
  0
LINE
  8
LC-006-005-----0
  6
CONTINUOUS
  5
285
 10
461.348185
 20
461.348185
 30
0.0
 11
461.710075
 21
461.710075
 31
0.0
  0
LINE
  8
LC-006-005-----0
  6
CONTINUOUS
  5
286
 10
461.065342
 20
461.348185
 30
0.0
 11
461.710075
 21
461.992918
 31
0.0
  0
LINE
  8
LC-006-005-----0
  6
CONTINUOUS
  5
287
 10
460.782499
 20
461.348185
 30
0.0
 11
461.710075
 21
462.275761
 31
0.0
  0
LINE
  8
LC-006-005-----0
  6
CONTINUOUS
  5
288
 10
460.499656
 20
461.348185
 30
0.0
 11
461.710075
 21
462.558603
 31
0.0
  0
LINE
  8
LC-006-005-----0
  6
CONTINUOUS
  5
289
 10
460.216814
 20
461.348185
 30
0.0
 11
461.710075
 21
462.841446
 31
0.0
  0
LINE
  8
LC-006-005-----0
  6
CONTINUOUS
  5
28A
 10
459.933971
 20
461.348185
 30
0.0
 11
461.710075
 21
463.124289
 31
0.0
  0
LINE
  8
LC-006-005-----0
  6
CONTINUOUS
  5
28B
 10
459.651128
 20
461.348185
 30
0.0
 11
461.710075
 21
463.407132
 31
0.0
  0
LINE
  8
LC-006-005-----0
  6
CONTINUOUS
  5
28C
 10
459.368286
 20
461.348185
 30
0.0
 11
461.710075
 21
463.689974
 31
0.0
  0
LINE
  8
LC-006-005-----0
  6
CONTINUOUS
  5
28D
 10
459.085443
 20
461.348185
 30
0.0
 11
461.710075
 21
463.972817
 31
0.0
  0
LINE
  8
LC-006-005-----0
  6
CONTINUOUS
  5
28E
 10
458.8026
 20
461.348185
 30
0.0
 11
461.710075
 21
464.25566
 31
0.0
  0
LINE
  8
LC-006-005-----0
  6
CONTINUOUS
  5
28F
 10
458.519757
 20
461.348185
 30
0.0
 11
461.519757
 21
464.348185
 31
0.0
  0
LINE
  8
LC-006-005-----0
  6
CONTINUOUS
  5
290
 10
458.236915
 20
461.348185
 30
0.0
 11
461.236915
 21
464.348185
 31
0.0
  0
LINE
  8
LC-006-005-----0
  6
CONTINUOUS
  5
291
 10
457.954072
 20
461.348185
 30
0.0
 11
460.954072
 21
464.348185
 31
0.0
  0
LINE
  8
LC-006-005-----0
  6
CONTINUOUS
  5
292
 10
457.671229
 20
461.348185
 30
0.0
 11
460.671229
 21
464.348185
 31
0.0
  0
LINE
  8
LC-006-005-----0
  6
CONTINUOUS
  5
293
 10
457.388387
 20
461.348185
 30
0.0
 11
460.388387
 21
464.348185
 31
0.0
  0
LINE
  8
LC-006-005-----0
  6
CONTINUOUS
  5
294
 10
457.105544
 20
461.348185
 30
0.0
 11
460.105544
 21
464.348185
 31
0.0
  0
LINE
  8
LC-006-005-----0
  6
CONTINUOUS
  5
295
 10
456.822701
 20
461.348185
 30
0.0
 11
459.822701
 21
464.348185
 31
0.0
  0
LINE
  8
LC-006-005-----0
  6
CONTINUOUS
  5
296
 10
456.710075
 20
461.518401
 30
0.0
 11
459.539858
 21
464.348185
 31
0.0
  0
LINE
  8
LC-006-005-----0
  6
CONTINUOUS
  5
297
 10
456.710075
 20
461.801244
 30
0.0
 11
459.257016
 21
464.348185
 31
0.0
  0
LINE
  8
LC-006-005-----0
  6
CONTINUOUS
  5
298
 10
456.710075
 20
462.084087
 30
0.0
 11
458.974173
 21
464.348185
 31
0.0
  0
LINE
  8
LC-006-005-----0
  6
CONTINUOUS
  5
299
 10
456.710075
 20
462.366929
 30
0.0
 11
458.69133
 21
464.348185
 31
0.0
  0
LINE
  8
LC-006-005-----0
  6
CONTINUOUS
  5
29A
 10
456.710075
 20
462.649772
 30
0.0
 11
458.408488
 21
464.348185
 31
0.0
  0
LINE
  8
LC-006-005-----0
  6
CONTINUOUS
  5
29B
 10
456.710075
 20
462.932615
 30
0.0
 11
458.125645
 21
464.348185
 31
0.0
  0
LINE
  8
LC-006-005-----0
  6
CONTINUOUS
  5
29C
 10
456.710075
 20
463.215458
 30
0.0
 11
457.842802
 21
464.348185
 31
0.0
  0
LINE
  8
LC-006-005-----0
  6
CONTINUOUS
  5
29D
 10
456.710075
 20
463.4983
 30
0.0
 11
457.559959
 21
464.348185
 31
0.0
  0
LINE
  8
LC-006-005-----0
  6
CONTINUOUS
  5
29E
 10
456.710075
 20
463.781143
 30
0.0
 11
457.277117
 21
464.348185
 31
0.0
  0
LINE
  8
LC-006-005-----0
  6
CONTINUOUS
  5
29F
 10
456.710075
 20
464.063986
 30
0.0
 11
456.994274
 21
464.348185
 31
0.0
  0
LINE
  8
LC-006-005-----0
  6
CONTINUOUS
  5
2A0
 10
456.710075
 20
464.346828
 30
0.0
 11
456.711431
 21
464.348185
 31
0.0
  0
ENDBLK
  8
0
  5
2A1
  0
BLOCK
  8
0
  5
2A3
  2
*X25
 70
    65
 10
446.710075
 20
461.348185
 30
0.0
  3
*X25
  0
LINE
  8
LC-006-005-----0
  6
CONTINUOUS
  5
2A4
 10
451.44869
 20
461.348185
 30
0.0
 11
451.710075
 21
461.60957
 31
0.0
  0
LINE
  8
LC-006-005-----0
  6
CONTINUOUS
  5
2A5
 10
451.165847
 20
461.348185
 30
0.0
 11
451.710075
 21
461.892413
 31
0.0
  0
LINE
  8
LC-006-005-----0
  6
CONTINUOUS
  5
2A6
 10
450.883004
 20
461.348185
 30
0.0
 11
451.710075
 21
462.175256
 31
0.0
  0
LINE
  8
LC-006-005-----0
  6
CONTINUOUS
  5
2A7
 10
450.600161
 20
461.348185
 30
0.0
 11
451.710075
 21
462.458098
 31
0.0
  0
LINE
  8
LC-006-005-----0
  6
CONTINUOUS
  5
2A8
 10
450.317319
 20
461.348185
 30
0.0
 11
451.710075
 21
462.740941
 31
0.0
  0
LINE
  8
LC-006-005-----0
  6
CONTINUOUS
  5
2A9
 10
450.034476
 20
461.348185
 30
0.0
 11
451.710075
 21
463.023784
 31
0.0
  0
LINE
  8
LC-006-005-----0
  6
CONTINUOUS
  5
2AA
 10
449.751633
 20
461.348185
 30
0.0
 11
451.710075
 21
463.306626
 31
0.0
  0
LINE
  8
LC-006-005-----0
  6
CONTINUOUS
  5
2AB
 10
449.468791
 20
461.348185
 30
0.0
 11
451.710075
 21
463.589469
 31
0.0
  0
LINE
  8
LC-006-005-----0
  6
CONTINUOUS
  5
2AC
 10
449.185948
 20
461.348185
 30
0.0
 11
451.710075
 21
463.872312
 31
0.0
  0
LINE
  8
LC-006-005-----0
  6
CONTINUOUS
  5
2AD
 10
448.903105
 20
461.348185
 30
0.0
 11
451.710075
 21
464.155155
 31
0.0
  0
LINE
  8
LC-006-005-----0
  6
CONTINUOUS
  5
2AE
 10
448.620262
 20
461.348185
 30
0.0
 11
451.620262
 21
464.348185
 31
0.0
  0
LINE
  8
LC-006-005-----0
  6
CONTINUOUS
  5
2AF
 10
448.33742
 20
461.348185
 30
0.0
 11
451.33742
 21
464.348185
 31
0.0
  0
LINE
  8
LC-006-005-----0
  6
CONTINUOUS
  5
2B0
 10
448.054577
 20
461.348185
 30
0.0
 11
451.054577
 21
464.348185
 31
0.0
  0
LINE
  8
LC-006-005-----0
  6
CONTINUOUS
  5
2B1
 10
447.771734
 20
461.348185
 30
0.0
 11
450.771734
 21
464.348185
 31
0.0
  0
LINE
  8
LC-006-005-----0
  6
CONTINUOUS
  5
2B2
 10
447.488892
 20
461.348185
 30
0.0
 11
450.488892
 21
464.348185
 31
0.0
  0
LINE
  8
LC-006-005-----0
  6
CONTINUOUS
  5
2B3
 10
447.206049
 20
461.348185
 30
0.0
 11
450.206049
 21
464.348185
 31
0.0
  0
LINE
  8
LC-006-005-----0
  6
CONTINUOUS
  5
2B4
 10
446.923206
 20
461.348185
 30
0.0
 11
449.923206
 21
464.348185
 31
0.0
  0
LINE
  8
LC-006-005-----0
  6
CONTINUOUS
  5
2B5
 10
446.710075
 20
461.417896
 30
0.0
 11
449.640363
 21
464.348185
 31
0.0
  0
LINE
  8
LC-006-005-----0
  6
CONTINUOUS
  5
2B6
 10
446.710075
 20
461.700739
 30
0.0
 11
449.357521
 21
464.348185
 31
0.0
  0
LINE
  8
LC-006-005-----0
  6
CONTINUOUS
  5
2B7
 10
446.710075
 20
461.983582
 30
0.0
 11
449.074678
 21
464.348185
 31
0.0
  0
LINE
  8
LC-006-005-----0
  6
CONTINUOUS
  5
2B8
 10
446.710075
 20
462.266424
 30
0.0
 11
448.791835
 21
464.348185
 31
0.0
  0
LINE
  8
LC-006-005-----0
  6
CONTINUOUS
  5
2B9
 10
446.710075
 20
462.549267
 30
0.0
 11
448.508993
 21
464.348185
 31
0.0
  0
LINE
  8
LC-006-005-----0
  6
CONTINUOUS
  5
2BA
 10
446.710075
 20
462.83211
 30
0.0
 11
448.22615
 21
464.348185
 31
0.0
  0
LINE
  8
LC-006-005-----0
  6
CONTINUOUS
  5
2BB
 10
446.710075
 20
463.114953
 30
0.0
 11
447.943307
 21
464.348185
 31
0.0
  0
LINE
  8
LC-006-005-----0
  6
CONTINUOUS
  5
2BC
 10
446.710075
 20
463.397795
 30
0.0
 11
447.660465
 21
464.348185
 31
0.0
  0
LINE
  8
LC-006-005-----0
  6
CONTINUOUS
  5
2BD
 10
446.710075
 20
463.680638
 30
0.0
 11
447.377622
 21
464.348185
 31
0.0
  0
LINE
  8
LC-006-005-----0
  6
CONTINUOUS
  5
2BE
 10
446.710075
 20
463.963481
 30
0.0
 11
447.094779
 21
464.348185
 31
0.0
  0
LINE
  8
LC-006-005-----0
  6
CONTINUOUS
  5
2BF
 10
446.710075
 20
464.246323
 30
0.0
 11
446.811936
 21
464.348185
 31
0.0
  0
ENDBLK
  8
0
  5
2C0
  0
BLOCK
  8
0
  5
2C2
  2
*X26
 70
    65
 10
436.710075
 20
461.348185
 30
0.0
  3
*X26
  0
LINE
  8
LC-006-005-----0
  6
CONTINUOUS
  5
2C3
 10
441.549195
 20
461.348185
 30
0.0
 11
441.710075
 21
461.509065
 31
0.0
  0
LINE
  8
LC-006-005-----0
  6
CONTINUOUS
  5
2C4
 10
441.266352
 20
461.348185
 30
0.0
 11
441.710075
 21
461.791908
 31
0.0
  0
LINE
  8
LC-006-005-----0
  6
CONTINUOUS
  5
2C5
 10
440.983509
 20
461.348185
 30
0.0
 11
441.710075
 21
462.074751
 31
0.0
  0
LINE
  8
LC-006-005-----0
  6
CONTINUOUS
  5
2C6
 10
440.700667
 20
461.348185
 30
0.0
 11
441.710075
 21
462.357593
 31
0.0
  0
LINE
  8
LC-006-005-----0
  6
CONTINUOUS
  5
2C7
 10
440.417824
 20
461.348185
 30
0.0
 11
441.710075
 21
462.640436
 31
0.0
  0
LINE
  8
LC-006-005-----0
  6
CONTINUOUS
  5
2C8
 10
440.134981
 20
461.348185
 30
0.0
 11
441.710075
 21
462.923279
 31
0.0
  0
LINE
  8
LC-006-005-----0
  6
CONTINUOUS
  5
2C9
 10
439.852138
 20
461.348185
 30
0.0
 11
441.710075
 21
463.206121
 31
0.0
  0
LINE
  8
LC-006-005-----0
  6
CONTINUOUS
  5
2CA
 10
439.569296
 20
461.348185
 30
0.0
 11
441.710075
 21
463.488964
 31
0.0
  0
LINE
  8
LC-006-005-----0
  6
CONTINUOUS
  5
2CB
 10
439.286453
 20
461.348185
 30
0.0
 11
441.710075
 21
463.771807
 31
0.0
  0
LINE
  8
LC-006-005-----0
  6
CONTINUOUS
  5
2CC
 10
439.00361
 20
461.348185
 30
0.0
 11
441.710075
 21
464.05465
 31
0.0
  0
LINE
  8
LC-006-005-----0
  6
CONTINUOUS
  5
2CD
 10
438.720768
 20
461.348185
 30
0.0
 11
441.710075
 21
464.337492
 31
0.0
  0
LINE
  8
LC-006-005-----0
  6
CONTINUOUS
  5
2CE
 10
438.437925
 20
461.348185
 30
0.0
 11
441.437925
 21
464.348185
 31
0.0
  0
LINE
  8
LC-006-005-----0
  6
CONTINUOUS
  5
2CF
 10
438.155082
 20
461.348185
 30
0.0
 11
441.155082
 21
464.348185
 31
0.0
  0
LINE
  8
LC-006-005-----0
  6
CONTINUOUS
  5
2D0
 10
437.872239
 20
461.348185
 30
0.0
 11
440.872239
 21
464.348185
 31
0.0
  0
LINE
  8
LC-006-005-----0
  6
CONTINUOUS
  5
2D1
 10
437.589397
 20
461.348185
 30
0.0
 11
440.589397
 21
464.348185
 31
0.0
  0
LINE
  8
LC-006-005-----0
  6
CONTINUOUS
  5
2D2
 10
437.306554
 20
461.348185
 30
0.0
 11
440.306554
 21
464.348185
 31
0.0
  0
LINE
  8
LC-006-005-----0
  6
CONTINUOUS
  5
2D3
 10
437.023711
 20
461.348185
 30
0.0
 11
440.023711
 21
464.348185
 31
0.0
  0
LINE
  8
LC-006-005-----0
  6
CONTINUOUS
  5
2D4
 10
436.740869
 20
461.348185
 30
0.0
 11
439.740869
 21
464.348185
 31
0.0
  0
LINE
  8
LC-006-005-----0
  6
CONTINUOUS
  5
2D5
 10
436.710075
 20
461.600234
 30
0.0
 11
439.458026
 21
464.348185
 31
0.0
  0
LINE
  8
LC-006-005-----0
  6
CONTINUOUS
  5
2D6
 10
436.710075
 20
461.883077
 30
0.0
 11
439.175183
 21
464.348185
 31
0.0
  0
LINE
  8
LC-006-005-----0
  6
CONTINUOUS
  5
2D7
 10
436.710075
 20
462.165919
 30
0.0
 11
438.89234
 21
464.348185
 31
0.0
  0
LINE
  8
LC-006-005-----0
  6
CONTINUOUS
  5
2D8
 10
436.710075
 20
462.448762
 30
0.0
 11
438.609498
 21
464.348185
 31
0.0
  0
LINE
  8
LC-006-005-----0
  6
CONTINUOUS
  5
2D9
 10
436.710075
 20
462.731605
 30
0.0
 11
438.326655
 21
464.348185
 31
0.0
  0
LINE
  8
LC-006-005-----0
  6
CONTINUOUS
  5
2DA
 10
436.710075
 20
463.014447
 30
0.0
 11
438.043812
 21
464.348185
 31
0.0
  0
LINE
  8
LC-006-005-----0
  6
CONTINUOUS
  5
2DB
 10
436.710075
 20
463.29729
 30
0.0
 11
437.76097
 21
464.348185
 31
0.0
  0
LINE
  8
LC-006-005-----0
  6
CONTINUOUS
  5
2DC
 10
436.710075
 20
463.580133
 30
0.0
 11
437.478127
 21
464.348185
 31
0.0
  0
LINE
  8
LC-006-005-----0
  6
CONTINUOUS
  5
2DD
 10
436.710075
 20
463.862976
 30
0.0
 11
437.195284
 21
464.348185
 31
0.0
  0
LINE
  8
LC-006-005-----0
  6
CONTINUOUS
  5
2DE
 10
436.710075
 20
464.145818
 30
0.0
 11
436.912441
 21
464.348185
 31
0.0
  0
ENDBLK
  8
0
  5
2DF
  0
BLOCK
  8
0
  5
2E1
  2
*X27
 70
    65
 10
426.710075
 20
461.348185
 30
0.0
  3
*X27
  0
LINE
  8
LC-006-005-----0
  6
CONTINUOUS
  5
2E2
 10
431.6497
 20
461.348185
 30
0.0
 11
431.710075
 21
461.40856
 31
0.0
  0
LINE
  8
LC-006-005-----0
  6
CONTINUOUS
  5
2E3
 10
431.366857
 20
461.348185
 30
0.0
 11
431.710075
 21
461.691403
 31
0.0
  0
LINE
  8
LC-006-005-----0
  6
CONTINUOUS
  5
2E4
 10
431.084014
 20
461.348185
 30
0.0
 11
431.710075
 21
461.974245
 31
0.0
  0
LINE
  8
LC-006-005-----0
  6
CONTINUOUS
  5
2E5
 10
430.801172
 20
461.348185
 30
0.0
 11
431.710075
 21
462.257088
 31
0.0
  0
LINE
  8
LC-006-005-----0
  6
CONTINUOUS
  5
2E6
 10
430.518329
 20
461.348185
 30
0.0
 11
431.710075
 21
462.539931
 31
0.0
  0
LINE
  8
LC-006-005-----0
  6
CONTINUOUS
  5
2E7
 10
430.235486
 20
461.348185
 30
0.0
 11
431.710075
 21
462.822774
 31
0.0
  0
LINE
  8
LC-006-005-----0
  6
CONTINUOUS
  5
2E8
 10
429.952643
 20
461.348185
 30
0.0
 11
431.710075
 21
463.105616
 31
0.0
  0
LINE
  8
LC-006-005-----0
  6
CONTINUOUS
  5
2E9
 10
429.669801
 20
461.348185
 30
0.0
 11
431.710075
 21
463.388459
 31
0.0
  0
LINE
  8
LC-006-005-----0
  6
CONTINUOUS
  5
2EA
 10
429.386958
 20
461.348185
 30
0.0
 11
431.710075
 21
463.671302
 31
0.0
  0
LINE
  8
LC-006-005-----0
  6
CONTINUOUS
  5
2EB
 10
429.104115
 20
461.348185
 30
0.0
 11
431.710075
 21
463.954144
 31
0.0
  0
LINE
  8
LC-006-005-----0
  6
CONTINUOUS
  5
2EC
 10
428.821273
 20
461.348185
 30
0.0
 11
431.710075
 21
464.236987
 31
0.0
  0
LINE
  8
LC-006-005-----0
  6
CONTINUOUS
  5
2ED
 10
428.53843
 20
461.348185
 30
0.0
 11
431.53843
 21
464.348185
 31
0.0
  0
LINE
  8
LC-006-005-----0
  6
CONTINUOUS
  5
2EE
 10
428.255587
 20
461.348185
 30
0.0
 11
431.255587
 21
464.348185
 31
0.0
  0
LINE
  8
LC-006-005-----0
  6
CONTINUOUS
  5
2EF
 10
427.972744
 20
461.348185
 30
0.0
 11
430.972744
 21
464.348185
 31
0.0
  0
LINE
  8
LC-006-005-----0
  6
CONTINUOUS
  5
2F0
 10
427.689902
 20
461.348185
 30
0.0
 11
430.689902
 21
464.348185
 31
0.0
  0
LINE
  8
LC-006-005-----0
  6
CONTINUOUS
  5
2F1
 10
427.407059
 20
461.348185
 30
0.0
 11
430.407059
 21
464.348185
 31
0.0
  0
LINE
  8
LC-006-005-----0
  6
CONTINUOUS
  5
2F2
 10
427.124216
 20
461.348185
 30
0.0
 11
430.124216
 21
464.348185
 31
0.0
  0
LINE
  8
LC-006-005-----0
  6
CONTINUOUS
  5
2F3
 10
426.841374
 20
461.348185
 30
0.0
 11
429.841374
 21
464.348185
 31
0.0
  0
LINE
  8
LC-006-005-----0
  6
CONTINUOUS
  5
2F4
 10
426.710075
 20
461.499729
 30
0.0
 11
429.558531
 21
464.348185
 31
0.0
  0
LINE
  8
LC-006-005-----0
  6
CONTINUOUS
  5
2F5
 10
426.710075
 20
461.782572
 30
0.0
 11
429.275688
 21
464.348185
 31
0.0
  0
LINE
  8
LC-006-005-----0
  6
CONTINUOUS
  5
2F6
 10
426.710075
 20
462.065414
 30
0.0
 11
428.992845
 21
464.348185
 31
0.0
  0
LINE
  8
LC-006-005-----0
  6
CONTINUOUS
  5
2F7
 10
426.710075
 20
462.348257
 30
0.0
 11
428.710003
 21
464.348185
 31
0.0
  0
LINE
  8
LC-006-005-----0
  6
CONTINUOUS
  5
2F8
 10
426.710075
 20
462.6311
 30
0.0
 11
428.42716
 21
464.348185
 31
0.0
  0
LINE
  8
LC-006-005-----0
  6
CONTINUOUS
  5
2F9
 10
426.710075
 20
462.913942
 30
0.0
 11
428.144317
 21
464.348185
 31
0.0
  0
LINE
  8
LC-006-005-----0
  6
CONTINUOUS
  5
2FA
 10
426.710075
 20
463.196785
 30
0.0
 11
427.861475
 21
464.348185
 31
0.0
  0
LINE
  8
LC-006-005-----0
  6
CONTINUOUS
  5
2FB
 10
426.710075
 20
463.479628
 30
0.0
 11
427.578632
 21
464.348185
 31
0.0
  0
LINE
  8
LC-006-005-----0
  6
CONTINUOUS
  5
2FC
 10
426.710075
 20
463.762471
 30
0.0
 11
427.295789
 21
464.348185
 31
0.0
  0
LINE
  8
LC-006-005-----0
  6
CONTINUOUS
  5
2FD
 10
426.710075
 20
464.045313
 30
0.0
 11
427.012946
 21
464.348185
 31
0.0
  0
LINE
  8
LC-006-005-----0
  6
CONTINUOUS
  5
2FE
 10
426.710075
 20
464.328156
 30
0.0
 11
426.730104
 21
464.348185
 31
0.0
  0
ENDBLK
  8
0
  5
2FF
  0
BLOCK
  8
0
  5
301
  2
*X28
 70
    65
 10
416.710075
 20
461.348185
 30
0.0
  3
*X28
  0
LINE
  8
LC-006-005-----0
  6
CONTINUOUS
  5
302
 10
421.467362
 20
461.348185
 30
0.0
 11
421.710075
 21
461.590898
 31
0.0
  0
LINE
  8
LC-006-005-----0
  6
CONTINUOUS
  5
303
 10
421.184519
 20
461.348185
 30
0.0
 11
421.710075
 21
461.87374
 31
0.0
  0
LINE
  8
LC-006-005-----0
  6
CONTINUOUS
  5
304
 10
420.901677
 20
461.348185
 30
0.0
 11
421.710075
 21
462.156583
 31
0.0
  0
LINE
  8
LC-006-005-----0
  6
CONTINUOUS
  5
305
 10
420.618834
 20
461.348185
 30
0.0
 11
421.710075
 21
462.439426
 31
0.0
  0
LINE
  8
LC-006-005-----0
  6
CONTINUOUS
  5
306
 10
420.335991
 20
461.348185
 30
0.0
 11
421.710075
 21
462.722269
 31
0.0
  0
LINE
  8
LC-006-005-----0
  6
CONTINUOUS
  5
307
 10
420.053149
 20
461.348185
 30
0.0
 11
421.710075
 21
463.005111
 31
0.0
  0
LINE
  8
LC-006-005-----0
  6
CONTINUOUS
  5
308
 10
419.770306
 20
461.348185
 30
0.0
 11
421.710075
 21
463.287954
 31
0.0
  0
LINE
  8
LC-006-005-----0
  6
CONTINUOUS
  5
309
 10
419.487463
 20
461.348185
 30
0.0
 11
421.710075
 21
463.570797
 31
0.0
  0
LINE
  8
LC-006-005-----0
  6
CONTINUOUS
  5
30A
 10
419.20462
 20
461.348185
 30
0.0
 11
421.710075
 21
463.853639
 31
0.0
  0
LINE
  8
LC-006-005-----0
  6
CONTINUOUS
  5
30B
 10
418.921778
 20
461.348185
 30
0.0
 11
421.710075
 21
464.136482
 31
0.0
  0
LINE
  8
LC-006-005-----0
  6
CONTINUOUS
  5
30C
 10
418.638935
 20
461.348185
 30
0.0
 11
421.638935
 21
464.348185
 31
0.0
  0
LINE
  8
LC-006-005-----0
  6
CONTINUOUS
  5
30D
 10
418.356092
 20
461.348185
 30
0.0
 11
421.356092
 21
464.348185
 31
0.0
  0
LINE
  8
LC-006-005-----0
  6
CONTINUOUS
  5
30E
 10
418.07325
 20
461.348185
 30
0.0
 11
421.07325
 21
464.348185
 31
0.0
  0
LINE
  8
LC-006-005-----0
  6
CONTINUOUS
  5
30F
 10
417.790407
 20
461.348185
 30
0.0
 11
420.790407
 21
464.348185
 31
0.0
  0
LINE
  8
LC-006-005-----0
  6
CONTINUOUS
  5
310
 10
417.507564
 20
461.348185
 30
0.0
 11
420.507564
 21
464.348185
 31
0.0
  0
LINE
  8
LC-006-005-----0
  6
CONTINUOUS
  5
311
 10
417.224721
 20
461.348185
 30
0.0
 11
420.224721
 21
464.348185
 31
0.0
  0
LINE
  8
LC-006-005-----0
  6
CONTINUOUS
  5
312
 10
416.941879
 20
461.348185
 30
0.0
 11
419.941879
 21
464.348185
 31
0.0
  0
LINE
  8
LC-006-005-----0
  6
CONTINUOUS
  5
313
 10
416.710075
 20
461.399224
 30
0.0
 11
419.659036
 21
464.348185
 31
0.0
  0
LINE
  8
LC-006-005-----0
  6
CONTINUOUS
  5
314
 10
416.710075
 20
461.682067
 30
0.0
 11
419.376193
 21
464.348185
 31
0.0
  0
LINE
  8
LC-006-005-----0
  6
CONTINUOUS
  5
315
 10
416.710075
 20
461.964909
 30
0.0
 11
419.093351
 21
464.348185
 31
0.0
  0
LINE
  8
LC-006-005-----0
  6
CONTINUOUS
  5
316
 10
416.710075
 20
462.247752
 30
0.0
 11
418.810508
 21
464.348185
 31
0.0
  0
LINE
  8
LC-006-005-----0
  6
CONTINUOUS
  5
317
 10
416.710075
 20
462.530595
 30
0.0
 11
418.527665
 21
464.348185
 31
0.0
  0
LINE
  8
LC-006-005-----0
  6
CONTINUOUS
  5
318
 10
416.710075
 20
462.813437
 30
0.0
 11
418.244822
 21
464.348185
 31
0.0
  0
LINE
  8
LC-006-005-----0
  6
CONTINUOUS
  5
319
 10
416.710075
 20
463.09628
 30
0.0
 11
417.96198
 21
464.348185
 31
0.0
  0
LINE
  8
LC-006-005-----0
  6
CONTINUOUS
  5
31A
 10
416.710075
 20
463.379123
 30
0.0
 11
417.679137
 21
464.348185
 31
0.0
  0
LINE
  8
LC-006-005-----0
  6
CONTINUOUS
  5
31B
 10
416.710075
 20
463.661966
 30
0.0
 11
417.396294
 21
464.348185
 31
0.0
  0
LINE
  8
LC-006-005-----0
  6
CONTINUOUS
  5
31C
 10
416.710075
 20
463.944808
 30
0.0
 11
417.113452
 21
464.348185
 31
0.0
  0
LINE
  8
LC-006-005-----0
  6
CONTINUOUS
  5
31D
 10
416.710075
 20
464.227651
 30
0.0
 11
416.830609
 21
464.348185
 31
0.0
  0
ENDBLK
  8
0
  5
31E
  0
BLOCK
  8
0
  5
320
  2
*X29
 70
    65
 10
406.710075
 20
461.348185
 30
0.0
  3
*X29
  0
LINE
  8
LC-006-005-----0
  6
CONTINUOUS
  5
321
 10
411.567867
 20
461.348185
 30
0.0
 11
411.710075
 21
461.490393
 31
0.0
  0
LINE
  8
LC-006-005-----0
  6
CONTINUOUS
  5
322
 10
411.285024
 20
461.348185
 30
0.0
 11
411.710075
 21
461.773235
 31
0.0
  0
LINE
  8
LC-006-005-----0
  6
CONTINUOUS
  5
323
 10
411.002182
 20
461.348185
 30
0.0
 11
411.710075
 21
462.056078
 31
0.0
  0
LINE
  8
LC-006-005-----0
  6
CONTINUOUS
  5
324
 10
410.719339
 20
461.348185
 30
0.0
 11
411.710075
 21
462.338921
 31
0.0
  0
LINE
  8
LC-006-005-----0
  6
CONTINUOUS
  5
325
 10
410.436496
 20
461.348185
 30
0.0
 11
411.710075
 21
462.621763
 31
0.0
  0
LINE
  8
LC-006-005-----0
  6
CONTINUOUS
  5
326
 10
410.153654
 20
461.348185
 30
0.0
 11
411.710075
 21
462.904606
 31
0.0
  0
LINE
  8
LC-006-005-----0
  6
CONTINUOUS
  5
327
 10
409.870811
 20
461.348185
 30
0.0
 11
411.710075
 21
463.187449
 31
0.0
  0
LINE
  8
LC-006-005-----0
  6
CONTINUOUS
  5
328
 10
409.587968
 20
461.348185
 30
0.0
 11
411.710075
 21
463.470292
 31
0.0
  0
LINE
  8
LC-006-005-----0
  6
CONTINUOUS
  5
329
 10
409.305125
 20
461.348185
 30
0.0
 11
411.710075
 21
463.753134
 31
0.0
  0
LINE
  8
LC-006-005-----0
  6
CONTINUOUS
  5
32A
 10
409.022283
 20
461.348185
 30
0.0
 11
411.710075
 21
464.035977
 31
0.0
  0
LINE
  8
LC-006-005-----0
  6
CONTINUOUS
  5
32B
 10
408.73944
 20
461.348185
 30
0.0
 11
411.710075
 21
464.31882
 31
0.0
  0
LINE
  8
LC-006-005-----0
  6
CONTINUOUS
  5
32C
 10
408.456597
 20
461.348185
 30
0.0
 11
411.456597
 21
464.348185
 31
0.0
  0
LINE
  8
LC-006-005-----0
  6
CONTINUOUS
  5
32D
 10
408.173755
 20
461.348185
 30
0.0
 11
411.173755
 21
464.348185
 31
0.0
  0
LINE
  8
LC-006-005-----0
  6
CONTINUOUS
  5
32E
 10
407.890912
 20
461.348185
 30
0.0
 11
410.890912
 21
464.348185
 31
0.0
  0
LINE
  8
LC-006-005-----0
  6
CONTINUOUS
  5
32F
 10
407.608069
 20
461.348185
 30
0.0
 11
410.608069
 21
464.348185
 31
0.0
  0
LINE
  8
LC-006-005-----0
  6
CONTINUOUS
  5
330
 10
407.325226
 20
461.348185
 30
0.0
 11
410.325226
 21
464.348185
 31
0.0
  0
LINE
  8
LC-006-005-----0
  6
CONTINUOUS
  5
331
 10
407.042384
 20
461.348185
 30
0.0
 11
410.042384
 21
464.348185
 31
0.0
  0
LINE
  8
LC-006-005-----0
  6
CONTINUOUS
  5
332
 10
406.759541
 20
461.348185
 30
0.0
 11
409.759541
 21
464.348185
 31
0.0
  0
LINE
  8
LC-006-005-----0
  6
CONTINUOUS
  5
333
 10
406.710075
 20
461.581561
 30
0.0
 11
409.476698
 21
464.348185
 31
0.0
  0
LINE
  8
LC-006-005-----0
  6
CONTINUOUS
  5
334
 10
406.710075
 20
461.864404
 30
0.0
 11
409.193856
 21
464.348185
 31
0.0
  0
LINE
  8
LC-006-005-----0
  6
CONTINUOUS
  5
335
 10
406.710075
 20
462.147247
 30
0.0
 11
408.911013
 21
464.348185
 31
0.0
  0
LINE
  8
LC-006-005-----0
  6
CONTINUOUS
  5
336
 10
406.710075
 20
462.43009
 30
0.0
 11
408.62817
 21
464.348185
 31
0.0
  0
LINE
  8
LC-006-005-----0
  6
CONTINUOUS
  5
337
 10
406.710075
 20
462.712932
 30
0.0
 11
408.345327
 21
464.348185
 31
0.0
  0
LINE
  8
LC-006-005-----0
  6
CONTINUOUS
  5
338
 10
406.710075
 20
462.995775
 30
0.0
 11
408.062485
 21
464.348185
 31
0.0
  0
LINE
  8
LC-006-005-----0
  6
CONTINUOUS
  5
339
 10
406.710075
 20
463.278618
 30
0.0
 11
407.779642
 21
464.348185
 31
0.0
  0
LINE
  8
LC-006-005-----0
  6
CONTINUOUS
  5
33A
 10
406.710075
 20
463.56146
 30
0.0
 11
407.496799
 21
464.348185
 31
0.0
  0
LINE
  8
LC-006-005-----0
  6
CONTINUOUS
  5
33B
 10
406.710075
 20
463.844303
 30
0.0
 11
407.213957
 21
464.348185
 31
0.0
  0
LINE
  8
LC-006-005-----0
  6
CONTINUOUS
  5
33C
 10
406.710075
 20
464.127146
 30
0.0
 11
406.931114
 21
464.348185
 31
0.0
  0
ENDBLK
  8
0
  5
33D
  0
BLOCK
  8
0
  5
33F
  2
*X30
 70
    65
 10
386.710075
 20
458.7521
 30
0.0
  3
*X30
  0
LINE
  8
LC-006-005-----0
  6
CONTINUOUS
  5
340
 10
391.479472
 20
460.210251
 30
0.0
 11
391.710075
 21
460.440854
 31
0.0
  0
LINE
  8
LC-006-005-----0
  6
CONTINUOUS
  5
341
 10
391.072076
 20
460.085697
 30
0.0
 11
391.710075
 21
460.723697
 31
0.0
  0
LINE
  8
LC-006-005-----0
  6
CONTINUOUS
  5
342
 10
390.664679
 20
459.961144
 30
0.0
 11
391.710075
 21
461.00654
 31
0.0
  0
LINE
  8
LC-006-005-----0
  6
CONTINUOUS
  5
343
 10
390.257283
 20
459.83659
 30
0.0
 11
391.710075
 21
461.289383
 31
0.0
  0
LINE
  8
LC-006-005-----0
  6
CONTINUOUS
  5
344
 10
389.849887
 20
459.712037
 30
0.0
 11
391.710075
 21
461.572225
 31
0.0
  0
LINE
  8
LC-006-005-----0
  6
CONTINUOUS
  5
345
 10
389.442491
 20
459.587483
 30
0.0
 11
391.710075
 21
461.855068
 31
0.0
  0
LINE
  8
LC-006-005-----0
  6
CONTINUOUS
  5
346
 10
389.035094
 20
459.46293
 30
0.0
 11
391.710075
 21
462.137911
 31
0.0
  0
LINE
  8
LC-006-005-----0
  6
CONTINUOUS
  5
347
 10
388.627698
 20
459.338376
 30
0.0
 11
391.710075
 21
462.420753
 31
0.0
  0
LINE
  8
LC-006-005-----0
  6
CONTINUOUS
  5
348
 10
388.220302
 20
459.213823
 30
0.0
 11
391.710075
 21
462.703596
 31
0.0
  0
LINE
  8
LC-006-005-----0
  6
CONTINUOUS
  5
349
 10
387.812906
 20
459.089269
 30
0.0
 11
391.710075
 21
462.986439
 31
0.0
  0
LINE
  8
LC-006-005-----0
  6
CONTINUOUS
  5
34A
 10
387.405509
 20
458.964716
 30
0.0
 11
391.710075
 21
463.269281
 31
0.0
  0
LINE
  8
LC-006-005-----0
  6
CONTINUOUS
  5
34B
 10
386.998113
 20
458.840162
 30
0.0
 11
391.516641
 21
463.35869
 31
0.0
  0
LINE
  8
LC-006-005-----0
  6
CONTINUOUS
  5
34C
 10
386.710075
 20
458.834967
 30
0.0
 11
391.109245
 21
463.234136
 31
0.0
  0
LINE
  8
LC-006-005-----0
  6
CONTINUOUS
  5
34D
 10
386.710075
 20
459.11781
 30
0.0
 11
390.701848
 21
463.109583
 31
0.0
  0
LINE
  8
LC-006-005-----0
  6
CONTINUOUS
  5
34E
 10
386.710075
 20
459.400652
 30
0.0
 11
390.294452
 21
462.985029
 31
0.0
  0
LINE
  8
LC-006-005-----0
  6
CONTINUOUS
  5
34F
 10
386.710075
 20
459.683495
 30
0.0
 11
389.887056
 21
462.860476
 31
0.0
  0
LINE
  8
LC-006-005-----0
  6
CONTINUOUS
  5
350
 10
386.710075
 20
459.966338
 30
0.0
 11
389.47966
 21
462.735922
 31
0.0
  0
LINE
  8
LC-006-005-----0
  6
CONTINUOUS
  5
351
 10
386.710075
 20
460.24918
 30
0.0
 11
389.072263
 21
462.611369
 31
0.0
  0
LINE
  8
LC-006-005-----0
  6
CONTINUOUS
  5
352
 10
386.710075
 20
460.532023
 30
0.0
 11
388.664867
 21
462.486815
 31
0.0
  0
LINE
  8
LC-006-005-----0
  6
CONTINUOUS
  5
353
 10
386.710075
 20
460.814866
 30
0.0
 11
388.257471
 21
462.362262
 31
0.0
  0
LINE
  8
LC-006-005-----0
  6
CONTINUOUS
  5
354
 10
386.710075
 20
461.097709
 30
0.0
 11
387.850075
 21
462.237708
 31
0.0
  0
LINE
  8
LC-006-005-----0
  6
CONTINUOUS
  5
355
 10
386.710075
 20
461.380551
 30
0.0
 11
387.442679
 21
462.113155
 31
0.0
  0
LINE
  8
LC-006-005-----0
  6
CONTINUOUS
  5
356
 10
386.710075
 20
461.663394
 30
0.0
 11
387.035282
 21
461.988601
 31
0.0
  0
ENDBLK
  8
0
  5
357
  0
BLOCK
  8
0
  5
359
  2
*X31
 70
    65
 10
376.710075
 20
455.694793
 30
0.0
  3
*X31
  0
LINE
  8
LC-006-005-----0
  6
CONTINUOUS
  5
35A
 10
381.701962
 20
457.220966
 30
0.0
 11
381.710075
 21
457.229079
 31
0.0
  0
LINE
  8
LC-006-005-----0
  6
CONTINUOUS
  5
35B
 10
381.294566
 20
457.096413
 30
0.0
 11
381.710075
 21
457.511922
 31
0.0
  0
LINE
  8
LC-006-005-----0
  6
CONTINUOUS
  5
35C
 10
380.887169
 20
456.971859
 30
0.0
 11
381.710075
 21
457.794765
 31
0.0
  0
LINE
  8
LC-006-005-----0
  6
CONTINUOUS
  5
35D
 10
380.479773
 20
456.847306
 30
0.0
 11
381.710075
 21
458.077608
 31
0.0
  0
LINE
  8
LC-006-005-----0
  6
CONTINUOUS
  5
35E
 10
380.072377
 20
456.722752
 30
0.0
 11
381.710075
 21
458.36045
 31
0.0
  0
LINE
  8
LC-006-005-----0
  6
CONTINUOUS
  5
35F
 10
379.664981
 20
456.598198
 30
0.0
 11
381.710075
 21
458.643293
 31
0.0
  0
LINE
  8
LC-006-005-----0
  6
CONTINUOUS
  5
360
 10
379.257584
 20
456.473645
 30
0.0
 11
381.710075
 21
458.926136
 31
0.0
  0
LINE
  8
LC-006-005-----0
  6
CONTINUOUS
  5
361
 10
378.850188
 20
456.349091
 30
0.0
 11
381.710075
 21
459.208978
 31
0.0
  0
LINE
  8
LC-006-005-----0
  6
CONTINUOUS
  5
362
 10
378.442792
 20
456.224538
 30
0.0
 11
381.710075
 21
459.491821
 31
0.0
  0
LINE
  8
LC-006-005-----0
  6
CONTINUOUS
  5
363
 10
378.035396
 20
456.099984
 30
0.0
 11
381.710075
 21
459.774664
 31
0.0
  0
LINE
  8
LC-006-005-----0
  6
CONTINUOUS
  5
364
 10
377.627999
 20
455.975431
 30
0.0
 11
381.710075
 21
460.057507
 31
0.0
  0
LINE
  8
LC-006-005-----0
  6
CONTINUOUS
  5
365
 10
377.220603
 20
455.850877
 30
0.0
 11
381.710075
 21
460.340349
 31
0.0
  0
LINE
  8
LC-006-005-----0
  6
CONTINUOUS
  5
366
 10
376.813207
 20
455.726324
 30
0.0
 11
381.331735
 21
460.244852
 31
0.0
  0
LINE
  8
LC-006-005-----0
  6
CONTINUOUS
  5
367
 10
376.710075
 20
455.906035
 30
0.0
 11
380.924339
 21
460.120298
 31
0.0
  0
LINE
  8
LC-006-005-----0
  6
CONTINUOUS
  5
368
 10
376.710075
 20
456.188877
 30
0.0
 11
380.516942
 21
459.995745
 31
0.0
  0
LINE
  8
LC-006-005-----0
  6
CONTINUOUS
  5
369
 10
376.710075
 20
456.47172
 30
0.0
 11
380.109546
 21
459.871191
 31
0.0
  0
LINE
  8
LC-006-005-----0
  6
CONTINUOUS
  5
36A
 10
376.710075
 20
456.754563
 30
0.0
 11
379.70215
 21
459.746638
 31
0.0
  0
LINE
  8
LC-006-005-----0
  6
CONTINUOUS
  5
36B
 10
376.710075
 20
457.037406
 30
0.0
 11
379.294754
 21
459.622084
 31
0.0
  0
LINE
  8
LC-006-005-----0
  6
CONTINUOUS
  5
36C
 10
376.710075
 20
457.320248
 30
0.0
 11
378.887357
 21
459.49753
 31
0.0
  0
LINE
  8
LC-006-005-----0
  6
CONTINUOUS
  5
36D
 10
376.710075
 20
457.603091
 30
0.0
 11
378.479961
 21
459.372977
 31
0.0
  0
LINE
  8
LC-006-005-----0
  6
CONTINUOUS
  5
36E
 10
376.710075
 20
457.885934
 30
0.0
 11
378.072565
 21
459.248423
 31
0.0
  0
LINE
  8
LC-006-005-----0
  6
CONTINUOUS
  5
36F
 10
376.710075
 20
458.168776
 30
0.0
 11
377.665169
 21
459.12387
 31
0.0
  0
LINE
  8
LC-006-005-----0
  6
CONTINUOUS
  5
370
 10
376.710075
 20
458.451619
 30
0.0
 11
377.257772
 21
458.999316
 31
0.0
  0
LINE
  8
LC-006-005-----0
  6
CONTINUOUS
  5
371
 10
376.710075
 20
458.734462
 30
0.0
 11
376.850376
 21
458.874763
 31
0.0
  0
ENDBLK
  8
0
  5
372
  0
BLOCK
  8
0
  5
374
  2
*X32
 70
    65
 10
366.710075
 20
454.853884
 30
0.0
  3
*X32
  0
LINE
  8
LC-006-005-----0
  6
CONTINUOUS
  5
375
 10
371.698127
 20
454.853884
 30
0.0
 11
371.710075
 21
454.865833
 31
0.0
  0
LINE
  8
LC-006-005-----0
  6
CONTINUOUS
  5
376
 10
371.415284
 20
454.853884
 30
0.0
 11
371.710075
 21
455.148675
 31
0.0
  0
LINE
  8
LC-006-005-----0
  6
CONTINUOUS
  5
377
 10
371.132441
 20
454.853884
 30
0.0
 11
371.710075
 21
455.431518
 31
0.0
  0
LINE
  8
LC-006-005-----0
  6
CONTINUOUS
  5
378
 10
370.849599
 20
454.853884
 30
0.0
 11
371.710075
 21
455.714361
 31
0.0
  0
LINE
  8
LC-006-005-----0
  6
CONTINUOUS
  5
379
 10
370.566756
 20
454.853884
 30
0.0
 11
371.710075
 21
455.997204
 31
0.0
  0
LINE
  8
LC-006-005-----0
  6
CONTINUOUS
  5
37A
 10
370.283913
 20
454.853884
 30
0.0
 11
371.710075
 21
456.280046
 31
0.0
  0
LINE
  8
LC-006-005-----0
  6
CONTINUOUS
  5
37B
 10
370.00107
 20
454.853884
 30
0.0
 11
371.710075
 21
456.562889
 31
0.0
  0
LINE
  8
LC-006-005-----0
  6
CONTINUOUS
  5
37C
 10
369.718228
 20
454.853884
 30
0.0
 11
371.710075
 21
456.845732
 31
0.0
  0
LINE
  8
LC-006-005-----0
  6
CONTINUOUS
  5
37D
 10
369.435385
 20
454.853884
 30
0.0
 11
371.710075
 21
457.128574
 31
0.0
  0
LINE
  8
LC-006-005-----0
  6
CONTINUOUS
  5
37E
 10
369.152542
 20
454.853884
 30
0.0
 11
371.710075
 21
457.411417
 31
0.0
  0
LINE
  8
LC-006-005-----0
  6
CONTINUOUS
  5
37F
 10
368.8697
 20
454.853884
 30
0.0
 11
371.710075
 21
457.69426
 31
0.0
  0
LINE
  8
LC-006-005-----0
  6
CONTINUOUS
  5
380
 10
368.586857
 20
454.853884
 30
0.0
 11
371.586857
 21
457.853884
 31
0.0
  0
LINE
  8
LC-006-005-----0
  6
CONTINUOUS
  5
381
 10
368.304014
 20
454.853884
 30
0.0
 11
371.304014
 21
457.853884
 31
0.0
  0
LINE
  8
LC-006-005-----0
  6
CONTINUOUS
  5
382
 10
368.021171
 20
454.853884
 30
0.0
 11
371.021171
 21
457.853884
 31
0.0
  0
LINE
  8
LC-006-005-----0
  6
CONTINUOUS
  5
383
 10
367.738329
 20
454.853884
 30
0.0
 11
370.738329
 21
457.853884
 31
0.0
  0
LINE
  8
LC-006-005-----0
  6
CONTINUOUS
  5
384
 10
367.455486
 20
454.853884
 30
0.0
 11
370.455486
 21
457.853884
 31
0.0
  0
LINE
  8
LC-006-005-----0
  6
CONTINUOUS
  5
385
 10
367.172643
 20
454.853884
 30
0.0
 11
370.172643
 21
457.853884
 31
0.0
  0
LINE
  8
LC-006-005-----0
  6
CONTINUOUS
  5
386
 10
366.889801
 20
454.853884
 30
0.0
 11
369.889801
 21
457.853884
 31
0.0
  0
LINE
  8
LC-006-005-----0
  6
CONTINUOUS
  5
387
 10
366.710075
 20
454.957002
 30
0.0
 11
369.606958
 21
457.853884
 31
0.0
  0
LINE
  8
LC-006-005-----0
  6
CONTINUOUS
  5
388
 10
366.710075
 20
455.239844
 30
0.0
 11
369.324115
 21
457.853884
 31
0.0
  0
LINE
  8
LC-006-005-----0
  6
CONTINUOUS
  5
389
 10
366.710075
 20
455.522687
 30
0.0
 11
369.041273
 21
457.853884
 31
0.0
  0
LINE
  8
LC-006-005-----0
  6
CONTINUOUS
  5
38A
 10
366.710075
 20
455.80553
 30
0.0
 11
368.75843
 21
457.853884
 31
0.0
  0
LINE
  8
LC-006-005-----0
  6
CONTINUOUS
  5
38B
 10
366.710075
 20
456.088372
 30
0.0
 11
368.475587
 21
457.853884
 31
0.0
  0
LINE
  8
LC-006-005-----0
  6
CONTINUOUS
  5
38C
 10
366.710075
 20
456.371215
 30
0.0
 11
368.192744
 21
457.853884
 31
0.0
  0
LINE
  8
LC-006-005-----0
  6
CONTINUOUS
  5
38D
 10
366.710075
 20
456.654058
 30
0.0
 11
367.909902
 21
457.853884
 31
0.0
  0
LINE
  8
LC-006-005-----0
  6
CONTINUOUS
  5
38E
 10
366.710075
 20
456.936901
 30
0.0
 11
367.627059
 21
457.853884
 31
0.0
  0
LINE
  8
LC-006-005-----0
  6
CONTINUOUS
  5
38F
 10
366.710075
 20
457.219743
 30
0.0
 11
367.344216
 21
457.853884
 31
0.0
  0
LINE
  8
LC-006-005-----0
  6
CONTINUOUS
  5
390
 10
366.710075
 20
457.502586
 30
0.0
 11
367.061374
 21
457.853884
 31
0.0
  0
LINE
  8
LC-006-005-----0
  6
CONTINUOUS
  5
391
 10
366.710075
 20
457.785429
 30
0.0
 11
366.778531
 21
457.853884
 31
0.0
  0
ENDBLK
  8
0
  5
392
  0
BLOCK
  8
0
  5
394
  2
*X33
 70
    65
 10
353.709698
 20
456.353194
 30
0.0
  3
*X33
  0
LINE
  8
LC-006-005-----0
  6
CONTINUOUS
  5
395
 10
355.944031
 20
456.353194
 30
0.0
 11
355.960075
 21
456.369238
 31
0.0
  0
LINE
  8
LC-006-005-----0
  6
CONTINUOUS
  5
396
 10
355.661188
 20
456.353194
 30
0.0
 11
355.960075
 21
456.652081
 31
0.0
  0
LINE
  8
LC-006-005-----0
  6
CONTINUOUS
  5
397
 10
355.378345
 20
456.353194
 30
0.0
 11
355.960075
 21
456.934924
 31
0.0
  0
LINE
  8
LC-006-005-----0
  6
CONTINUOUS
  5
398
 10
355.095503
 20
456.353194
 30
0.0
 11
355.960075
 21
457.217766
 31
0.0
  0
LINE
  8
LC-006-005-----0
  6
CONTINUOUS
  5
399
 10
354.81266
 20
456.353194
 30
0.0
 11
355.960075
 21
457.500609
 31
0.0
  0
LINE
  8
LC-006-005-----0
  6
CONTINUOUS
  5
39A
 10
354.529817
 20
456.353194
 30
0.0
 11
355.960075
 21
457.783452
 31
0.0
  0
LINE
  8
LC-006-005-----0
  6
CONTINUOUS
  5
39B
 10
354.246975
 20
456.353194
 30
0.0
 11
355.960075
 21
458.066294
 31
0.0
  0
LINE
  8
LC-006-005-----0
  6
CONTINUOUS
  5
39C
 10
353.964132
 20
456.353194
 30
0.0
 11
355.960075
 21
458.349137
 31
0.0
  0
LINE
  8
LC-006-005-----0
  6
CONTINUOUS
  5
39D
 10
353.709698
 20
456.381603
 30
0.0
 11
355.960075
 21
458.63198
 31
0.0
  0
LINE
  8
LC-006-005-----0
  6
CONTINUOUS
  5
39E
 10
353.709698
 20
456.664445
 30
0.0
 11
355.960075
 21
458.914823
 31
0.0
  0
LINE
  8
LC-006-005-----0
  6
CONTINUOUS
  5
39F
 10
353.709698
 20
456.947288
 30
0.0
 11
355.960075
 21
459.197665
 31
0.0
  0
LINE
  8
LC-006-005-----0
  6
CONTINUOUS
  5
3A0
 10
353.709698
 20
457.230131
 30
0.0
 11
355.832761
 21
459.353194
 31
0.0
  0
LINE
  8
LC-006-005-----0
  6
CONTINUOUS
  5
3A1
 10
353.709698
 20
457.512973
 30
0.0
 11
355.549918
 21
459.353194
 31
0.0
  0
LINE
  8
LC-006-005-----0
  6
CONTINUOUS
  5
3A2
 10
353.709698
 20
457.795816
 30
0.0
 11
355.267076
 21
459.353194
 31
0.0
  0
LINE
  8
LC-006-005-----0
  6
CONTINUOUS
  5
3A3
 10
353.709698
 20
458.078659
 30
0.0
 11
354.984233
 21
459.353194
 31
0.0
  0
LINE
  8
LC-006-005-----0
  6
CONTINUOUS
  5
3A4
 10
353.709698
 20
458.361502
 30
0.0
 11
354.70139
 21
459.353194
 31
0.0
  0
LINE
  8
LC-006-005-----0
  6
CONTINUOUS
  5
3A5
 10
353.709698
 20
458.644344
 30
0.0
 11
354.418547
 21
459.353194
 31
0.0
  0
LINE
  8
LC-006-005-----0
  6
CONTINUOUS
  5
3A6
 10
353.709698
 20
458.927187
 30
0.0
 11
354.135705
 21
459.353194
 31
0.0
  0
LINE
  8
LC-006-005-----0
  6
CONTINUOUS
  5
3A7
 10
353.709698
 20
459.21003
 30
0.0
 11
353.852862
 21
459.353194
 31
0.0
  0
ENDBLK
  8
0
  5
3A8
  0
BLOCK
  8
0
  5
3AA
  2
*X34
 70
    65
 10
396.710075
 20
461.136156
 30
0.0
  3
*X34
  0
LINE
  8
LC-006-005-----0
  6
CONTINUOUS
  5
3AB
 10
401.616633
 20
461.296445
 30
0.0
 11
401.710075
 21
461.389888
 31
0.0
  0
LINE
  8
LC-006-005-----0
  6
CONTINUOUS
  5
3AC
 10
401.324238
 20
461.286893
 30
0.0
 11
401.710075
 21
461.67273
 31
0.0
  0
LINE
  8
LC-006-005-----0
  6
CONTINUOUS
  5
3AD
 10
401.031843
 20
461.277341
 30
0.0
 11
401.710075
 21
461.955573
 31
0.0
  0
LINE
  8
LC-006-005-----0
  6
CONTINUOUS
  5
3AE
 10
400.739449
 20
461.267789
 30
0.0
 11
401.710075
 21
462.238416
 31
0.0
  0
LINE
  8
LC-006-005-----0
  6
CONTINUOUS
  5
3AF
 10
400.447054
 20
461.258237
 30
0.0
 11
401.710075
 21
462.521258
 31
0.0
  0
LINE
  8
LC-006-005-----0
  6
CONTINUOUS
  5
3B0
 10
400.154659
 20
461.248685
 30
0.0
 11
401.710075
 21
462.804101
 31
0.0
  0
LINE
  8
LC-006-005-----0
  6
CONTINUOUS
  5
3B1
 10
399.862264
 20
461.239133
 30
0.0
 11
401.710075
 21
463.086944
 31
0.0
  0
LINE
  8
LC-006-005-----0
  6
CONTINUOUS
  5
3B2
 10
399.569869
 20
461.229581
 30
0.0
 11
401.710075
 21
463.369787
 31
0.0
  0
LINE
  8
LC-006-005-----0
  6
CONTINUOUS
  5
3B3
 10
399.277475
 20
461.220029
 30
0.0
 11
401.710075
 21
463.652629
 31
0.0
  0
LINE
  8
LC-006-005-----0
  6
CONTINUOUS
  5
3B4
 10
398.98508
 20
461.210476
 30
0.0
 11
401.710075
 21
463.935472
 31
0.0
  0
LINE
  8
LC-006-005-----0
  6
CONTINUOUS
  5
3B5
 10
398.692685
 20
461.200924
 30
0.0
 11
401.710075
 21
464.218315
 31
0.0
  0
LINE
  8
LC-006-005-----0
  6
CONTINUOUS
  5
3B6
 10
398.40029
 20
461.191372
 30
0.0
 11
401.50326
 21
464.294342
 31
0.0
  0
LINE
  8
LC-006-005-----0
  6
CONTINUOUS
  5
3B7
 10
398.107895
 20
461.18182
 30
0.0
 11
401.210865
 21
464.28479
 31
0.0
  0
LINE
  8
LC-006-005-----0
  6
CONTINUOUS
  5
3B8
 10
397.815501
 20
461.172268
 30
0.0
 11
400.91847
 21
464.275238
 31
0.0
  0
LINE
  8
LC-006-005-----0
  6
CONTINUOUS
  5
3B9
 10
397.523106
 20
461.162716
 30
0.0
 11
400.626075
 21
464.265686
 31
0.0
  0
LINE
  8
LC-006-005-----0
  6
CONTINUOUS
  5
3BA
 10
397.230711
 20
461.153164
 30
0.0
 11
400.333681
 21
464.256134
 31
0.0
  0
LINE
  8
LC-006-005-----0
  6
CONTINUOUS
  5
3BB
 10
396.938316
 20
461.143612
 30
0.0
 11
400.041286
 21
464.246582
 31
0.0
  0
LINE
  8
LC-006-005-----0
  6
CONTINUOUS
  5
3BC
 10
396.710075
 20
461.198214
 30
0.0
 11
399.748891
 21
464.237029
 31
0.0
  0
LINE
  8
LC-006-005-----0
  6
CONTINUOUS
  5
3BD
 10
396.710075
 20
461.481056
 30
0.0
 11
399.456496
 21
464.227477
 31
0.0
  0
LINE
  8
LC-006-005-----0
  6
CONTINUOUS
  5
3BE
 10
396.710075
 20
461.763899
 30
0.0
 11
399.164101
 21
464.217925
 31
0.0
  0
LINE
  8
LC-006-005-----0
  6
CONTINUOUS
  5
3BF
 10
396.710075
 20
462.046742
 30
0.0
 11
398.871707
 21
464.208373
 31
0.0
  0
LINE
  8
LC-006-005-----0
  6
CONTINUOUS
  5
3C0
 10
396.710075
 20
462.329585
 30
0.0
 11
398.579312
 21
464.198821
 31
0.0
  0
LINE
  8
LC-006-005-----0
  6
CONTINUOUS
  5
3C1
 10
396.710075
 20
462.612427
 30
0.0
 11
398.286917
 21
464.189269
 31
0.0
  0
LINE
  8
LC-006-005-----0
  6
CONTINUOUS
  5
3C2
 10
396.710075
 20
462.89527
 30
0.0
 11
397.994522
 21
464.179717
 31
0.0
  0
LINE
  8
LC-006-005-----0
  6
CONTINUOUS
  5
3C3
 10
396.710075
 20
463.178113
 30
0.0
 11
397.702127
 21
464.170165
 31
0.0
  0
LINE
  8
LC-006-005-----0
  6
CONTINUOUS
  5
3C4
 10
396.710075
 20
463.460955
 30
0.0
 11
397.409733
 21
464.160613
 31
0.0
  0
LINE
  8
LC-006-005-----0
  6
CONTINUOUS
  5
3C5
 10
396.710075
 20
463.743798
 30
0.0
 11
397.117338
 21
464.151061
 31
0.0
  0
LINE
  8
LC-006-005-----0
  6
CONTINUOUS
  5
3C6
 10
396.710075
 20
464.026641
 30
0.0
 11
396.824943
 21
464.141509
 31
0.0
  0
ENDBLK
  8
0
  5
3C7
  0
BLOCK
  8
0
  5
3C9
  2
BLK5
 70
    64
 10
0.0
 20
0.0
 30
0.0
  3
BLK5
  0
ENDBLK
  8
0
  5
3CA
  0
BLOCK
  8
0
  5
3CC
  2
*X36
 70
    65
 10
203.77425
 20
457.853873
 30
0.0
  3
*X36
  0
LINE
  8
LC-006-005-----0
  6
CONTINUOUS
  5
3CD
 10
230.365464
 20
458.053848
 30
0.0
 11
231.100746
 21
458.789129
 31
0.0
  0
LINE
  8
LC-006-005-----0
  6
CONTINUOUS
  5
3CE
 10
231.224311
 20
458.912695
 30
0.0
 11
231.839889
 21
459.528272
 31
0.0
  0
LINE
  8
LC-006-005-----0
  6
CONTINUOUS
  5
3CF
 10
229.459593
 20
458.56219
 30
0.0
 11
229.651242
 21
458.75384
 31
0.0
  0
LINE
  8
LC-006-005-----0
  6
CONTINUOUS
  5
3D0
 10
230.251246
 20
459.353843
 30
0.0
 11
230.951251
 21
460.053848
 31
0.0
  0
LINE
  8
LC-006-005-----0
  6
CONTINUOUS
  5
3D1
 10
228.837024
 20
459.353834
 30
0.0
 11
229.537028
 21
460.053839
 31
0.0
  0
LINE
  8
LC-006-005-----0
  6
CONTINUOUS
  5
3D2
 10
227.422801
 20
459.353826
 30
0.0
 11
228.122806
 21
460.05383
 31
0.0
  0
LINE
  8
LC-006-005-----0
  6
CONTINUOUS
  5
3D3
 10
226.010283
 20
459.355521
 30
0.0
 11
226.708583
 21
460.053821
 31
0.0
  0
LINE
  8
LC-006-005-----0
  6
CONTINUOUS
  5
3D4
 10
225.231355
 20
459.990806
 30
0.0
 11
225.731355
 21
460.490806
 31
0.0
  0
LINE
  8
LC-006-005-----0
  6
CONTINUOUS
  5
3D5
 10
224.18014
 20
460.353805
 30
0.0
 11
224.880145
 21
461.05381
 31
0.0
  0
LINE
  8
LC-006-005-----0
  6
CONTINUOUS
  5
3D6
 10
222.765918
 20
460.353797
 30
0.0
 11
223.465922
 21
461.053801
 31
0.0
  0
LINE
  8
LC-006-005-----0
  6
CONTINUOUS
  5
3D7
 10
214.280584
 20
460.353743
 30
0.0
 11
214.980588
 21
461.053748
 31
0.0
  0
LINE
  8
LC-006-005-----0
  6
CONTINUOUS
  5
3D8
 10
210.366509
 20
457.853883
 30
0.0
 11
211.066511
 21
458.553884
 31
0.0
  0
LINE
  8
LC-006-005-----0
  6
CONTINUOUS
  5
3D9
 10
208.952293
 20
457.85388
 30
0.0
 11
209.652294
 21
458.553881
 31
0.0
  0
LINE
  8
LC-006-005-----0
  6
CONTINUOUS
  5
3DA
 10
207.538076
 20
457.853876
 30
0.0
 11
208.238077
 21
458.553878
 31
0.0
  0
LINE
  8
LC-006-005-----0
  6
CONTINUOUS
  5
3DB
 10
206.182749
 20
457.912763
 30
0.0
 11
206.823861
 21
458.553875
 31
0.0
  0
LINE
  8
LC-006-005-----0
  6
CONTINUOUS
  5
3DC
 10
205.172827
 20
458.317055
 30
0.0
 11
205.685501
 21
458.829729
 31
0.0
  0
LINE
  8
LC-006-005-----0
  6
CONTINUOUS
  5
3DD
 10
204.427073
 20
458.985515
 30
0.0
 11
204.93015
 21
459.488591
 31
0.0
  0
ENDBLK
  8
0
  5
3DE
  0
BLOCK
  8
0
  5
3E0
  2
BLK6
 70
    64
 10
0.0
 20
0.0
 30
0.0
  3
BLK6
  0
ENDBLK
  8
0
  5
3E1
  0
BLOCK
  8
0
  5
3E3
  2
*X38
 70
    65
 10
345.959579
 20
457.853873
 30
0.0
  3
*X38
  0
LINE
  8
LC-006-005-----0
  6
CONTINUOUS
  5
3E4
 10
371.625606
 20
457.892633
 30
0.0
 11
373.586855
 21
459.853882
 31
0.0
  0
LINE
  8
LC-006-005-----0
  6
CONTINUOUS
  5
3E5
 10
370.172636
 20
457.853877
 30
0.0
 11
370.872634
 21
458.553875
 31
0.0
  0
LINE
  8
LC-006-005-----0
  6
CONTINUOUS
  5
3E6
 10
368.758426
 20
457.85388
 30
0.0
 11
369.458424
 21
458.553878
 31
0.0
  0
LINE
  8
LC-006-005-----0
  6
CONTINUOUS
  5
3E7
 10
367.344215
 20
457.853883
 30
0.0
 11
368.044214
 21
458.553882
 31
0.0
  0
LINE
  8
LC-006-005-----0
  6
CONTINUOUS
  5
3E8
 10
366.185426
 20
458.109308
 30
0.0
 11
366.682878
 21
458.606759
 31
0.0
  0
LINE
  8
LC-006-005-----0
  6
CONTINUOUS
  5
3E9
 10
365.47727
 20
458.815365
 30
0.0
 11
365.972244
 21
459.310339
 31
0.0
  0
LINE
  8
LC-006-005-----0
  6
CONTINUOUS
  5
3EA
 10
364.770163
 20
459.522471
 30
0.0
 11
365.265138
 21
460.017446
 31
0.0
  0
LINE
  8
LC-006-005-----0
  6
CONTINUOUS
  5
3EB
 10
364.063056
 20
460.229578
 30
0.0
 11
364.558031
 21
460.724553
 31
0.0
  0
LINE
  8
LC-006-005-----0
  6
CONTINUOUS
  5
3EC
 10
362.773013
 20
460.353749
 30
0.0
 11
363.473009
 21
461.053745
 31
0.0
  0
LINE
  8
LC-006-005-----0
  6
CONTINUOUS
  5
3ED
 10
354.287785
 20
460.353802
 30
0.0
 11
354.98778
 21
461.053798
 31
0.0
  0
LINE
  8
LC-006-005-----0
  6
CONTINUOUS
  5
3EE
 10
351.873719
 20
459.35395
 30
0.0
 11
353.573576
 21
461.053806
 31
0.0
  0
LINE
  8
LC-006-005-----0
  6
CONTINUOUS
  5
3EF
 10
350.459382
 20
459.353826
 30
0.0
 11
351.159377
 21
460.053821
 31
0.0
  0
LINE
  8
LC-006-005-----0
  6
CONTINUOUS
  5
3F0
 10
347.74519
 20
458.053848
 30
0.0
 11
348.445181
 21
458.753838
 31
0.0
  0
LINE
  8
LC-006-005-----0
  6
CONTINUOUS
  5
3F1
 10
349.045177
 20
459.353835
 30
0.0
 11
349.745172
 21
460.05383
 31
0.0
  0
LINE
  8
LC-006-005-----0
  6
CONTINUOUS
  5
3F2
 10
346.46299
 20
458.185862
 30
0.0
 11
347.030976
 21
458.753847
 31
0.0
  0
LINE
  8
LC-006-005-----0
  6
CONTINUOUS
  5
3F3
 10
347.630972
 20
459.353844
 30
0.0
 11
348.330968
 21
460.053839
 31
0.0
  0
LINE
  8
LC-006-005-----0
  6
CONTINUOUS
  5
3F4
 10
345.960538
 20
459.097622
 30
0.0
 11
346.915804
 21
460.052889
 31
0.0
  0
ENDBLK
  8
0
  5
3F5
  0
BLOCK
  8
0
  5
3F7
  2
BLK7
 70
    64
 10
0.0
 20
0.0
 30
0.0
  3
BLK7
  0
ENDBLK
  8
0
  5
3F8
  0
BLOCK
  8
0
  5
3FA
  2
BLK8
 70
    64
 10
0.0
 20
0.0
 30
0.0
  3
BLK8
  0
ENDBLK
  8
0
  5
3FB
  0
BLOCK
  8
0
  5
3FD
  2
BLK9
 70
    64
 10
0.0
 20
0.0
 30
0.0
  3
BLK9
  0
ENDBLK
  8
0
  5
3FE
  0
BLOCK
  8
0
  5
400
  2
*D42
 70
    65
 10
0.0
 20
0.0
 30
0.0
  3
*D42
  0
LINE
  8
LC-003-003-MTH-0
  6
CONTINUOUS
  5
401
 10
88.959586
 20
464.348185
 30
0.0
 11
88.959586
 21
500.8
 31
0.0
  0
LINE
  8
LC-003-003-MTH-0
  6
CONTINUOUS
  5
402
 10
488.959586
 20
464.348185
 30
0.0
 11
488.959586
 21
500.8
 31
0.0
  0
LINE
  8
LC-004-003-MTG-0
  6
CONTINUOUS
  5
403
 10
88.959586
 20
490.0
 30
0.0
 11
488.959586
 21
490.0
 31
0.0
  0
LINE
  8
LC-002-003-----0
  6
CONTINUOUS
  5
404
 10
106.805593
 20
492.349471
 30
0.0
 11
88.959586
 21
490.0
 31
0.0
  0
LINE
  8
LC-002-003-----0
  6
CONTINUOUS
  5
405
 10
88.959586
 20
490.0
 30
0.0
 11
106.805593
 21
487.650529
 31
0.0
  0
LINE
  8
LC-002-003-----0
  6
CONTINUOUS
  5
406
 10
106.805593
 20
487.650529
 30
0.0
 11
106.805593
 21
492.349471
 31
0.0
  0
LINE
  8
LC-002-003-----0
  6
CONTINUOUS
  5
407
 10
106.845631
 20
491.738609
 30
0.0
 11
93.639586
 21
490.0
 31
0.0
  0
LINE
  8
LC-002-003-----0
  6
CONTINUOUS
  5
408
 10
93.639586
 20
490.0
 30
0.0
 11
106.845631
 21
488.261391
 31
0.0
  0
LINE
  8
LC-002-003-----0
  6
CONTINUOUS
  5
409
 10
106.885669
 20
491.127746
 30
0.0
 11
98.319586
 21
490.0
 31
0.0
  0
LINE
  8
LC-002-003-----0
  6
CONTINUOUS
  5
40A
 10
98.319586
 20
490.0
 30
0.0
 11
106.885669
 21
488.872254
 31
0.0
  0
LINE
  8
LC-002-003-----0
  6
CONTINUOUS
  5
40B
 10
106.925707
 20
490.516884
 30
0.0
 11
102.999586
 21
490.0
 31
0.0
  0
LINE
  8
LC-002-003-----0
  6
CONTINUOUS
  5
40C
 10
102.999586
 20
490.0
 30
0.0
 11
106.925707
 21
489.483116
 31
0.0
  0
LINE
  8
LC-002-003-----0
  6
CONTINUOUS
  5
40D
 10
471.113578
 20
487.650529
 30
0.0
 11
488.959586
 21
490.0
 31
0.0
  0
LINE
  8
LC-002-003-----0
  6
CONTINUOUS
  5
40E
 10
488.959586
 20
490.0
 30
0.0
 11
471.113578
 21
492.349471
 31
0.0
  0
LINE
  8
LC-002-003-----0
  6
CONTINUOUS
  5
40F
 10
471.113578
 20
492.349471
 30
0.0
 11
471.113578
 21
487.650529
 31
0.0
  0
LINE
  8
LC-002-003-----0
  6
CONTINUOUS
  5
410
 10
471.07354
 20
488.261391
 30
0.0
 11
484.279586
 21
490.0
 31
0.0
  0
LINE
  8
LC-002-003-----0
  6
CONTINUOUS
  5
411
 10
484.279586
 20
490.0
 30
0.0
 11
471.07354
 21
491.738609
 31
0.0
  0
LINE
  8
LC-002-003-----0
  6
CONTINUOUS
  5
412
 10
471.033502
 20
488.872254
 30
0.0
 11
479.599586
 21
490.0
 31
0.0
  0
LINE
  8
LC-002-003-----0
  6
CONTINUOUS
  5
413
 10
479.599586
 20
490.0
 30
0.0
 11
471.033502
 21
491.127746
 31
0.0
  0
LINE
  8
LC-002-003-----0
  6
CONTINUOUS
  5
414
 10
470.993464
 20
489.483116
 30
0.0
 11
474.919586
 21
490.0
 31
0.0
  0
LINE
  8
LC-002-003-----0
  6
CONTINUOUS
  5
415
 10
474.919586
 20
490.0
 30
0.0
 11
470.993464
 21
490.516884
 31
0.0
  0
TEXT
  8
LC-002-003-----0
  6
CONTINUOUS
 62
     6
  5
416
 10
267.263493
 20
500.431999
 30
0.0
 40
18.0
  1
Ø420
 51
15.0
  7
LC-TXTSTYLE-150-400-0-0-D0
 72
     1
 11
291.754832
 21
500.431999
 31
0.0
  0
ENDBLK
  8
0
  5
417
  0
ENDSEC
  0
SECTION
  2
ENTITIES
  0
VIEWPORT
  8
LC-000
  5
626
 67
     1
 68
     1
 10
420.0
 20
297.0
 30
0.0
 40
840.0
 41
594.0
 69
     1
1001
ACAD
1000
MVIEW
1002
{
1070
    16
1010
0.0
1020
0.0
1030
0.0
1010
0.0
1020
0.0
1030
1.0
1040
0.0
1040
594.0
1040
420.0
1040
297.0
1040
50.0
1040
0.0
1040
0.0
1070
     0
1070
   100
1070
     1
1070
     1
1070
     0
1070
     0
1070
     0
1070
     0
1040
0.0
1040
0.0
1040
0.0
1040
1.0
1040
1.0
1040
0.0
1040
0.0
1070
     0
1002
{
1002
}
1002
}
  0
VIEWPORT
  8
0
  5
627
 67
     1
 68
     1
 10
0.0
 20
0.0
 30
0.0
 40
0.0
 41
0.0
 69
     1
1001
ACAD
1000
MVIEW
1002
{
1070
    16
1010
0.0
1020
0.0
1030
0.0
1010
0.0
1020
0.0
1030
1.0
1040
0.0
1040
594.0
1040
0.0
1040
0.0
1040
50.0
1040
0.0
1040
0.0
1070
     0
1070
   100
1070
     0
1070
     1
1070
     0
1070
     0
1070
     0
1070
     0
1040
0.0
1040
0.0
1040
0.0
1040
0.5
1040
0.5
1040
0.5
1040
0.5
1070
     0
1002
{
1002
}
1002
}
  0
DIMENSION
  8
0
  5
418
  2
*D0
 10
364.0
 20
341.317314
 30
0.0
 11
364.0
 21
341.317314
 31
0.0
 13
364.960108
 23
441.317658
 33
0.0
 14
310.959586
 24
241.316971
 34
0.0
 50
90.0
  3
LC-DIM-L-0090-02-02
  0
DIMENSION
  8
0
  5
419
  2
*D1
 10
288.959586
 20
196.0
 30
0.0
 11
288.959586
 21
196.0
 31
0.0
  1
DN50
 13
263.959586
 23
244.816971
 33
0.0
 14
313.959586
 24
244.816971
 34
0.0
  3
LC-DIM-L-0090-02-02
  0
INSERT
  8
0
  5
41B
  2
BLK1
 10
0.0
 20
0.0
 30
0.0
  0
INSERT
  8
0
  5
41C
  2
BLK2
 10
0.0
 20
0.0
 30
0.0
  0
INSERT
  8
0
  5
41D
  2
BLK3
 10
0.0
 20
0.0
 30
0.0
  0
INSERT
  8
0
  5
41E
  2
*X5
 10
88.959586
 20
461.348185
 30
0.0
  0
INSERT
  8
0
  5
41F
  2
*X6
 10
96.209096
 20
461.348185
 30
0.0
  0
INSERT
  8
0
  5
420
  2
*X7
 10
106.209096
 20
461.348185
 30
0.0
  0
INSERT
  8
0
  5
421
  2
*X8
 10
116.209096
 20
461.348185
 30
0.0
  0
INSERT
  8
0
  5
422
  2
*X9
 10
126.209096
 20
461.348185
 30
0.0
  0
INSERT
  8
0
  5
423
  2
*X10
 10
136.209096
 20
461.348185
 30
0.0
  0
INSERT
  8
0
  5
424
  2
*X11
 10
146.209096
 20
461.348185
 30
0.0
  0
INSERT
  8
0
  5
425
  2
*X12
 10
156.209096
 20
461.348185
 30
0.0
  0
INSERT
  8
0
  5
426
  2
*X13
 10
166.209096
 20
461.348185
 30
0.0
  0
INSERT
  8
0
  5
427
  2
*X14
 10
186.209096
 20
458.7521
 30
0.0
  0
INSERT
  8
0
  5
428
  2
*X15
 10
196.209096
 20
455.694793
 30
0.0
  0
INSERT
  8
0
  5
429
  2
*X16
 10
206.209096
 20
454.853884
 30
0.0
  0
DIMENSION
  8
0
  5
42A
  2
*D17
 10
406.0
 20
349.573372
 30
0.0
 11
406.0
 21
349.573372
 31
0.0
  1
216
 13
403.959586
 23
457.829773
 33
0.0
 14
310.959586
 24
241.316971
 34
0.0
 50
90.0
  3
LC-DIM-L-0090-02-02
  0
INSERT
  8
0
  5
42B
  2
*X18
 10
221.959096
 20
456.353194
 30
0.0
  0
INSERT
  8
0
  5
42C
  2
*X19
 10
176.209096
 20
461.136156
 30
0.0
  0
INSERT
  8
0
  5
42D
  2
BLK4
 10
0.0
 20
0.0
 30
0.0
  0
INSERT
  8
0
  5
42E
  2
*X21
 10
486.710075
 20
461.348185
 30
0.0
  0
INSERT
  8
0
  5
42F
  2
*X22
 10
476.710075
 20
461.348185
 30
0.0
  0
INSERT
  8
0
  5
430
  2
*X23
 10
466.710075
 20
461.348185
 30
0.0
  0
INSERT
  8
0
  5
431
  2
*X24
 10
456.710075
 20
461.348185
 30
0.0
  0
INSERT
  8
0
  5
432
  2
*X25
 10
446.710075
 20
461.348185
 30
0.0
  0
INSERT
  8
0
  5
433
  2
*X26
 10
436.710075
 20
461.348185
 30
0.0
  0
INSERT
  8
0
  5
434
  2
*X27
 10
426.710075
 20
461.348185
 30
0.0
  0
INSERT
  8
0
  5
435
  2
*X28
 10
416.710075
 20
461.348185
 30
0.0
  0
INSERT
  8
0
  5
436
  2
*X29
 10
406.710075
 20
461.348185
 30
0.0
  0
INSERT
  8
0
  5
437
  2
*X30
 10
386.710075
 20
458.7521
 30
0.0
  0
INSERT
  8
0
  5
438
  2
*X31
 10
376.710075
 20
455.694793
 30
0.0
  0
INSERT
  8
0
  5
439
  2
*X32
 10
366.710075
 20
454.853884
 30
0.0
  0
INSERT
  8
0
  5
43A
  2
*X33
 10
353.709698
 20
456.353194
 30
0.0
  0
INSERT
  8
0
  5
43B
  2
*X34
 10
396.710075
 20
461.136156
 30
0.0
  0
INSERT
  8
0
  5
43C
  2
BLK5
 10
0.0
 20
0.0
 30
0.0
  0
INSERT
  8
0
  5
43D
  2
*X36
 10
203.77425
 20
457.853873
 30
0.0
  0
INSERT
  8
0
  5
43E
  2
BLK6
 10
0.0
 20
0.0
 30
0.0
  0
INSERT
  8
0
  5
43F
  2
*X38
 10
345.959579
 20
457.853873
 30
0.0
  0
INSERT
  8
0
  5
440
  2
BLK7
 10
0.0
 20
0.0
 30
0.0
  0
INSERT
  8
0
  5
441
  2
BLK8
 10
0.0
 20
0.0
 30
0.0
  0
INSERT
  8
0
  5
442
  2
BLK9
 10
0.0
 20
0.0
 30
0.0
  0
DIMENSION
  8
0
  5
443
  2
*D42
 10
288.959586
 20
490.0
 30
0.0
 11
288.959586
 21
490.0
 31
0.0
  1
%%c420
 13
88.959586
 23
464.348185
 33
0.0
 14
488.959586
 24
464.348185
 34
0.0
  3
LC-DIM-L-0090-02-02
  0
LINE
  8
LC-001-002-----0
  6
CONTINUOUS
  5
445
 10
310.959586
 20
241.316971
 30
0.0
 11
313.021764
 21
241.316971
 31
0.0
  0
LINE
  8
LC-001-002-----0
  6
DASHDOT
 62
     2
  5
447
 10
288.959586
 20
462.316971
 30
0.0
 11
288.959586
 21
241.316971
 31
0.0
  0
LINE
  8
LC-001-002-----0
  6
CONTINUOUS
  5
448
 10
361.460075
 20
448.220437
 30
0.0
 11
361.460075
 21
441.353194
 31
0.0
  0
LINE
  8
LC-001-002-----0
  6
CONTINUOUS
  5
449
 10
356.460075
 20
448.221596
 30
0.0
 11
356.460075
 21
441.353194
 31
0.0
  0
LINE
  8
LC-001-002-----0
  6
CONTINUOUS
  5
44A
 10
355.96131
 20
456.353194
 30
0.0
 11
350.70981
 21
456.353194
 31
0.0
  0
LINE
  8
LC-001-002-----0
  6
CONTINUOUS
  5
44B
 10
361.460075
 20
441.353194
 30
0.0
 11
356.460075
 21
441.353194
 31
0.0
  0
ARC
  8
LC-001-002-----0
  6
CONTINUOUS
  5
44C
 10
358.960075
 20
450.353204
 30
0.0
 40
10.0
 50
244.629007
 51
295.370741
  0
LINE
  8
LC-001-002-----0
  6
CONTINUOUS
  5
44D
 10
364.960108
 20
441.317658
 30
0.0
 11
364.960108
 21
448.854575
 31
0.0
  0
LINE
  8
LC-001-002-----0
  6
CONTINUOUS
 62
     2
  5
44E
 10
403.959586
 20
460.339139
 30
0.0
 11
403.959586
 21
459.310916
 31
0.0
  0
LINE
  8
LC-001-002-----0
  6
CONTINUOUS
  5
44F
 10
364.960108
 20
441.317658
 30
0.0
 11
363.244813
 21
441.317662
 31
0.0
  0
LINE
  8
LC-001-002-----0
  6
CONTINUOUS
  5
450
 10
288.959586
 20
241.316971
 30
0.0
 11
264.897408
 21
241.316971
 31
0.0
  0
LINE
  8
LC-001-002-----0
  6
DASHDOT
 62
     2
  5
451
 10
218.959096
 20
464.553775
 30
0.0
 11
218.959096
 21
441.353194
 31
0.0
  0
LINE
  8
LC-001-002-----0
  6
CONTINUOUS
  5
452
 10
205.959064
 20
451.354575
 30
0.0
 11
205.959064
 21
454.854575
 31
0.0
  0
LINE
  8
LC-001-002-----0
  6
DASHDOT
 62
     2
  5
453
 10
358.958943
 20
464.552973
 30
0.0
 11
358.962147
 21
441.353194
 31
0.0
  0
LINE
  8
LC-001-002-----0
  6
CONTINUOUS
  5
454
 10
212.959064
 20
451.354575
 30
0.0
 11
205.959064
 21
451.354575
 31
0.0
  0
LINE
  8
LC-001-002-----0
  6
CONTINUOUS
  5
455
 10
212.959586
 20
454.854575
 30
0.0
 11
212.959586
 21
451.354575
 31
0.0
  0
LINE
  8
LC-001-002-----0
  6
CONTINUOUS
  5
456
 10
354.675298
 20
441.316971
 30
0.0
 11
340.935455
 21
441.316971
 31
0.0
  0
LINE
  8
LC-001-002-----0
  6
CONTINUOUS
  5
457
 10
313.021764
 20
241.316971
 30
0.0
 11
313.959586
 21
244.816971
 31
0.0
  0
LINE
  8
LC-001-002-----0
  6
CONTINUOUS
  5
458
 10
288.959586
 20
241.316971
 30
0.0
 11
310.959586
 21
241.316971
 31
0.0
  0
LINE
  8
LC-001-002-----0
  6
CONTINUOUS
  5
459
 10
403.180644
 20
461.364163
 30
0.0
 11
402.959586
 21
461.364163
 31
0.0
  0
LINE
  8
LC-001-002-----0
  6
CONTINUOUS
  5
45A
 10
183.674656
 20
461.05561
 30
0.0
 11
183.674656
 21
461.05561
 31
0.0
  0
LINE
  8
LC-001-002-----0
  6
CONTINUOUS
  5
45B
 10
363.341622
 20
456.353884
 30
0.0
 11
364.841622
 21
454.853884
 31
0.0
  0
LINE
  8
LC-001-002-----0
  6
CONTINUOUS
  5
45C
 10
373.959586
 20
454.853884
 30
0.0
 11
364.841622
 21
454.853884
 31
0.0
  0
LINE
  8
LC-001-002-----0
  6
CONTINUOUS
  5
45D
 10
313.959576
 20
440.545176
 30
0.0
 11
313.959586
 21
244.816971
 31
0.0
  0
LINE
  8
LC-001-002-----0
  6
CONTINUOUS
  5
45E
 10
236.959586
 20
444.318351
 30
0.0
 11
348.177968
 21
444.318351
 31
0.0
  0
LINE
  8
LC-001-002-----0
  6
CONTINUOUS
  5
45F
 10
263.959586
 20
440.545176
 30
0.0
 11
263.959586
 21
244.816971
 31
0.0
  0
LINE
  8
LC-001-002-----0
  6
CONTINUOUS
  5
460
 10
394.243371
 20
461.055573
 30
0.0
 11
403.180644
 21
461.339423
 31
0.0
  0
LINE
  8
LC-001-002-----0
  6
CONTINUOUS
  5
461
 10
348.959612
 20
444.318351
 30
0.0
 11
340.959586
 21
444.318351
 31
0.0
  0
LINE
  8
LC-001-002-----0
  6
CONTINUOUS
  5
462
 10
310.959544
 20
443.558914
 30
0.0
 11
310.959586
 21
241.316971
 31
0.0
  0
LINE
  8
LC-001-002-----0
  6
CONTINUOUS
  5
463
 10
266.959576
 20
443.532774
 30
0.0
 11
266.959586
 21
241.316971
 31
0.0
  0
LINE
  8
LC-001-002-----0
  6
CONTINUOUS
  5
464
 10
174.718769
 20
464.348185
 30
0.0
 11
88.959586
 21
464.348185
 31
0.0
  0
LINE
  8
LC-001-002-----0
  6
CONTINUOUS
  5
465
 10
184.170788
 20
464.041002
 30
0.0
 11
174.816722
 21
464.346585
 31
0.0
  0
LINE
  8
LC-001-002-----0
  6
CONTINUOUS
  5
466
 10
313.959576
 20
440.545176
 30
0.0
 11
340.935455
 21
441.316971
 31
0.0
  0
LINE
  8
LC-001-002-----0
  6
CONTINUOUS
  5
467
 10
310.959544
 20
443.558914
 30
0.0
 11
341.059586
 21
444.318351
 31
0.0
  0
LINE
  8
LC-001-002-----0
  6
CONTINUOUS
  5
468
 10
264.897408
 20
241.316971
 30
0.0
 11
263.959586
 21
244.816971
 31
0.0
  0
LINE
  8
LC-001-002-----0
  6
CONTINUOUS
  5
469
 10
224.209474
 20
459.353194
 30
0.0
 11
224.209474
 21
456.353194
 31
0.0
  0
LINE
  8
LC-001-002-----0
  6
CONTINUOUS
  5
46A
 10
211.209096
 20
457.853884
 30
0.0
 11
211.209096
 21
454.853884
 31
0.0
  0
LINE
  8
LC-001-002-----0
  6
CONTINUOUS
  5
46B
 10
206.209096
 20
457.853884
 30
0.0
 11
206.209096
 21
454.853884
 31
0.0
  0
LINE
  8
LC-001-002-----0
  6
CONTINUOUS
  5
46C
 10
373.959586
 20
454.853884
 30
0.0
 11
394.244516
 21
461.05561
 31
0.0
  0
LINE
  8
LC-001-002-----0
  6
CONTINUOUS
  5
46D
 10
263.959595
 20
440.545176
 30
0.0
 11
236.957849
 21
441.317711
 31
0.0
  0
LINE
  8
LC-001-002-----0
  6
CONTINUOUS
  5
46E
 10
266.959586
 20
443.532774
 30
0.0
 11
236.859586
 21
444.318351
 31
0.0
  0
LINE
  8
LC-001-002-----0
  6
CONTINUOUS
 62
     2
  5
46F
 10
173.959586
 20
460.339139
 30
0.0
 11
173.959586
 21
459.661734
 31
0.0
  0
LINE
  8
LC-001-002-----0
  6
CONTINUOUS
  5
470
 10
374.57673
 20
451.353884
 30
0.0
 11
394.587815
 21
457.473258
 31
0.0
  0
LINE
  8
LC-001-002-----0
  6
CONTINUOUS
  5
471
 10
266.959586
 20
443.532774
 30
0.0
 11
310.959544
 21
443.558914
 31
0.0
  0
LINE
  8
LC-001-002-----0
  6
CONTINUOUS
  5
472
 10
228.959474
 20
444.318351
 30
0.0
 11
236.859586
 21
444.318351
 31
0.0
  0
LINE
  8
LC-001-002-----0
  6
CONTINUOUS
  5
473
 10
201.209096
 20
458.831868
 30
0.0
 11
201.209096
 21
455.694793
 31
0.0
  0
LINE
  8
LC-001-002-----0
  6
CONTINUOUS
  5
474
 10
196.209096
 20
460.360522
 30
0.0
 11
196.209096
 21
457.223447
 31
0.0
  0
LINE
  8
LC-001-002-----0
  6
CONTINUOUS
  5
475
 10
191.209096
 20
461.889175
 30
0.0
 11
191.209096
 21
458.7521
 31
0.0
  0
LINE
  8
LC-006-005-----0
  6
CONTINUOUS
  5
476
 10
266.772815
 20
241.316971
 30
0.0
 11
266.959586
 21
241.503742
 31
0.0
  0
LINE
  8
LC-001-002-----0
  6
CONTINUOUS
  5
477
 10
174.718769
 20
461.348185
 30
0.0
 11
88.959586
 21
461.348185
 31
0.0
  0
LINE
  8
LC-001-002-----0
  6
CONTINUOUS
  5
478
 10
186.209096
 20
463.417829
 30
0.0
 11
186.209096
 21
460.280753
 31
0.0
  0
LINE
  8
LC-001-002-----0
  6
CONTINUOUS
  5
479
 10
88.959586
 20
464.348185
 30
0.0
 11
88.959586
 21
461.348185
 31
0.0
  0
LINE
  8
LC-001-002-----0
  6
CONTINUOUS
  5
47A
 10
203.511432
 20
451.302207
 30
0.0
 11
183.333742
 21
457.472529
 31
0.0
  0
LINE
  8
LC-001-002-----0
  6
CONTINUOUS
  5
47B
 10
204.407939
 20
457.853884
 30
0.0
 11
184.170788
 21
464.041002
 31
0.0
  0
LINE
  8
LC-001-002-----0
  6
CONTINUOUS
  5
47C
 10
213.334218
 20
459.353194
 30
0.0
 11
211.834909
 21
457.853884
 31
0.0
  0
LINE
  8
LC-001-002-----0
  6
CONTINUOUS
  5
47D
 10
215.959096
 20
459.353194
 30
0.0
 11
213.334218
 21
459.353194
 31
0.0
  0
LINE
  8
LC-001-002-----0
  6
CONTINUOUS
  5
47E
 10
228.959474
 20
459.353194
 30
0.0
 11
221.959096
 21
459.353194
 31
0.0
  0
LINE
  8
LC-001-002-----0
  6
CONTINUOUS
  5
47F
 10
203.959586
 20
454.853884
 30
0.0
 11
183.674656
 21
461.05561
 31
0.0
  0
LINE
  8
LC-001-002-----0
  6
CONTINUOUS
  5
480
 10
183.675801
 20
461.055573
 30
0.0
 11
174.738528
 21
461.339423
 31
0.0
  0
LINE
  8
LC-001-002-----0
  6
CONTINUOUS
  5
481
 10
214.577549
 20
456.353884
 30
0.0
 11
213.077549
 21
454.853884
 31
0.0
  0
LINE
  8
LC-001-002-----0
  6
CONTINUOUS
  5
482
 10
176.209096
 20
464.301098
 30
0.0
 11
176.209096
 21
461.299498
 31
0.0
  0
LINE
  8
LC-001-002-----0
  6
CONTINUOUS
  5
483
 10
236.959586
 20
444.318351
 30
0.0
 11
236.859586
 21
444.318351
 31
0.0
  0
LINE
  8
LC-001-002-----0
  6
CONTINUOUS
  5
484
 10
233.959586
 20
441.317661
 30
0.0
 11
233.959586
 21
441.317635
 31
0.0
  0
LINE
  8
LC-001-002-----0
  6
CONTINUOUS
  5
485
 10
181.209096
 20
464.137756
 30
0.0
 11
181.209096
 21
461.136156
 31
0.0
  0
LINE
  8
LC-001-002-----0
  6
CONTINUOUS
  5
486
 10
171.209096
 20
464.348185
 30
0.0
 11
171.209096
 21
461.348185
 31
0.0
  0
LINE
  8
LC-001-002-----0
  6
CONTINUOUS
  5
487
 10
166.209096
 20
464.348185
 30
0.0
 11
166.209096
 21
461.348185
 31
0.0
  0
LINE
  8
LC-001-002-----0
  6
CONTINUOUS
  5
488
 10
161.209096
 20
464.348185
 30
0.0
 11
161.209096
 21
461.348185
 31
0.0
  0
LINE
  8
LC-001-002-----0
  6
CONTINUOUS
  5
489
 10
156.209096
 20
464.348185
 30
0.0
 11
156.209096
 21
461.348185
 31
0.0
  0
LINE
  8
LC-001-002-----0
  6
CONTINUOUS
  5
48A
 10
151.209096
 20
464.348185
 30
0.0
 11
151.209096
 21
461.348185
 31
0.0
  0
LINE
  8
LC-001-002-----0
  6
CONTINUOUS
  5
48B
 10
146.209096
 20
464.348185
 30
0.0
 11
146.209096
 21
461.348185
 31
0.0
  0
LINE
  8
LC-001-002-----0
  6
CONTINUOUS
  5
48C
 10
141.209096
 20
464.348185
 30
0.0
 11
141.209096
 21
461.348185
 31
0.0
  0
LINE
  8
LC-001-002-----0
  6
CONTINUOUS
  5
48D
 10
343.959586
 20
441.317661
 30
0.0
 11
343.959586
 21
441.317661
 31
0.0
  0
LINE
  8
LC-001-002-----0
  6
CONTINUOUS
  5
48E
 10
340.959586
 20
444.318351
 30
0.0
 11
341.059586
 21
444.318351
 31
0.0
  0
LINE
  8
LC-001-002-----0
  6
CONTINUOUS
  5
48F
 10
205.959064
 20
448.854575
 30
0.0
 11
203.511432
 21
451.302207
 31
0.0
  0
LINE
  8
LC-001-002-----0
  6
CONTINUOUS
  5
490
 10
136.209096
 20
464.348185
 30
0.0
 11
136.209096
 21
461.348185
 31
0.0
  0
LINE
  8
LC-001-002-----0
  6
CONTINUOUS
  5
491
 10
131.209096
 20
464.348185
 30
0.0
 11
131.209096
 21
461.348185
 31
0.0
  0
LINE
  8
LC-001-002-----0
  6
CONTINUOUS
  5
492
 10
212.959064
 20
448.854575
 30
0.0
 11
205.959064
 21
448.854575
 31
0.0
  0
LINE
  8
LC-001-002-----0
  6
CONTINUOUS
  5
493
 10
212.959586
 20
454.853884
 30
0.0
 11
203.959586
 21
454.853884
 31
0.0
  0
ARC
  8
LC-007-002-RND-0
  6
CONTINUOUS
  5
495
 10
401.959586
 20
459.310916
 30
0.0
 40
2.0
 50
360.0
 51
91.898364
  0
LINE
  8
LC-001-002-----0
  6
CONTINUOUS
  5
496
 10
348.959612
 20
456.353194
 30
0.0
 11
350.70981
 21
456.353194
 31
0.0
  0
LINE
  8
LC-001-002-----0
  6
CONTINUOUS
  5
497
 10
363.341622
 20
456.353884
 30
0.0
 11
361.960059
 21
456.353884
 31
0.0
  0
LINE
  8
LC-001-002-----0
  6
CONTINUOUS
  5
498
 10
126.209096
 20
464.348185
 30
0.0
 11
126.209096
 21
461.348185
 31
0.0
  0
LINE
  8
LC-001-002-----0
  6
CONTINUOUS
  5
499
 10
116.209096
 20
464.348185
 30
0.0
 11
116.209096
 21
461.348185
 31
0.0
  0
LINE
  8
LC-001-002-----0
  6
CONTINUOUS
  5
49A
 10
111.209096
 20
464.348185
 30
0.0
 11
111.209096
 21
461.348185
 31
0.0
  0
LINE
  8
LC-001-002-----0
  6
CONTINUOUS
  5
49B
 10
106.209096
 20
464.348185
 30
0.0
 11
106.209096
 21
461.348185
 31
0.0
  0
LINE
  8
LC-001-002-----0
  6
CONTINUOUS
  5
49C
 10
101.209096
 20
464.348185
 30
0.0
 11
101.209096
 21
461.348185
 31
0.0
  0
LINE
  8
LC-001-002-----0
  6
CONTINUOUS
  5
49D
 10
96.209096
 20
464.348185
 30
0.0
 11
96.209096
 21
461.348185
 31
0.0
  0
LINE
  8
LC-001-002-----0
  6
CONTINUOUS
  5
49E
 10
91.209096
 20
464.348185
 30
0.0
 11
91.209096
 21
461.348185
 31
0.0
  0
LINE
  8
LC-001-002-----0
  6
CONTINUOUS
  5
49F
 10
403.959586
 20
460.339139
 30
0.0
 11
403.959586
 21
460.364163
 31
0.0
  0
LINE
  8
LC-001-002-----0
  6
CONTINUOUS
  5
4A0
 10
363.341622
 20
456.353884
 30
0.0
 11
364.841622
 21
454.853884
 31
0.0
  0
LINE
  8
LC-001-002-----0
  6
CONTINUOUS
  5
4A1
 10
348.959612
 20
459.353194
 30
0.0
 11
348.959612
 21
444.318351
 31
0.0
  0
LINE
  8
LC-001-002-----0
  6
CONTINUOUS
  5
4A2
 10
216.459096
 20
441.353194
 30
0.0
 11
221.459096
 21
441.353194
 31
0.0
  0
ARC
  8
LC-001-002-----0
  6
CONTINUOUS
  5
4A3
 10
218.959096
 20
450.353204
 30
0.0
 40
10.0
 50
244.629259
 51
295.370993
  0
LINE
  8
LC-001-002-----0
  6
CONTINUOUS
  5
4A4
 10
221.459096
 20
448.221596
 30
0.0
 11
221.459096
 21
441.353194
 31
0.0
  0
LINE
  8
LC-001-002-----0
  6
CONTINUOUS
  5
4A5
 10
216.459096
 20
448.220437
 30
0.0
 11
216.459096
 21
441.353194
 31
0.0
  0
LINE
  8
LC-001-002-----0
  6
CONTINUOUS
  5
4A6
 10
212.959064
 20
448.854575
 30
0.0
 11
212.959064
 21
441.317658
 31
0.0
  0
LINE
  8
LC-001-002-----0
  6
CONTINUOUS
  5
4A7
 10
212.959064
 20
441.317658
 30
0.0
 11
214.674359
 21
441.317662
 31
0.0
  0
LINE
  8
LC-001-002-----0
  6
CONTINUOUS
  5
4A8
 10
371.960108
 20
448.854575
 30
0.0
 11
374.40774
 21
451.302207
 31
0.0
  0
LINE
  8
LC-001-002-----0
  6
CONTINUOUS
  5
4A9
 10
225.709586
 20
456.353194
 30
0.0
 11
221.957862
 21
456.353194
 31
0.0
  0
LINE
  8
LC-001-002-----0
  6
CONTINUOUS
  5
4AA
 10
364.960108
 20
448.854575
 30
0.0
 11
371.960108
 21
448.854575
 31
0.0
  0
LINE
  8
LC-001-002-----0
  6
CONTINUOUS
  5
4AB
 10
215.959113
 20
456.353194
 30
0.0
 11
214.577549
 21
456.353194
 31
0.0
  0
LINE
  8
LC-001-002-----0
  6
CONTINUOUS
  5
4AC
 10
371.960108
 20
451.354575
 30
0.0
 11
371.960108
 21
454.854575
 31
0.0
  0
LINE
  8
LC-001-002-----0
  6
CONTINUOUS
  5
4AD
 10
364.960108
 20
451.354575
 30
0.0
 11
371.960108
 21
451.354575
 31
0.0
  0
LINE
  8
LC-001-002-----0
  6
CONTINUOUS
  5
4AE
 10
364.959586
 20
454.854575
 30
0.0
 11
364.959586
 21
451.354575
 31
0.0
  0
LINE
  8
LC-001-002-----0
  6
CONTINUOUS
  5
4AF
 10
225.709586
 20
456.353884
 30
0.0
 11
348.959612
 21
456.353884
 31
0.0
  0
LINE
  8
LC-001-002-----0
  6
CONTINUOUS
  5
4B0
 10
213.077549
 20
454.853884
 30
0.0
 11
212.959586
 21
454.853884
 31
0.0
  0
LINE
  8
LC-001-002-----0
  6
CONTINUOUS
  5
4B1
 10
228.959474
 20
456.353884
 30
0.0
 11
228.959474
 21
444.318351
 31
0.0
  0
LINE
  8
LC-001-002-----0
  6
CONTINUOUS
  5
4B2
 10
223.243874
 20
441.317681
 30
0.0
 11
236.957849
 21
441.317711
 31
0.0
  0
LINE
  8
LC-008-004-----0
  6
CONTINUOUS
  5
4B4
 10
212.959125
 20
461.053789
 30
0.0
 11
218.959125
 21
461.053773
 31
0.0
  0
LINE
  8
LC-008-004-----0
  6
CONTINUOUS
  5
4B5
 10
215.959125
 20
461.053781
 30
0.0
 11
215.959093
 21
449.053781
 31
0.0
  0
LINE
  8
LC-008-004-----0
  6
CONTINUOUS
  5
4B6
 10
215.959093
 20
449.053781
 30
0.0
 11
218.959096
 21
444.053745
 31
0.0
  0
LINE
  8
LC-008-004-----0
  6
CONTINUOUS
 62
     2
  5
4B7
 10
216.959121
 20
459.553778
 30
0.0
 11
216.959089
 21
447.553778
 31
0.0
  0
LINE
  8
LC-008-004-----0
  6
CONTINUOUS
  5
4B8
 10
218.159135
 20
464.553775
 30
0.0
 11
218.159131
 21
463.053775
 31
0.0
  0
LINE
  8
LC-008-004-----0
  6
CONTINUOUS
  5
4B9
 10
218.159131
 20
463.053775
 30
0.0
 11
218.959131
 21
463.053773
 31
0.0
  0
LINE
  8
LC-008-004-----0
  6
CONTINUOUS
  5
4BA
 10
215.959093
 20
449.053781
 30
0.0
 11
218.959093
 21
449.053773
 31
0.0
  0
LINE
  8
LC-008-004-----0
  6
CONTINUOUS
  5
4BB
 10
224.957865
 20
461.05286
 30
0.0
 11
218.957865
 21
461.052864
 31
0.0
  0
LINE
  8
LC-008-004-----0
  6
CONTINUOUS
  5
4BC
 10
221.957865
 20
461.052862
 30
0.0
 11
221.957857
 21
449.052862
 31
0.0
  0
LINE
  8
LC-008-004-----0
  6
CONTINUOUS
  5
4BD
 10
221.957857
 20
449.052862
 30
0.0
 11
218.958571
 21
444.05406
 31
0.0
  0
LINE
  8
LC-008-004-----0
  6
CONTINUOUS
 62
     2
  5
4BE
 10
221.957864
 20
459.552862
 30
0.0
 11
215.959121
 21
459.552866
 31
0.0
  0
LINE
  8
LC-008-004-----0
  6
CONTINUOUS
 62
     2
  5
4BF
 10
220.957864
 20
459.552862
 30
0.0
 11
220.957856
 21
447.552863
 31
0.0
  0
LINE
  8
LC-008-004-----0
  6
CONTINUOUS
  5
4C0
 10
219.757867
 20
464.552863
 30
0.0
 11
219.757866
 21
463.052863
 31
0.0
  0
LINE
  8
LC-008-004-----0
  6
CONTINUOUS
  5
4C1
 10
219.757866
 20
463.052863
 30
0.0
 11
218.957866
 21
463.052864
 31
0.0
  0
LINE
  8
LC-008-004-----0
  6
CONTINUOUS
  5
4C2
 10
221.957857
 20
449.052862
 30
0.0
 11
218.957857
 21
449.052864
 31
0.0
  0
LINE
  8
LC-008-004-----0
  6
CONTINUOUS
  5
4C3
 10
212.959132
 20
463.553789
 30
0.0
 11
212.959125
 21
461.053789
 31
0.0
  0
ARC
  8
LC-008-004-----0
  6
CONTINUOUS
  5
4C4
 10
213.959132
 20
463.553786
 30
0.0
 40
1.0
 50
89.99996
 51
179.999846
  0
LINE
  8
LC-008-004-----0
  6
CONTINUOUS
  5
4C5
 10
218.159135
 20
464.553775
 30
0.0
 11
213.959135
 21
464.553786
 31
0.0
  0
LINE
  8
LC-001-002-----0
  6
CONTINUOUS
  5
4C6
 10
204.407939
 20
457.85387
 30
0.0
 11
211.83491
 21
457.853886
 31
0.0
  0
LINE
  8
LC-008-004-----0
  6
CONTINUOUS
  5
4C7
 10
224.957866
 20
463.55286
 30
0.0
 11
224.957865
 21
461.05286
 31
0.0
  0
ARC
  8
LC-008-004-----0
  6
CONTINUOUS
  5
4C8
 10
223.957866
 20
463.55286
 30
0.0
 40
1.0
 50
359.999963
 51
90.000002
  0
LINE
  8
LC-008-004-----0
  6
CONTINUOUS
  5
4C9
 10
219.757867
 20
464.552863
 30
0.0
 11
223.957867
 21
464.55286
 31
0.0
  0
LINE
  8
LC-001-002-----0
  6
CONTINUOUS
  5
4CA
 10
403.200402
 20
464.348185
 30
0.0
 11
488.959586
 21
464.348185
 31
0.0
  0
LINE
  8
LC-001-002-----0
  6
CONTINUOUS
  5
4CB
 10
393.748384
 20
464.041002
 30
0.0
 11
403.102449
 21
464.346585
 31
0.0
  0
LINE
  8
LC-001-002-----0
  6
CONTINUOUS
  5
4CC
 10
353.709698
 20
459.353194
 30
0.0
 11
353.709698
 21
456.353194
 31
0.0
  0
LINE
  8
LC-001-002-----0
  6
CONTINUOUS
  5
4CD
 10
366.710075
 20
457.853884
 30
0.0
 11
366.710075
 21
454.853884
 31
0.0
  0
LINE
  8
LC-001-002-----0
  6
CONTINUOUS
  5
4CE
 10
371.710075
 20
457.853884
 30
0.0
 11
371.710075
 21
454.853884
 31
0.0
  0
LINE
  8
LC-001-002-----0
  6
CONTINUOUS
  5
4CF
 10
376.710075
 20
458.831868
 30
0.0
 11
376.710075
 21
455.694793
 31
0.0
  0
LINE
  8
LC-001-002-----0
  6
CONTINUOUS
  5
4D0
 10
381.710075
 20
460.360522
 30
0.0
 11
381.710075
 21
457.223447
 31
0.0
  0
LINE
  8
LC-001-002-----0
  6
CONTINUOUS
  5
4D1
 10
386.710075
 20
461.889175
 30
0.0
 11
386.710075
 21
458.7521
 31
0.0
  0
LINE
  8
LC-001-002-----0
  6
CONTINUOUS
  5
4D2
 10
403.200402
 20
461.348185
 30
0.0
 11
488.959586
 21
461.348185
 31
0.0
  0
LINE
  8
LC-001-002-----0
  6
CONTINUOUS
  5
4D3
 10
391.710075
 20
463.417829
 30
0.0
 11
391.710075
 21
460.280753
 31
0.0
  0
LINE
  8
LC-001-002-----0
  6
CONTINUOUS
  5
4D4
 10
488.959586
 20
464.348185
 30
0.0
 11
488.959586
 21
461.348185
 31
0.0
  0
LINE
  8
LC-001-002-----0
  6
CONTINUOUS
  5
4D5
 10
373.511233
 20
457.853884
 30
0.0
 11
393.748384
 21
464.041002
 31
0.0
  0
LINE
  8
LC-001-002-----0
  6
CONTINUOUS
  5
4D6
 10
364.584953
 20
459.353194
 30
0.0
 11
366.084263
 21
457.853884
 31
0.0
  0
LINE
  8
LC-001-002-----0
  6
CONTINUOUS
  5
4D7
 10
361.960075
 20
459.353194
 30
0.0
 11
364.584953
 21
459.353194
 31
0.0
  0
LINE
  8
LC-001-002-----0
  6
CONTINUOUS
  5
4D8
 10
348.959698
 20
459.353194
 30
0.0
 11
355.960075
 21
459.353194
 31
0.0
  0
LINE
  8
LC-001-002-----0
  6
CONTINUOUS
  5
4D9
 10
401.710075
 20
464.301098
 30
0.0
 11
401.710075
 21
461.299498
 31
0.0
  0
LINE
  8
LC-001-002-----0
  6
CONTINUOUS
  5
4DA
 10
396.710075
 20
464.137756
 30
0.0
 11
396.710075
 21
461.136156
 31
0.0
  0
LINE
  8
LC-001-002-----0
  6
CONTINUOUS
  5
4DB
 10
406.710075
 20
464.348185
 30
0.0
 11
406.710075
 21
461.348185
 31
0.0
  0
LINE
  8
LC-001-002-----0
  6
CONTINUOUS
  5
4DC
 10
411.710075
 20
464.348185
 30
0.0
 11
411.710075
 21
461.348185
 31
0.0
  0
LINE
  8
LC-001-002-----0
  6
CONTINUOUS
  5
4DD
 10
416.710075
 20
464.348185
 30
0.0
 11
416.710075
 21
461.348185
 31
0.0
  0
LINE
  8
LC-001-002-----0
  6
CONTINUOUS
  5
4DE
 10
421.710075
 20
464.348185
 30
0.0
 11
421.710075
 21
461.348185
 31
0.0
  0
LINE
  8
LC-001-002-----0
  6
CONTINUOUS
  5
4DF
 10
426.710075
 20
464.348185
 30
0.0
 11
426.710075
 21
461.348185
 31
0.0
  0
LINE
  8
LC-001-002-----0
  6
CONTINUOUS
  5
4E0
 10
431.710075
 20
464.348185
 30
0.0
 11
431.710075
 21
461.348185
 31
0.0
  0
LINE
  8
LC-001-002-----0
  6
CONTINUOUS
  5
4E1
 10
436.710075
 20
464.348185
 30
0.0
 11
436.710075
 21
461.348185
 31
0.0
  0
LINE
  8
LC-001-002-----0
  6
CONTINUOUS
  5
4E2
 10
441.710075
 20
464.348185
 30
0.0
 11
441.710075
 21
461.348185
 31
0.0
  0
LINE
  8
LC-001-002-----0
  6
CONTINUOUS
  5
4E3
 10
446.710075
 20
464.348185
 30
0.0
 11
446.710075
 21
461.348185
 31
0.0
  0
LINE
  8
LC-001-002-----0
  6
CONTINUOUS
  5
4E4
 10
451.710075
 20
464.348185
 30
0.0
 11
451.710075
 21
461.348185
 31
0.0
  0
LINE
  8
LC-001-002-----0
  6
CONTINUOUS
  5
4E5
 10
461.710075
 20
464.348185
 30
0.0
 11
461.710075
 21
461.348185
 31
0.0
  0
LINE
  8
LC-001-002-----0
  6
CONTINUOUS
  5
4E6
 10
466.710075
 20
464.348185
 30
0.0
 11
466.710075
 21
461.348185
 31
0.0
  0
LINE
  8
LC-001-002-----0
  6
CONTINUOUS
  5
4E7
 10
471.710075
 20
464.348185
 30
0.0
 11
471.710075
 21
461.348185
 31
0.0
  0
LINE
  8
LC-001-002-----0
  6
CONTINUOUS
  5
4E8
 10
476.710075
 20
464.348185
 30
0.0
 11
476.710075
 21
461.348185
 31
0.0
  0
LINE
  8
LC-001-002-----0
  6
CONTINUOUS
  5
4E9
 10
481.710075
 20
464.348185
 30
0.0
 11
481.710075
 21
461.348185
 31
0.0
  0
LINE
  8
LC-001-002-----0
  6
CONTINUOUS
  5
4EA
 10
486.710075
 20
464.348185
 30
0.0
 11
486.710075
 21
461.348185
 31
0.0
  0
LINE
  8
LC-008-004-----0
  6
CONTINUOUS
  5
4EB
 10
364.960046
 20
461.053789
 30
0.0
 11
358.960046
 21
461.053773
 31
0.0
  0
LINE
  8
LC-008-004-----0
  6
CONTINUOUS
  5
4EC
 10
361.960046
 20
461.053781
 30
0.0
 11
361.960079
 21
449.053781
 31
0.0
  0
LINE
  8
LC-008-004-----0
  6
CONTINUOUS
  5
4ED
 10
361.960079
 20
449.053781
 30
0.0
 11
358.960092
 21
444.053773
 31
0.0
  0
LINE
  8
LC-008-004-----0
  6
CONTINUOUS
 62
     2
  5
4EE
 10
360.96005
 20
459.553778
 30
0.0
 11
360.960083
 21
447.553778
 31
0.0
  0
LINE
  8
LC-008-004-----0
  6
CONTINUOUS
  5
4EF
 10
359.760037
 20
464.553775
 30
0.0
 11
359.760041
 21
463.053775
 31
0.0
  0
LINE
  8
LC-008-004-----0
  6
CONTINUOUS
  5
4F0
 10
359.760041
 20
463.053775
 30
0.0
 11
358.960041
 21
463.053773
 31
0.0
  0
LINE
  8
LC-008-004-----0
  6
CONTINUOUS
  5
4F1
 10
361.960079
 20
449.053781
 30
0.0
 11
358.960079
 21
449.053773
 31
0.0
  0
LINE
  8
LC-008-004-----0
  6
CONTINUOUS
  5
4F2
 10
352.961307
 20
461.05286
 30
0.0
 11
358.961307
 21
461.052864
 31
0.0
  0
LINE
  8
LC-008-004-----0
  6
CONTINUOUS
  5
4F3
 10
355.961307
 20
461.052862
 30
0.0
 11
355.961315
 21
449.052862
 31
0.0
  0
LINE
  8
LC-008-004-----0
  6
CONTINUOUS
  5
4F4
 10
355.961315
 20
449.052862
 30
0.0
 11
358.961318
 21
444.052864
 31
0.0
  0
LINE
  8
LC-008-004-----0
  6
CONTINUOUS
 62
     2
  5
4F5
 10
355.961308
 20
459.552862
 30
0.0
 11
361.96005
 21
459.552866
 31
0.0
  0
LINE
  8
LC-008-004-----0
  6
CONTINUOUS
 62
     2
  5
4F6
 10
356.961308
 20
459.552862
 30
0.0
 11
356.961316
 21
447.552863
 31
0.0
  0
LINE
  8
LC-008-004-----0
  6
CONTINUOUS
  5
4F7
 10
358.161304
 20
464.552863
 30
0.0
 11
358.161305
 21
463.052863
 31
0.0
  0
LINE
  8
LC-008-004-----0
  6
CONTINUOUS
  5
4F8
 10
358.161305
 20
463.052863
 30
0.0
 11
358.961305
 21
463.052864
 31
0.0
  0
LINE
  8
LC-008-004-----0
  6
CONTINUOUS
  5
4F9
 10
355.961315
 20
449.052862
 30
0.0
 11
358.961315
 21
449.052864
 31
0.0
  0
LINE
  8
LC-008-004-----0
  6
CONTINUOUS
  5
4FA
 10
364.960039
 20
463.553789
 30
0.0
 11
364.960046
 21
461.053789
 31
0.0
  0
ARC
  8
LC-008-004-----0
  6
CONTINUOUS
  5
4FB
 10
363.960039
 20
463.553786
 30
0.0
 40
1.0
 50
0.000154
 51
90.00004
  0
LINE
  8
LC-008-004-----0
  6
CONTINUOUS
  5
4FC
 10
359.760037
 20
464.553775
 30
0.0
 11
363.960037
 21
464.553786
 31
0.0
  0
LINE
  8
LC-001-002-----0
  6
CONTINUOUS
  5
4FD
 10
373.511233
 20
457.85387
 30
0.0
 11
366.084261
 21
457.853886
 31
0.0
  0
LINE
  8
LC-008-004-----0
  6
CONTINUOUS
  5
4FE
 10
352.961305
 20
463.55286
 30
0.0
 11
352.961307
 21
461.05286
 31
0.0
  0
ARC
  8
LC-008-004-----0
  6
CONTINUOUS
  5
4FF
 10
353.961305
 20
463.55286
 30
0.0
 40
1.0
 50
89.999998
 51
180.000037
  0
LINE
  8
LC-008-004-----0
  6
CONTINUOUS
  5
500
 10
358.161304
 20
464.552863
 30
0.0
 11
353.961305
 21
464.55286
 31
0.0
  0
ARC
  8
LC-007-002-RND-0
  6
CONTINUOUS
  5
501
 10
213.980279
 20
460.353742
 30
0.0
 40
0.7
 50
90.000358
 51
135.0
  0
ARC
  8
LC-007-002-RND-0
  6
CONTINUOUS
  5
502
 10
224.959101
 20
460.35381
 30
0.0
 40
0.7
 50
36.870027
 51
90.000358
  0
ARC
  8
LC-007-002-RND-0
  6
CONTINUOUS
  5
503
 10
226.059098
 20
460.053817
 30
0.0
 40
0.7
 50
216.870027
 51
270.000358
  0
LINE
  8
LC-001-002-----0
  6
CONTINUOUS
  5
504
 10
226.059098
 20
460.053817
 30
0.0
 11
225.5191
 21
460.773811
 31
0.0
  0
LINE
  8
LC-001-002-----0
  6
CONTINUOUS
  5
505
 10
226.059102
 20
459.353817
 30
0.0
 11
230.959591
 21
459.353848
 31
0.0
  0
LINE
  8
LC-001-002-----0
  6
CONTINUOUS
  5
506
 10
206.771131
 20
457.853875
 30
0.0
 11
211.066218
 21
457.853884
 31
0.0
  0
ARC
  8
LC-007-002-RND-0
  6
CONTINUOUS
  5
507
 10
211.066208
 20
458.853884
 30
0.0
 40
1.0
 50
270.000575
 51
315.0
  0
LINE
  8
LC-001-002-----0
  6
CONTINUOUS
  5
508
 10
213.980279
 20
460.353742
 30
0.0
 11
211.773315
 21
458.146777
 31
0.0
  0
ARC
  8
LC-001-002-----0
  6
CONTINUOUS
  5
509
 10
230.959593
 20
459.053848
 30
0.0
 40
1.0
 50
270.0
 51
90.001713
  0
ARC
  8
LC-001-002-----0
  6
CONTINUOUS
  5
50A
 10
206.77425
 20
460.853873
 30
0.0
 40
3.0
 50
199.47104
 51
270.059811
  0
LINE
  8
LC-001-002-----0
  6
CONTINUOUS
  5
50B
 10
225.499099
 20
459.633816
 30
0.0
 11
224.959101
 21
460.35381
 31
0.0
  0
LINE
  8
LC-001-002-----0
  6
CONTINUOUS
  5
50C
 10
230.959595
 20
458.753848
 30
0.0
 11
229.459593
 21
458.753838
 31
0.0
  0
LINE
  8
LC-001-002-----0
  6
CONTINUOUS
  5
50D
 10
229.459593
 20
458.753838
 30
0.0
 11
229.459593
 21
458.053838
 31
0.0
  0
ARC
  8
LC-001-002-----0
  6
CONTINUOUS
  5
50E
 10
230.959593
 20
459.053848
 30
0.0
 40
0.3
 50
269.991704
 51
90.009012
  0
LINE
  8
LC-001-002-----0
  6
CONTINUOUS
  5
50F
 10
224.959101
 20
460.35381
 30
0.0
 11
222.709101
 21
460.353796
 31
0.0
  0
LINE
  8
LC-001-002-----0
  6
CONTINUOUS
  5
510
 10
222.709101
 20
460.353796
 30
0.0
 11
222.709101
 21
461.053796
 31
0.0
  0
LINE
  8
LC-001-002-----0
  6
CONTINUOUS
  5
511
 10
222.709101
 20
461.053796
 30
0.0
 11
224.959096
 21
461.05381
 31
0.0
  0
LINE
  8
LC-001-002-----0
  6
CONTINUOUS
  5
512
 10
213.980279
 20
460.353742
 30
0.0
 11
215.209101
 21
460.353749
 31
0.0
  0
LINE
  8
LC-001-002-----0
  6
CONTINUOUS
  5
513
 10
215.209101
 20
460.353749
 30
0.0
 11
215.209101
 21
461.053749
 31
0.0
  0
LINE
  8
LC-001-002-----0
  6
CONTINUOUS
  5
514
 10
215.209101
 20
461.053749
 30
0.0
 11
213.980275
 21
461.053742
 31
0.0
  0
ARC
  8
LC-001-002-----0
  6
CONTINUOUS
  5
515
 10
206.77425
 20
460.840338
 30
0.0
 40
2.286465
 50
205.55853
 51
270.0
  0
LINE
  8
LC-001-002-----0
  6
CONTINUOUS
  5
516
 10
213.485304
 20
460.848716
 30
0.0
 11
211.27834
 21
458.641752
 31
0.0
  0
ARC
  8
LC-001-002-----0
  6
CONTINUOUS
  5
517
 10
211.066208
 20
458.853884
 30
0.0
 40
0.3
 50
270.000126
 51
315.0
  0
LINE
  8
LC-001-002-----0
  6
CONTINUOUS
  5
518
 10
211.066209
 20
458.553884
 30
0.0
 11
206.771666
 21
458.553875
 31
0.0
  0
LINE
  8
LC-001-002-----0
  6
CONTINUOUS
  5
519
 10
230.959586
 20
460.053848
 30
0.0
 11
226.059098
 21
460.053817
 31
0.0
  0
LINE
  8
LC-001-002-----0
  6
CONTINUOUS
  5
51A
 10
203.945819
 20
459.853882
 30
0.0
 11
204.711527
 21
459.853882
 31
0.0
  0
LINE
  8
LC-001-002-----0
  6
CONTINUOUS
  5
51B
 10
230.959593
 20
458.053848
 30
0.0
 11
229.459593
 21
458.053848
 31
0.0
  0
ARC
  8
LC-007-002-RND-0
  6
CONTINUOUS
  5
51C
 10
363.938893
 20
460.353742
 30
0.0
 40
0.7
 50
45.0
 51
89.999642
  0
ARC
  8
LC-007-002-RND-0
  6
CONTINUOUS
  5
51D
 10
352.960071
 20
460.35381
 30
0.0
 40
0.7
 50
89.999642
 51
143.129973
  0
ARC
  8
LC-007-002-RND-0
  6
CONTINUOUS
  5
51E
 10
351.860074
 20
460.053817
 30
0.0
 40
0.7
 50
269.999642
 51
323.129973
  0
LINE
  8
LC-001-002-----0
  6
CONTINUOUS
  5
51F
 10
351.860074
 20
460.053817
 30
0.0
 11
352.400072
 21
460.773811
 31
0.0
  0
LINE
  8
LC-001-002-----0
  6
CONTINUOUS
  5
520
 10
351.860069
 20
459.353817
 30
0.0
 11
346.959581
 21
459.353848
 31
0.0
  0
LINE
  8
LC-001-002-----0
  6
CONTINUOUS
  5
521
 10
371.14804
 20
457.853875
 30
0.0
 11
366.852954
 21
457.853884
 31
0.0
  0
ARC
  8
LC-007-002-RND-0
  6
CONTINUOUS
  5
522
 10
366.852964
 20
458.853884
 30
0.0
 40
1.0
 50
225.0
 51
269.999425
  0
LINE
  8
LC-001-002-----0
  6
CONTINUOUS
  5
523
 10
363.938893
 20
460.353742
 30
0.0
 11
366.145857
 21
458.146777
 31
0.0
  0
ARC
  8
LC-001-002-----0
  6
CONTINUOUS
  5
524
 10
346.959579
 20
459.053848
 30
0.0
 40
1.0
 50
89.998287
 51
270.0
  0
ARC
  8
LC-001-002-----0
  6
CONTINUOUS
  5
525
 10
371.144922
 20
460.853873
 30
0.0
 40
3.0
 50
269.940189
 51
340.52896
  0
LINE
  8
LC-001-002-----0
  6
CONTINUOUS
  5
526
 10
352.420073
 20
459.633816
 30
0.0
 11
352.960071
 21
460.35381
 31
0.0
  0
LINE
  8
LC-001-002-----0
  6
CONTINUOUS
  5
527
 10
346.959577
 20
458.753848
 30
0.0
 11
348.459579
 21
458.753838
 31
0.0
  0
LINE
  8
LC-001-002-----0
  6
CONTINUOUS
  5
528
 10
348.459579
 20
458.753838
 30
0.0
 11
348.459579
 21
458.053838
 31
0.0
  0
ARC
  8
LC-001-002-----0
  6
CONTINUOUS
  5
529
 10
346.959579
 20
459.053848
 30
0.0
 40
0.3
 50
89.990988
 51
270.008296
  0
LINE
  8
LC-001-002-----0
  6
CONTINUOUS
  5
52A
 10
352.960071
 20
460.35381
 30
0.0
 11
355.210071
 21
460.353796
 31
0.0
  0
LINE
  8
LC-001-002-----0
  6
CONTINUOUS
  5
52B
 10
355.210071
 20
460.353796
 30
0.0
 11
355.210071
 21
461.053796
 31
0.0
  0
LINE
  8
LC-001-002-----0
  6
CONTINUOUS
  5
52C
 10
355.210071
 20
461.053796
 30
0.0
 11
352.960075
 21
461.05381
 31
0.0
  0
LINE
  8
LC-001-002-----0
  6
CONTINUOUS
  5
52D
 10
363.938893
 20
460.353742
 30
0.0
 11
362.710071
 21
460.353749
 31
0.0
  0
LINE
  8
LC-001-002-----0
  6
CONTINUOUS
  5
52E
 10
362.710071
 20
460.353749
 30
0.0
 11
362.710071
 21
461.053749
 31
0.0
  0
LINE
  8
LC-001-002-----0
  6
CONTINUOUS
  5
52F
 10
362.710071
 20
461.053749
 30
0.0
 11
363.938897
 21
461.053742
 31
0.0
  0
ARC
  8
LC-001-002-----0
  6
CONTINUOUS
  5
530
 10
371.144922
 20
460.840338
 30
0.0
 40
2.286465
 50
270.0
 51
334.44147
  0
LINE
  8
LC-001-002-----0
  6
CONTINUOUS
  5
531
 10
364.433867
 20
460.848716
 30
0.0
 11
366.640832
 21
458.641752
 31
0.0
  0
ARC
  8
LC-001-002-----0
  6
CONTINUOUS
  5
532
 10
366.852964
 20
458.853884
 30
0.0
 40
0.3
 50
225.0
 51
269.999874
  0
LINE
  8
LC-001-002-----0
  6
CONTINUOUS
  5
533
 10
366.852963
 20
458.553884
 30
0.0
 11
371.147506
 21
458.553875
 31
0.0
  0
LINE
  8
LC-001-002-----0
  6
CONTINUOUS
  5
534
 10
346.959585
 20
460.053848
 30
0.0
 11
351.860074
 21
460.053817
 31
0.0
  0
LINE
  8
LC-001-002-----0
  6
CONTINUOUS
  5
535
 10
373.973352
 20
459.853882
 30
0.0
 11
373.207645
 21
459.853882
 31
0.0
  0
LINE
  8
LC-001-002-----0
  6
CONTINUOUS
  5
536
 10
346.959579
 20
458.053848
 30
0.0
 11
348.459579
 21
458.053848
 31
0.0
  0
LINE
  8
LC-006-005-----0
  6
CONTINUOUS
  5
537
 10
264.696011
 20
242.068594
 30
0.0
 11
266.959586
 21
244.332169
 31
0.0
  0
LINE
  8
LC-006-005-----0
  6
CONTINUOUS
  5
538
 10
264.098294
 20
244.299304
 30
0.0
 11
266.959586
 21
247.160596
 31
0.0
  0
LINE
  8
LC-006-005-----0
  6
CONTINUOUS
  5
539
 10
263.959586
 20
246.989023
 30
0.0
 11
266.959585
 21
249.989023
 31
0.0
  0
LINE
  8
LC-006-005-----0
  6
CONTINUOUS
  5
53A
 10
263.959586
 20
249.81745
 30
0.0
 11
266.959585
 21
252.81745
 31
0.0
  0
LINE
  8
LC-006-005-----0
  6
CONTINUOUS
  5
53B
 10
263.959586
 20
252.645877
 30
0.0
 11
266.959585
 21
255.645877
 31
0.0
  0
LINE
  8
LC-006-005-----0
  6
CONTINUOUS
  5
53C
 10
263.959586
 20
255.474304
 30
0.0
 11
266.959585
 21
258.474304
 31
0.0
  0
LINE
  8
LC-001-002-----0
  6
CONTINUOUS
  5
53D
 10
173.959586
 20
459.310916
 30
0.0
 11
173.959586
 21
457.829773
 31
0.0
  0
LINE
  8
LC-006-005-----0
  6
CONTINUOUS
  5
53E
 10
263.959586
 20
258.302732
 30
0.0
 11
266.959585
 21
261.302731
 31
0.0
  0
LINE
  8
LC-006-005-----0
  6
CONTINUOUS
  5
53F
 10
263.959586
 20
261.131159
 30
0.0
 11
266.959585
 21
264.131158
 31
0.0
  0
LINE
  8
LC-006-005-----0
  6
CONTINUOUS
  5
540
 10
263.959586
 20
263.959586
 30
0.0
 11
266.959585
 21
266.959585
 31
0.0
  0
LINE
  8
LC-006-005-----0
  6
CONTINUOUS
  5
541
 10
263.959586
 20
266.788013
 30
0.0
 11
266.959584
 21
269.788012
 31
0.0
  0
LINE
  8
LC-006-005-----0
  6
CONTINUOUS
  5
542
 10
263.959586
 20
269.61644
 30
0.0
 11
266.959584
 21
272.616439
 31
0.0
  0
LINE
  8
LC-006-005-----0
  6
CONTINUOUS
  5
543
 10
263.959586
 20
272.444867
 30
0.0
 11
266.959584
 21
275.444866
 31
0.0
  0
LINE
  8
LC-006-005-----0
  6
CONTINUOUS
  5
544
 10
263.959586
 20
275.273294
 30
0.0
 11
266.959584
 21
278.273293
 31
0.0
  0
LINE
  8
LC-006-005-----0
  6
CONTINUOUS
  5
545
 10
263.959586
 20
278.101721
 30
0.0
 11
266.959584
 21
281.10172
 31
0.0
  0
LINE
  8
LC-006-005-----0
  6
CONTINUOUS
  5
546
 10
263.959586
 20
280.930149
 30
0.0
 11
266.959584
 21
283.930147
 31
0.0
  0
LINE
  8
LC-006-005-----0
  6
CONTINUOUS
  5
547
 10
263.959586
 20
283.758576
 30
0.0
 11
266.959584
 21
286.758574
 31
0.0
  0
LINE
  8
LC-006-005-----0
  6
CONTINUOUS
  5
548
 10
263.959586
 20
286.587003
 30
0.0
 11
266.959584
 21
289.587001
 31
0.0
  0
ARC
  8
LC-007-002-RND-0
  6
CONTINUOUS
  5
549
 10
175.959586
 20
459.310916
 30
0.0
 40
2.0
 50
88.101636
 51
180.0
  0
LINE
  8
LC-001-002-----0
  6
CONTINUOUS
  5
54A
 10
340.959148
 20
444.318351
 30
0.0
 11
348.959193
 21
444.318351
 31
0.0
  0
LINE
  8
LC-001-002-----0
  6
CONTINUOUS
  5
54B
 10
183.333935
 20
457.47316
 30
0.0
 11
173.959586
 21
457.829773
 31
0.0
  0
LINE
  8
LC-001-002-----0
  6
CONTINUOUS
  5
54C
 10
348.959193
 20
444.318351
 30
0.0
 11
348.959193
 21
454.317577
 31
0.0
  0
LINE
  8
LC-006-005-----0
  6
CONTINUOUS
  5
54D
 10
263.959586
 20
289.41543
 30
0.0
 11
266.959583
 21
292.415428
 31
0.0
  0
LINE
  8
LC-006-005-----0
  6
CONTINUOUS
  5
54E
 10
263.959586
 20
292.243857
 30
0.0
 11
266.959583
 21
295.243855
 31
0.0
  0
LINE
  8
LC-006-005-----0
  6
CONTINUOUS
  5
54F
 10
263.959586
 20
295.072284
 30
0.0
 11
266.959583
 21
298.072282
 31
0.0
  0
LINE
  8
LC-006-005-----0
  6
CONTINUOUS
  5
550
 10
263.959586
 20
297.900711
 30
0.0
 11
266.959583
 21
300.900709
 31
0.0
  0
LINE
  8
LC-006-005-----0
  6
CONTINUOUS
  5
551
 10
263.959586
 20
300.729138
 30
0.0
 11
266.959583
 21
303.729136
 31
0.0
  0
LINE
  8
LC-006-005-----0
  6
CONTINUOUS
  5
552
 10
263.959586
 20
303.557566
 30
0.0
 11
266.959583
 21
306.557563
 31
0.0
  0
LINE
  8
LC-006-005-----0
  6
CONTINUOUS
  5
553
 10
263.959586
 20
306.385993
 30
0.0
 11
266.959583
 21
309.385989
 31
0.0
  0
LINE
  8
LC-006-005-----0
  6
CONTINUOUS
  5
554
 10
263.959586
 20
309.21442
 30
0.0
 11
266.959582
 21
312.214416
 31
0.0
  0
LINE
  8
LC-006-005-----0
  6
CONTINUOUS
  5
555
 10
263.959586
 20
312.042847
 30
0.0
 11
266.959582
 21
315.042843
 31
0.0
  0
LINE
  8
LC-006-005-----0
  6
CONTINUOUS
  5
556
 10
263.959586
 20
314.871274
 30
0.0
 11
266.959582
 21
317.87127
 31
0.0
  0
LINE
  8
LC-006-005-----0
  6
CONTINUOUS
  5
557
 10
263.959586
 20
317.699701
 30
0.0
 11
266.959582
 21
320.699697
 31
0.0
  0
LINE
  8
LC-006-005-----0
  6
CONTINUOUS
  5
558
 10
263.959586
 20
320.528128
 30
0.0
 11
266.959582
 21
323.528124
 31
0.0
  0
LINE
  8
LC-006-005-----0
  6
CONTINUOUS
  5
559
 10
263.959586
 20
323.356555
 30
0.0
 11
266.959582
 21
326.356551
 31
0.0
  0
LINE
  8
LC-006-005-----0
  6
CONTINUOUS
  5
55A
 10
263.959586
 20
326.184983
 30
0.0
 11
266.959582
 21
329.184978
 31
0.0
  0
LINE
  8
LC-006-005-----0
  6
CONTINUOUS
  5
55B
 10
263.959586
 20
329.01341
 30
0.0
 11
266.959582
 21
332.013405
 31
0.0
  0
LINE
  8
LC-006-005-----0
  6
CONTINUOUS
  5
55C
 10
263.959586
 20
331.841837
 30
0.0
 11
266.959581
 21
334.841832
 31
0.0
  0
LINE
  8
LC-006-005-----0
  6
CONTINUOUS
  5
55D
 10
263.959586
 20
334.670264
 30
0.0
 11
266.959581
 21
337.670259
 31
0.0
  0
LINE
  8
LC-006-005-----0
  6
CONTINUOUS
  5
55E
 10
263.959586
 20
337.498691
 30
0.0
 11
266.959581
 21
340.498686
 31
0.0
  0
LINE
  8
LC-006-005-----0
  6
CONTINUOUS
  5
55F
 10
263.959586
 20
340.327118
 30
0.0
 11
266.959581
 21
343.327113
 31
0.0
  0
LINE
  8
LC-006-005-----0
  6
CONTINUOUS
  5
560
 10
263.959586
 20
343.155545
 30
0.0
 11
266.959581
 21
346.15554
 31
0.0
  0
LINE
  8
LC-001-002-----0
  6
CONTINUOUS
  5
561
 10
287.459598
 20
444.318351
 30
0.0
 11
290.459573
 21
444.318351
 31
0.0
  0
LINE
  8
LC-006-005-----0
  6
CONTINUOUS
  5
562
 10
263.959586
 20
345.983972
 30
0.0
 11
266.959581
 21
348.983967
 31
0.0
  0
LINE
  8
LC-006-005-----0
  6
CONTINUOUS
  5
563
 10
263.959586
 20
348.8124
 30
0.0
 11
266.959581
 21
351.812394
 31
0.0
  0
LINE
  8
LC-006-005-----0
  6
CONTINUOUS
  5
564
 10
263.959586
 20
351.640827
 30
0.0
 11
266.959581
 21
354.640821
 31
0.0
  0
LINE
  8
LC-001-002-----0
  6
CONTINUOUS
  5
565
 10
228.959979
 20
444.318351
 30
0.0
 11
228.959979
 21
459.353817
 31
0.0
  0
LINE
  8
LC-006-005-----0
  6
CONTINUOUS
  5
566
 10
263.959586
 20
354.469254
 30
0.0
 11
266.95958
 21
357.469248
 31
0.0
  0
LINE
  8
LC-006-005-----0
  6
CONTINUOUS
  5
567
 10
263.959586
 20
357.297681
 30
0.0
 11
266.95958
 21
360.297675
 31
0.0
  0
LINE
  8
LC-006-005-----0
  6
CONTINUOUS
  5
568
 10
263.959586
 20
360.126108
 30
0.0
 11
266.95958
 21
363.126102
 31
0.0
  0
LINE
  8
LC-006-005-----0
  6
CONTINUOUS
  5
569
 10
263.959586
 20
362.954535
 30
0.0
 11
266.95958
 21
365.954529
 31
0.0
  0
LINE
  8
LC-006-005-----0
  6
CONTINUOUS
  5
56A
 10
263.959586
 20
365.782962
 30
0.0
 11
266.95958
 21
368.782956
 31
0.0
  0
LINE
  8
LC-006-005-----0
  6
CONTINUOUS
  5
56B
 10
263.959586
 20
368.611389
 30
0.0
 11
266.95958
 21
371.611383
 31
0.0
  0
LINE
  8
LC-006-005-----0
  6
CONTINUOUS
  5
56C
 10
263.959586
 20
371.439817
 30
0.0
 11
266.95958
 21
374.43981
 31
0.0
  0
LINE
  8
LC-006-005-----0
  6
CONTINUOUS
  5
56D
 10
263.959586
 20
374.268244
 30
0.0
 11
266.959579
 21
377.268237
 31
0.0
  0
LINE
  8
LC-006-005-----0
  6
CONTINUOUS
  5
56E
 10
263.959586
 20
377.096671
 30
0.0
 11
266.959579
 21
380.096664
 31
0.0
  0
LINE
  8
LC-006-005-----0
  6
CONTINUOUS
  5
56F
 10
263.959586
 20
379.925098
 30
0.0
 11
266.959579
 21
382.925091
 31
0.0
  0
LINE
  8
LC-006-005-----0
  6
CONTINUOUS
  5
570
 10
263.959586
 20
382.753525
 30
0.0
 11
266.959579
 21
385.753518
 31
0.0
  0
LINE
  8
LC-006-005-----0
  6
CONTINUOUS
  5
571
 10
263.959586
 20
385.581952
 30
0.0
 11
266.959579
 21
388.581945
 31
0.0
  0
LINE
  8
LC-001-002-----0
  6
CONTINUOUS
  5
572
 10
317.010109
 20
456.353884
 30
0.0
 11
317.010109
 21
459.353884
 31
0.0
  0
LINE
  8
LC-001-002-----0
  6
CONTINUOUS
  5
573
 10
317.010109
 20
459.353884
 30
0.0
 11
321.959599
 21
459.353884
 31
0.0
  0
LINE
  8
LC-001-002-----0
  6
CONTINUOUS
  5
574
 10
321.959599
 20
459.353884
 30
0.0
 11
321.959599
 21
456.353884
 31
0.0
  0
LINE
  8
LC-006-005-----0
  6
CONTINUOUS
  5
575
 10
263.959586
 20
388.410379
 30
0.0
 11
266.959579
 21
391.410372
 31
0.0
  0
LINE
  8
LC-006-005-----0
  6
CONTINUOUS
  5
576
 10
263.959586
 20
391.238806
 30
0.0
 11
266.959579
 21
394.238799
 31
0.0
  0
LINE
  8
LC-006-005-----0
  6
CONTINUOUS
  5
577
 10
263.959586
 20
394.067234
 30
0.0
 11
266.959579
 21
397.067226
 31
0.0
  0
LINE
  8
LC-006-005-----0
  6
CONTINUOUS
  5
578
 10
263.959586
 20
396.895661
 30
0.0
 11
266.959578
 21
399.895653
 31
0.0
  0
LINE
  8
LC-006-005-----0
  6
CONTINUOUS
  5
579
 10
263.959586
 20
399.724088
 30
0.0
 11
266.959578
 21
402.72408
 31
0.0
  0
LINE
  8
LC-006-005-----0
  6
CONTINUOUS
  5
57A
 10
263.959586
 20
402.552515
 30
0.0
 11
266.959578
 21
405.552507
 31
0.0
  0
LINE
  8
LC-006-005-----0
  6
CONTINUOUS
  5
57B
 10
263.959586
 20
405.380942
 30
0.0
 11
266.959578
 21
408.380934
 31
0.0
  0
LINE
  8
LC-006-005-----0
  6
CONTINUOUS
  5
57C
 10
263.959586
 20
408.209369
 30
0.0
 11
266.959578
 21
411.209361
 31
0.0
  0
LINE
  8
LC-006-005-----0
  6
CONTINUOUS
  5
57D
 10
263.959586
 20
411.037796
 30
0.0
 11
266.959578
 21
414.037788
 31
0.0
  0
LINE
  8
LC-006-005-----0
  6
CONTINUOUS
  5
57E
 10
263.959586
 20
413.866223
 30
0.0
 11
266.959578
 21
416.866215
 31
0.0
  0
LINE
  8
LC-006-005-----0
  6
CONTINUOUS
  5
57F
 10
263.959586
 20
416.694651
 30
0.0
 11
266.959577
 21
419.694642
 31
0.0
  0
LINE
  8
LC-006-005-----0
  6
CONTINUOUS
  5
580
 10
263.959586
 20
419.523078
 30
0.0
 11
266.959577
 21
422.523069
 31
0.0
  0
LINE
  8
LC-006-005-----0
  6
CONTINUOUS
  5
581
 10
263.959586
 20
422.351505
 30
0.0
 11
266.959577
 21
425.351496
 31
0.0
  0
LINE
  8
LC-006-005-----0
  6
CONTINUOUS
  5
582
 10
263.959586
 20
425.179932
 30
0.0
 11
266.959577
 21
428.179923
 31
0.0
  0
LINE
  8
LC-006-005-----0
  6
CONTINUOUS
  5
583
 10
263.959586
 20
428.008359
 30
0.0
 11
266.959577
 21
431.00835
 31
0.0
  0
LINE
  8
LC-006-005-----0
  6
CONTINUOUS
  5
584
 10
263.959586
 20
430.836786
 30
0.0
 11
266.959577
 21
433.836777
 31
0.0
  0
LINE
  8
LC-006-005-----0
  6
CONTINUOUS
  5
585
 10
263.959586
 20
433.665213
 30
0.0
 11
266.959577
 21
436.665204
 31
0.0
  0
LINE
  8
LC-006-005-----0
  6
CONTINUOUS
  5
586
 10
263.959586
 20
436.49364
 30
0.0
 11
266.959577
 21
439.493631
 31
0.0
  0
LINE
  8
LC-006-005-----0
  6
CONTINUOUS
  5
587
 10
263.959586
 20
439.322068
 30
0.0
 11
266.959576
 21
442.322058
 31
0.0
  0
LINE
  8
LC-006-005-----0
  6
CONTINUOUS
  5
588
 10
262.398919
 20
440.589828
 30
0.0
 11
265.383012
 21
443.573921
 31
0.0
  0
LINE
  8
LC-006-005-----0
  6
CONTINUOUS
  5
589
 10
259.649164
 20
440.6685
 30
0.0
 11
262.626526
 21
443.645862
 31
0.0
  0
LINE
  8
LC-006-005-----0
  6
CONTINUOUS
  5
58A
 10
256.899409
 20
440.747172
 30
0.0
 11
259.87004
 21
443.717803
 31
0.0
  0
LINE
  8
LC-006-005-----0
  6
CONTINUOUS
  5
58B
 10
254.149654
 20
440.825844
 30
0.0
 11
257.113554
 21
443.789745
 31
0.0
  0
LINE
  8
LC-006-005-----0
  6
CONTINUOUS
  5
58C
 10
251.399899
 20
440.904516
 30
0.0
 11
254.357069
 21
443.861686
 31
0.0
  0
LINE
  8
LC-006-005-----0
  6
CONTINUOUS
  5
58D
 10
248.650143
 20
440.983188
 30
0.0
 11
251.600583
 21
443.933627
 31
0.0
  0
LINE
  8
LC-006-005-----0
  6
CONTINUOUS
  5
58E
 10
245.900388
 20
441.06186
 30
0.0
 11
248.844097
 21
444.005569
 31
0.0
  0
LINE
  8
LC-006-005-----0
  6
CONTINUOUS
  5
58F
 10
243.150633
 20
441.140532
 30
0.0
 11
246.087611
 21
444.07751
 31
0.0
  0
LINE
  8
LC-006-005-----0
  6
CONTINUOUS
  5
590
 10
240.400878
 20
441.219204
 30
0.0
 11
243.331125
 21
444.149451
 31
0.0
  0
LINE
  8
LC-006-005-----0
  6
CONTINUOUS
  5
591
 10
237.651123
 20
441.297876
 30
0.0
 11
240.57464
 21
444.221393
 31
0.0
  0
LINE
  8
LC-006-005-----0
  6
CONTINUOUS
  5
592
 10
234.842526
 20
441.317706
 30
0.0
 11
237.818154
 21
444.293334
 31
0.0
  0
LINE
  8
LC-006-005-----0
  6
CONTINUOUS
  5
593
 10
232.014093
 20
441.3177
 30
0.0
 11
235.014744
 21
444.318351
 31
0.0
  0
LINE
  8
LC-006-005-----0
  6
CONTINUOUS
  5
594
 10
229.185659
 20
441.317694
 30
0.0
 11
232.186317
 21
444.318351
 31
0.0
  0
LINE
  8
LC-006-005-----0
  6
CONTINUOUS
  5
595
 10
226.357226
 20
441.317687
 30
0.0
 11
229.35789
 21
444.318351
 31
0.0
  0
LINE
  8
LC-006-005-----0
  6
CONTINUOUS
  5
596
 10
223.528793
 20
441.317681
 30
0.0
 11
228.959474
 21
446.748362
 31
0.0
  0
LINE
  8
LC-006-005-----0
  6
CONTINUOUS
  5
597
 10
219.768716
 20
440.386032
 30
0.0
 11
220.735878
 21
441.353194
 31
0.0
  0
LINE
  8
LC-006-005-----0
  6
CONTINUOUS
  5
598
 10
221.459096
 20
442.076412
 30
0.0
 11
228.959474
 21
449.576789
 31
0.0
  0
LINE
  8
LC-006-005-----0
  6
CONTINUOUS
  5
599
 10
217.0847
 20
440.530443
 30
0.0
 11
217.907451
 21
441.353194
 31
0.0
  0
LINE
  8
LC-006-005-----0
  6
CONTINUOUS
  5
59A
 10
221.459096
 20
444.904839
 30
0.0
 11
228.959474
 21
452.405217
 31
0.0
  0
LINE
  8
LC-006-005-----0
  6
CONTINUOUS
  5
59B
 10
214.927665
 20
441.201835
 30
0.0
 11
216.459096
 21
442.733266
 31
0.0
  0
LINE
  8
LC-006-005-----0
  6
CONTINUOUS
  5
59C
 10
221.459096
 20
447.733266
 30
0.0
 11
228.959474
 21
455.233644
 31
0.0
  0
LINE
  8
LC-006-005-----0
  6
CONTINUOUS
  5
59D
 10
212.959064
 20
442.061661
 30
0.0
 11
216.459096
 21
445.561694
 31
0.0
  0
LINE
  8
LC-006-005-----0
  6
CONTINUOUS
  5
59E
 10
221.957858
 20
451.060455
 30
0.0
 11
227.251287
 21
456.353884
 31
0.0
  0
LINE
  8
LC-006-005-----0
  6
CONTINUOUS
  5
59F
 10
212.959064
 20
444.890088
 30
0.0
 11
216.395465
 21
448.32649
 31
0.0
  0
LINE
  8
LC-006-005-----0
  6
CONTINUOUS
  5
5A0
 10
221.95786
 20
453.888884
 30
0.0
 11
224.42217
 21
456.353194
 31
0.0
  0
LINE
  8
LC-006-005-----0
  6
CONTINUOUS
  5
5A1
 10
212.959064
 20
447.718515
 30
0.0
 11
215.959098
 21
450.718549
 31
0.0
  0
LINE
  8
LC-006-005-----0
  6
CONTINUOUS
  5
5A2
 10
211.266696
 20
448.854575
 30
0.0
 11
215.959105
 21
453.546984
 31
0.0
  0
LINE
  8
LC-006-005-----0
  6
CONTINUOUS
  5
5A3
 10
208.438269
 20
448.854575
 30
0.0
 11
210.938269
 21
451.354575
 31
0.0
  0
LINE
  8
LC-006-005-----0
  6
CONTINUOUS
  5
5A4
 10
212.959586
 20
453.375891
 30
0.0
 11
215.936888
 21
456.353194
 31
0.0
  0
LINE
  8
LC-006-005-----0
  6
CONTINUOUS
  5
5A5
 10
205.784453
 20
449.029186
 30
0.0
 11
208.109842
 21
451.354575
 31
0.0
  0
LINE
  8
LC-006-005-----0
  6
CONTINUOUS
  5
5A6
 10
204.370239
 20
450.443399
 30
0.0
 11
205.959064
 21
452.032224
 31
0.0
  0
LINE
  8
LC-006-005-----0
  6
CONTINUOUS
  5
5A7
 10
202.660756
 20
451.562343
 30
0.0
 11
205.952297
 21
454.853884
 31
0.0
  0
LINE
  8
LC-006-005-----0
  6
CONTINUOUS
  5
5A8
 10
200.494706
 20
452.22472
 30
0.0
 11
203.319549
 21
455.049563
 31
0.0
  0
LINE
  8
LC-006-005-----0
  6
CONTINUOUS
  5
5A9
 10
198.328655
 20
452.887096
 30
0.0
 11
201.153385
 21
455.711826
 31
0.0
  0
LINE
  8
LC-006-005-----0
  6
CONTINUOUS
  5
5AA
 10
196.162604
 20
453.549473
 30
0.0
 11
198.987221
 21
456.374089
 31
0.0
  0
LINE
  8
LC-006-005-----0
  6
CONTINUOUS
  5
5AB
 10
193.996554
 20
454.211849
 30
0.0
 11
196.821056
 21
457.036352
 31
0.0
  0
LINE
  8
LC-006-005-----0
  6
CONTINUOUS
  5
5AC
 10
191.830503
 20
454.874226
 30
0.0
 11
194.654892
 21
457.698615
 31
0.0
  0
LINE
  8
LC-006-005-----0
  6
CONTINUOUS
  5
5AD
 10
189.664453
 20
455.536602
 30
0.0
 11
192.488728
 21
458.360877
 31
0.0
  0
LINE
  8
LC-006-005-----0
  6
CONTINUOUS
  5
5AE
 10
187.498402
 20
456.198979
 30
0.0
 11
190.322564
 21
459.02314
 31
0.0
  0
LINE
  8
LC-006-005-----0
  6
CONTINUOUS
  5
5AF
 10
185.332352
 20
456.861356
 30
0.0
 11
188.156399
 21
459.685403
 31
0.0
  0
LINE
  8
LC-006-005-----0
  6
CONTINUOUS
  5
5B0
 10
183.123726
 20
457.481157
 30
0.0
 11
185.990235
 21
460.347666
 31
0.0
  0
LINE
  8
LC-006-005-----0
  6
CONTINUOUS
  5
5B1
 10
180.398953
 20
457.584811
 30
0.0
 11
183.824071
 21
461.009929
 31
0.0
  0
LINE
  8
LC-006-005-----0
  6
CONTINUOUS
  5
5B2
 10
177.67418
 20
457.688465
 30
0.0
 11
181.122385
 21
461.13667
 31
0.0
  0
LINE
  8
LC-006-005-----0
  6
CONTINUOUS
  5
5B3
 10
174.949407
 20
457.792119
 30
0.0
 11
178.381024
 21
461.223737
 31
0.0
  0
LINE
  8
LC-006-005-----0
  6
CONTINUOUS
  5
5B4
 10
173.990594
 20
459.661734
 30
0.0
 11
175.639663
 21
461.310803
 31
0.0
  0
LINE
  8
LC-001-002-----0
  6
CONTINUOUS
  5
5B5
 10
394.585237
 20
457.47316
 30
0.0
 11
403.959586
 21
457.829773
 31
0.0
  0
LINE
  8
LC-001-002-----0
  6
CONTINUOUS
  5
5B6
 10
403.959586
 20
459.310916
 30
0.0
 11
403.959586
 21
457.829773
 31
0.0
  0
LINE
  8
LC-006-005-----0
  6
CONTINUOUS
  5
5B7
 10
312.027649
 20
241.316971
 30
0.0
 11
313.385635
 21
242.674957
 31
0.0
  0
LINE
  8
LC-006-005-----0
  6
CONTINUOUS
  5
5B8
 10
310.959586
 20
243.077335
 30
0.0
 11
313.959586
 21
246.077335
 31
0.0
  0
LINE
  8
LC-006-005-----0
  6
CONTINUOUS
  5
5B9
 10
310.959586
 20
245.905762
 30
0.0
 11
313.959586
 21
248.905762
 31
0.0
  0
LINE
  8
LC-006-005-----0
  6
CONTINUOUS
  5
5BA
 10
310.959586
 20
248.734189
 30
0.0
 11
313.959586
 21
251.734189
 31
0.0
  0
LINE
  8
LC-006-005-----0
  6
CONTINUOUS
  5
5BB
 10
310.959586
 20
251.562617
 30
0.0
 11
313.959586
 21
254.562616
 31
0.0
  0
LINE
  8
LC-006-005-----0
  6
CONTINUOUS
  5
5BC
 10
310.959586
 20
254.391044
 30
0.0
 11
313.959586
 21
257.391043
 31
0.0
  0
LINE
  8
LC-006-005-----0
  6
CONTINUOUS
  5
5BD
 10
310.959587
 20
257.219471
 30
0.0
 11
313.959586
 21
260.21947
 31
0.0
  0
LINE
  8
LC-006-005-----0
  6
CONTINUOUS
  5
5BE
 10
310.959587
 20
260.047898
 30
0.0
 11
313.959586
 21
263.047898
 31
0.0
  0
LINE
  8
LC-006-005-----0
  6
CONTINUOUS
  5
5BF
 10
310.959587
 20
262.876326
 30
0.0
 11
313.959586
 21
265.876325
 31
0.0
  0
LINE
  8
LC-006-005-----0
  6
CONTINUOUS
  5
5C0
 10
310.959587
 20
265.704753
 30
0.0
 11
313.959586
 21
268.704752
 31
0.0
  0
LINE
  8
LC-006-005-----0
  6
CONTINUOUS
  5
5C1
 10
310.959587
 20
268.53318
 30
0.0
 11
313.959586
 21
271.533179
 31
0.0
  0
LINE
  8
LC-006-005-----0
  6
CONTINUOUS
  5
5C2
 10
310.959587
 20
271.361607
 30
0.0
 11
313.959586
 21
274.361606
 31
0.0
  0
LINE
  8
LC-006-005-----0
  6
CONTINUOUS
  5
5C3
 10
310.959587
 20
274.190035
 30
0.0
 11
313.959586
 21
277.190033
 31
0.0
  0
LINE
  8
LC-006-005-----0
  6
CONTINUOUS
  5
5C4
 10
310.959587
 20
277.018462
 30
0.0
 11
313.959586
 21
280.01846
 31
0.0
  0
LINE
  8
LC-006-005-----0
  6
CONTINUOUS
  5
5C5
 10
310.959588
 20
279.846889
 30
0.0
 11
313.959586
 21
282.846887
 31
0.0
  0
LINE
  8
LC-006-005-----0
  6
CONTINUOUS
  5
5C6
 10
310.959588
 20
282.675317
 30
0.0
 11
313.959586
 21
285.675315
 31
0.0
  0
LINE
  8
LC-006-005-----0
  6
CONTINUOUS
  5
5C7
 10
310.959588
 20
285.503744
 30
0.0
 11
313.959586
 21
288.503742
 31
0.0
  0
LINE
  8
LC-006-005-----0
  6
CONTINUOUS
  5
5C8
 10
310.959588
 20
288.332171
 30
0.0
 11
313.959586
 21
291.332169
 31
0.0
  0
LINE
  8
LC-006-005-----0
  6
CONTINUOUS
  5
5C9
 10
310.959588
 20
291.160598
 30
0.0
 11
313.959586
 21
294.160596
 31
0.0
  0
LINE
  8
LC-006-005-----0
  6
CONTINUOUS
  5
5CA
 10
310.959588
 20
293.989026
 30
0.0
 11
313.959586
 21
296.989023
 31
0.0
  0
LINE
  8
LC-006-005-----0
  6
CONTINUOUS
  5
5CB
 10
310.959588
 20
296.817453
 30
0.0
 11
313.959586
 21
299.81745
 31
0.0
  0
LINE
  8
LC-006-005-----0
  6
CONTINUOUS
  5
5CC
 10
310.959589
 20
299.64588
 30
0.0
 11
313.959586
 21
302.645877
 31
0.0
  0
LINE
  8
LC-006-005-----0
  6
CONTINUOUS
  5
5CD
 10
310.959589
 20
302.474307
 30
0.0
 11
313.959586
 21
305.474304
 31
0.0
  0
LINE
  8
LC-006-005-----0
  6
CONTINUOUS
  5
5CE
 10
310.959589
 20
305.302735
 30
0.0
 11
313.959586
 21
308.302732
 31
0.0
  0
LINE
  8
LC-006-005-----0
  6
CONTINUOUS
  5
5CF
 10
310.959589
 20
308.131162
 30
0.0
 11
313.959586
 21
311.131159
 31
0.0
  0
LINE
  8
LC-006-005-----0
  6
CONTINUOUS
  5
5D0
 10
310.959589
 20
310.959589
 30
0.0
 11
313.959586
 21
313.959586
 31
0.0
  0
LINE
  8
LC-006-005-----0
  6
CONTINUOUS
  5
5D1
 10
310.959589
 20
313.788016
 30
0.0
 11
313.959586
 21
316.788013
 31
0.0
  0
LINE
  8
LC-006-005-----0
  6
CONTINUOUS
  5
5D2
 10
310.959589
 20
316.616444
 30
0.0
 11
313.959586
 21
319.61644
 31
0.0
  0
LINE
  8
LC-006-005-----0
  6
CONTINUOUS
  5
5D3
 10
310.959589
 20
319.444871
 30
0.0
 11
313.959586
 21
322.444867
 31
0.0
  0
LINE
  8
LC-006-005-----0
  6
CONTINUOUS
  5
5D4
 10
310.95959
 20
322.273298
 30
0.0
 11
313.959586
 21
325.273294
 31
0.0
  0
LINE
  8
LC-006-005-----0
  6
CONTINUOUS
  5
5D5
 10
310.95959
 20
325.101725
 30
0.0
 11
313.959586
 21
328.101721
 31
0.0
  0
LINE
  8
LC-006-005-----0
  6
CONTINUOUS
  5
5D6
 10
310.95959
 20
327.930153
 30
0.0
 11
313.959586
 21
330.930149
 31
0.0
  0
LINE
  8
LC-006-005-----0
  6
CONTINUOUS
  5
5D7
 10
310.95959
 20
330.75858
 30
0.0
 11
313.959586
 21
333.758576
 31
0.0
  0
LINE
  8
LC-006-005-----0
  6
CONTINUOUS
  5
5D8
 10
310.95959
 20
333.587007
 30
0.0
 11
313.959586
 21
336.587003
 31
0.0
  0
LINE
  8
LC-006-005-----0
  6
CONTINUOUS
  5
5D9
 10
310.95959
 20
336.415434
 30
0.0
 11
313.959586
 21
339.41543
 31
0.0
  0
LINE
  8
LC-006-005-----0
  6
CONTINUOUS
  5
5DA
 10
310.95959
 20
339.243862
 30
0.0
 11
313.959586
 21
342.243857
 31
0.0
  0
LINE
  8
LC-006-005-----0
  6
CONTINUOUS
  5
5DB
 10
310.959591
 20
342.072289
 30
0.0
 11
313.959586
 21
345.072284
 31
0.0
  0
LINE
  8
LC-006-005-----0
  6
CONTINUOUS
  5
5DC
 10
310.959591
 20
344.900716
 30
0.0
 11
313.959586
 21
347.900711
 31
0.0
  0
LINE
  8
LC-006-005-----0
  6
CONTINUOUS
  5
5DD
 10
310.959591
 20
347.729143
 30
0.0
 11
313.959586
 21
350.729138
 31
0.0
  0
LINE
  8
LC-006-005-----0
  6
CONTINUOUS
  5
5DE
 10
310.959591
 20
350.557571
 30
0.0
 11
313.959586
 21
353.557566
 31
0.0
  0
LINE
  8
LC-006-005-----0
  6
CONTINUOUS
  5
5DF
 10
310.959591
 20
353.385998
 30
0.0
 11
313.959586
 21
356.385993
 31
0.0
  0
LINE
  8
LC-006-005-----0
  6
CONTINUOUS
  5
5E0
 10
310.959591
 20
356.214425
 30
0.0
 11
313.959586
 21
359.21442
 31
0.0
  0
LINE
  8
LC-006-005-----0
  6
CONTINUOUS
  5
5E1
 10
310.959591
 20
359.042852
 30
0.0
 11
313.959586
 21
362.042847
 31
0.0
  0
LINE
  8
LC-006-005-----0
  6
CONTINUOUS
  5
5E2
 10
310.959591
 20
361.87128
 30
0.0
 11
313.959586
 21
364.871274
 31
0.0
  0
LINE
  8
LC-006-005-----0
  6
CONTINUOUS
  5
5E3
 10
310.959592
 20
364.699707
 30
0.0
 11
313.959586
 21
367.699701
 31
0.0
  0
LINE
  8
LC-006-005-----0
  6
CONTINUOUS
  5
5E4
 10
310.959592
 20
367.528134
 30
0.0
 11
313.959586
 21
370.528128
 31
0.0
  0
LINE
  8
LC-006-005-----0
  6
CONTINUOUS
  5
5E5
 10
401.154522
 20
457.723065
 30
0.0
 11
403.709954
 21
460.278497
 31
0.0
  0
LINE
  8
LC-006-005-----0
  6
CONTINUOUS
  5
5E6
 10
310.959592
 20
370.356561
 30
0.0
 11
313.959586
 21
373.356555
 31
0.0
  0
LINE
  8
LC-006-005-----0
  6
CONTINUOUS
  5
5E7
 10
398.214243
 20
457.611213
 30
0.0
 11
401.901839
 21
461.298808
 31
0.0
  0
LINE
  8
LC-006-005-----0
  6
CONTINUOUS
  5
5E8
 10
310.959592
 20
373.184989
 30
0.0
 11
313.959586
 21
376.184983
 31
0.0
  0
LINE
  8
LC-006-005-----0
  6
CONTINUOUS
  5
5E9
 10
395.273964
 20
457.49936
 30
0.0
 11
398.980633
 21
461.20603
 31
0.0
  0
LINE
  8
LC-006-005-----0
  6
CONTINUOUS
  5
5EA
 10
310.959592
 20
376.013416
 30
0.0
 11
313.959586
 21
379.01341
 31
0.0
  0
LINE
  8
LC-006-005-----0
  6
CONTINUOUS
  5
5EB
 10
391.464251
 20
456.518075
 30
0.0
 11
396.059428
 21
461.113252
 31
0.0
  0
LINE
  8
LC-006-005-----0
  6
CONTINUOUS
  5
5EC
 10
310.959592
 20
378.841843
 30
0.0
 11
313.959586
 21
381.841837
 31
0.0
  0
LINE
  8
LC-006-005-----0
  6
CONTINUOUS
  5
5ED
 10
387.389886
 20
455.272137
 30
0.0
 11
392.70166
 21
460.583911
 31
0.0
  0
LINE
  8
LC-006-005-----0
  6
CONTINUOUS
  5
5EE
 10
310.959592
 20
381.670271
 30
0.0
 11
313.959586
 21
384.670264
 31
0.0
  0
LINE
  8
LC-006-005-----0
  6
CONTINUOUS
  5
5EF
 10
383.315522
 20
454.0262
 30
0.0
 11
388.627698
 21
459.338376
 31
0.0
  0
LINE
  8
LC-006-005-----0
  6
CONTINUOUS
  5
5F0
 10
310.959593
 20
384.498698
 30
0.0
 11
313.959586
 21
387.498691
 31
0.0
  0
LINE
  8
LC-006-005-----0
  6
CONTINUOUS
  5
5F1
 10
379.241157
 20
452.780262
 30
0.0
 11
384.553736
 21
458.092841
 31
0.0
  0
LINE
  8
LC-006-005-----0
  6
CONTINUOUS
  5
5F2
 10
310.959593
 20
387.327125
 30
0.0
 11
313.959586
 21
390.327118
 31
0.0
  0
LINE
  8
LC-006-005-----0
  6
CONTINUOUS
  5
5F3
 10
364.950126
 20
441.317658
 30
0.0
 11
364.960108
 21
441.32764
 31
0.0
  0
LINE
  8
LC-006-005-----0
  6
CONTINUOUS
  5
5F4
 10
375.166792
 20
451.534325
 30
0.0
 11
380.479773
 21
456.847306
 31
0.0
  0
LINE
  8
LC-006-005-----0
  6
CONTINUOUS
  5
5F5
 10
310.959593
 20
390.155552
 30
0.0
 11
313.959586
 21
393.155545
 31
0.0
  0
LINE
  8
LC-006-005-----0
  6
CONTINUOUS
  5
5F6
 10
361.479936
 20
440.675895
 30
0.0
 11
364.960108
 21
444.156067
 31
0.0
  0
LINE
  8
LC-006-005-----0
  6
CONTINUOUS
  5
5F7
 10
369.658615
 20
448.854575
 30
0.0
 11
376.405811
 21
455.60177
 31
0.0
  0
LINE
  8
LC-006-005-----0
  6
CONTINUOUS
  5
5F8
 10
310.959593
 20
392.98398
 30
0.0
 11
313.959586
 21
395.983972
 31
0.0
  0
LINE
  8
LC-006-005-----0
  6
CONTINUOUS
  5
5F9
 10
358.347592
 20
440.371978
 30
0.0
 11
359.328807
 21
441.353194
 31
0.0
  0
LINE
  8
LC-006-005-----0
  6
CONTINUOUS
  5
5FA
 10
361.460075
 20
443.484462
 30
0.0
 11
364.960108
 21
446.984494
 31
0.0
  0
LINE
  8
LC-006-005-----0
  6
CONTINUOUS
  5
5FB
 10
366.830188
 20
448.854575
 30
0.0
 11
369.330188
 21
451.354575
 31
0.0
  0
LINE
  8
LC-006-005-----0
  6
CONTINUOUS
  5
5FC
 10
371.960108
 20
453.984494
 30
0.0
 11
372.829498
 21
454.853884
 31
0.0
  0
LINE
  8
LC-006-005-----0
  6
CONTINUOUS
  5
5FD
 10
310.959593
 20
395.812407
 30
0.0
 11
313.959586
 21
398.8124
 31
0.0
  0
LINE
  8
LC-006-005-----0
  6
CONTINUOUS
  5
5FE
 10
355.960777
 20
440.813591
 30
0.0
 11
356.50038
 21
441.353194
 31
0.0
  0
LINE
  8
LC-006-005-----0
  6
CONTINUOUS
  5
5FF
 10
361.460075
 20
446.312889
 30
0.0
 11
366.501761
 21
451.354575
 31
0.0
  0
LINE
  8
LC-006-005-----0
  6
CONTINUOUS
  5
600
 10
310.959593
 20
398.640834
 30
0.0
 11
313.959586
 21
401.640827
 31
0.0
  0
LINE
  8
LC-006-005-----0
  6
CONTINUOUS
  5
601
 10
353.636442
 20
441.317683
 30
0.0
 11
356.460075
 21
444.141316
 31
0.0
  0
LINE
  8
LC-006-005-----0
  6
CONTINUOUS
  5
602
 10
361.960077
 20
449.641318
 30
0.0
 11
364.959586
 21
452.640827
 31
0.0
  0
LINE
  8
LC-006-005-----0
  6
CONTINUOUS
  5
603
 10
310.959593
 20
401.469261
 30
0.0
 11
313.959586
 21
404.469254
 31
0.0
  0
LINE
  8
LC-006-005-----0
  6
CONTINUOUS
  5
604
 10
350.808021
 20
441.317689
 30
0.0
 11
356.460075
 21
446.969743
 31
0.0
  0
LINE
  8
LC-006-005-----0
  6
CONTINUOUS
  5
605
 10
361.960069
 20
452.469737
 30
0.0
 11
364.592919
 21
455.102587
 31
0.0
  0
LINE
  8
LC-006-005-----0
  6
CONTINUOUS
  5
606
 10
310.959593
 20
404.297689
 30
0.0
 11
313.959586
 21
407.297681
 31
0.0
  0
LINE
  8
LC-006-005-----0
  6
CONTINUOUS
  5
607
 10
347.9796
 20
441.317695
 30
0.0
 11
355.961314
 21
449.29941
 31
0.0
  0
LINE
  8
LC-006-005-----0
  6
CONTINUOUS
  5
608
 10
361.960062
 20
455.298157
 30
0.0
 11
363.015099
 21
456.353194
 31
0.0
  0
LINE
  8
LC-006-005-----0
  6
CONTINUOUS
  5
609
 10
310.959594
 20
407.126116
 30
0.0
 11
313.959586
 21
410.126108
 31
0.0
  0
LINE
  8
LC-006-005-----0
  6
CONTINUOUS
  5
60A
 10
345.151179
 20
441.317702
 30
0.0
 11
348.151829
 21
444.318351
 31
0.0
  0
LINE
  8
LC-006-005-----0
  6
CONTINUOUS
  5
60B
 10
348.959698
 20
445.12622
 30
0.0
 11
355.961313
 21
452.127835
 31
0.0
  0
LINE
  8
LC-006-005-----0
  6
CONTINUOUS
  5
60C
 10
310.959594
 20
409.954543
 30
0.0
 11
313.959586
 21
412.954535
 31
0.0
  0
LINE
  8
LC-006-005-----0
  6
CONTINUOUS
  5
60D
 10
342.322758
 20
441.317708
 30
0.0
 11
345.323402
 21
444.318351
 31
0.0
  0
LINE
  8
LC-006-005-----0
  6
CONTINUOUS
  5
60E
 10
348.959698
 20
447.954647
 30
0.0
 11
355.961311
 21
454.95626
 31
0.0
  0
LINE
  8
LC-006-005-----0
  6
CONTINUOUS
  5
60F
 10
310.959594
 20
412.78297
 30
0.0
 11
313.959586
 21
415.782962
 31
0.0
  0
LINE
  8
LC-006-005-----0
  6
CONTINUOUS
  5
610
 10
339.451127
 20
441.274503
 30
0.0
 11
342.494975
 21
444.318351
 31
0.0
  0
LINE
  8
LC-006-005-----0
  6
CONTINUOUS
  5
611
 10
348.959698
 20
450.783074
 30
0.0
 11
354.529817
 21
456.353194
 31
0.0
  0
LINE
  8
LC-006-005-----0
  6
CONTINUOUS
  5
612
 10
310.959594
 20
415.611398
 30
0.0
 11
313.959586
 21
418.611389
 31
0.0
  0
LINE
  8
LC-006-005-----0
  6
CONTINUOUS
  5
613
 10
336.539393
 20
441.191197
 30
0.0
 11
339.629217
 21
444.28102
 31
0.0
  0
LINE
  8
LC-006-005-----0
  6
CONTINUOUS
  5
614
 10
348.959698
 20
453.611502
 30
0.0
 11
351.702081
 21
456.353884
 31
0.0
  0
LINE
  8
LC-006-005-----0
  6
CONTINUOUS
  5
615
 10
310.959594
 20
418.439825
 30
0.0
 11
313.959586
 21
421.439817
 31
0.0
  0
LINE
  8
LC-006-005-----0
  6
CONTINUOUS
  5
616
 10
333.62766
 20
441.107891
 30
0.0
 11
336.724993
 21
444.205223
 31
0.0
  0
LINE
  8
LC-006-005-----0
  6
CONTINUOUS
  5
617
 10
310.959594
 20
421.268252
 30
0.0
 11
313.959586
 21
424.268244
 31
0.0
  0
LINE
  8
LC-006-005-----0
  6
CONTINUOUS
  5
618
 10
330.715927
 20
441.024584
 30
0.0
 11
333.820768
 21
444.129426
 31
0.0
  0
LINE
  8
LC-006-005-----0
  6
CONTINUOUS
  5
619
 10
310.959594
 20
424.096679
 30
0.0
 11
313.959586
 21
427.096671
 31
0.0
  0
LINE
  8
LC-006-005-----0
  6
CONTINUOUS
  5
61A
 10
327.804193
 20
440.941278
 30
0.0
 11
330.916544
 21
444.053629
 31
0.0
  0
LINE
  8
LC-006-005-----0
  6
CONTINUOUS
  5
61B
 10
310.959595
 20
426.925107
 30
0.0
 11
313.959586
 21
429.925098
 31
0.0
  0
LINE
  8
LC-006-005-----0
  6
CONTINUOUS
  5
61C
 10
324.89246
 20
440.857972
 30
0.0
 11
328.01232
 21
443.977832
 31
0.0
  0
LINE
  8
LC-006-005-----0
  6
CONTINUOUS
  5
61D
 10
310.959595
 20
429.753534
 30
0.0
 11
313.959586
 21
432.753525
 31
0.0
  0
LINE
  8
LC-006-005-----0
  6
CONTINUOUS
  5
61E
 10
321.980726
 20
440.774666
 30
0.0
 11
325.108095
 21
443.902035
 31
0.0
  0
LINE
  8
LC-006-005-----0
  6
CONTINUOUS
  5
61F
 10
310.959595
 20
432.581961
 30
0.0
 11
313.959586
 21
435.581952
 31
0.0
  0
LINE
  8
LC-006-005-----0
  6
CONTINUOUS
  5
620
 10
319.068993
 20
440.691359
 30
0.0
 11
322.203871
 21
443.826238
 31
0.0
  0
LINE
  8
LC-006-005-----0
  6
CONTINUOUS
  5
621
 10
310.959595
 20
435.410388
 30
0.0
 11
313.959586
 21
438.410379
 31
0.0
  0
LINE
  8
LC-006-005-----0
  6
CONTINUOUS
  5
622
 10
316.15726
 20
440.608053
 30
0.0
 11
319.299647
 21
443.75044
 31
0.0
  0
LINE
  8
LC-006-005-----0
  6
CONTINUOUS
  5
623
 10
310.959595
 20
438.238816
 30
0.0
 11
316.395423
 21
443.674643
 31
0.0
  0
LINE
  8
LC-006-005-----0
  6
CONTINUOUS
  5
624
 10
310.959595
 20
441.067243
 30
0.0
 11
313.491198
 21
443.598846
 31
0.0
  0
ENDSEC
  0
EOF
